  0
SECTION
  2
HEADER
  9
$ACADVER
  1
AC1027
  9
$ACADMAINTVER
 70
   125
  9
$DWGCODEPAGE
  3
ANSI_932
  9
$LASTSAVEDBY
  1
poojars
  9
$REQUIREDVERSIONS
160
                 0
  9
$INSBASE
 10
0.0
 20
0.0
 30
0.0
  9
$EXTMIN
 10
0.0
 20
0.0
 30
-50.0
  9
$EXTMAX
 10
420.0
 20
297.0
 30
50.0
  9
$LIMMIN
 10
0.0
 20
0.0
  9
$LIMMAX
 10
420.0
 20
297.0
  9
$ORTHOMODE
 70
     0
  9
$REGENMODE
 70
     1
  9
$FILLMODE
 70
     1
  9
$QTEXTMODE
 70
     0
  9
$MIRRTEXT
 70
     0
  9
$LTSCALE
 40
0.75
  9
$ATTMODE
 70
     1
  9
$TEXTSIZE
 40
3.5
  9
$TRACEWID
 40
1.0
  9
$TEXTSTYLE
  7
Standard
  9
$CLAYER
  8
0
  9
$CELTYPE
  6
ByLayer
  9
$CECOLOR
 62
   256
  9
$CELTSCALE
 40
1.0
  9
$DISPSILH
 70
     0
  9
$DIMSCALE
 40
1.0
  9
$DIMASZ
 40
3.5
  9
$DIMEXO
 40
2.1
  9
$DIMDLI
 40
10.5
  9
$DIMRND
 40
0.0
  9
$DIMDLE
 40
0.0
  9
$DIMEXE
 40
2.1
  9
$DIMTP
 40
0.1
  9
$DIMTM
 40
0.1
  9
$DIMTXT
 40
3.5
  9
$DIMCEN
 40
0.0
  9
$DIMTSZ
 40
0.0
  9
$DIMTOL
 70
     0
  9
$DIMLIM
 70
     0
  9
$DIMTIH
 70
     0
  9
$DIMTOH
 70
     0
  9
$DIMSE1
 70
     0
  9
$DIMSE2
 70
     0
  9
$DIMTAD
 70
     1
  9
$DIMZIN
 70
     8
  9
$DIMBLK
  1

  9
$DIMASO
 70
     1
  9
$DIMSHO
 70
     1
  9
$DIMPOST
  1

  9
$DIMAPOST
  1

  9
$DIMALT
 70
     0
  9
$DIMALTD
 70
     2
  9
$DIMALTF
 40
0.03937
  9
$DIMLFAC
 40
1.0
  9
$DIMTOFL
 70
     1
  9
$DIMTVP
 40
0.0
  9
$DIMTIX
 70
     0
  9
$DIMSOXD
 70
     0
  9
$DIMSAH
 70
     0
  9
$DIMBLK1
  1

  9
$DIMBLK2
  1

  9
$DIMSTYLE
  2
ISO-25
  9
$DIMCLRD
 70
   256
  9
$DIMCLRE
 70
   256
  9
$DIMCLRT
 70
   256
  9
$DIMTFAC
 40
0.714286
  9
$DIMGAP
 40
1.4
  9
$DIMJUST
 70
     0
  9
$DIMSD1
 70
     0
  9
$DIMSD2
 70
     0
  9
$DIMTOLJ
 70
     0
  9
$DIMTZIN
 70
     8
  9
$DIMALTZ
 70
    12
  9
$DIMALTTZ
 70
    12
  9
$DIMUPT
 70
     0
  9
$DIMDEC
 70
     2
  9
$DIMTDEC
 70
     2
  9
$DIMALTU
 70
     2
  9
$DIMALTTD
 70
     2
  9
$DIMTXSTY
  7
Standard
  9
$DIMAUNIT
 70
     0
  9
$DIMADEC
 70
     2
  9
$DIMALTRND
 40
0.0
  9
$DIMAZIN
 70
     2
  9
$DIMDSEP
 70
    46
  9
$DIMATFIT
 70
     3
  9
$DIMFRAC
 70
     0
  9
$DIMLDRBLK
  1

  9
$DIMLUNIT
 70
     2
  9
$DIMLWD
 70
    -2
  9
$DIMLWE
 70
    -2
  9
$DIMTMOVE
 70
     0
  9
$DIMFXL
 40
1.0
  9
$DIMFXLON
 70
     0
  9
$DIMJOGANG
 40
0.785398
  9
$DIMTFILL
 70
     0
  9
$DIMTFILLCLR
 70
     0
  9
$DIMARCSYM
 70
     0
  9
$DIMLTYPE
  6

  9
$DIMLTEX1
  6

  9
$DIMLTEX2
  6

  9
$DIMTXTDIRECTION
 70
     0
  9
$LUNITS
 70
     2
  9
$LUPREC
 70
     4
  9
$SKETCHINC
 40
1.0
  9
$FILLETRAD
 40
0.0
  9
$AUNITS
 70
     0
  9
$AUPREC
 70
     0
  9
$MENU
  1
.
  9
$ELEVATION
 40
0.0
  9
$PELEVATION
 40
0.0
  9
$THICKNESS
 40
0.0
  9
$LIMCHECK
 70
     0
  9
$CHAMFERA
 40
0.0
  9
$CHAMFERB
 40
0.0
  9
$CHAMFERC
 40
0.0
  9
$CHAMFERD
 40
0.0
  9
$SKPOLY
 70
     0
  9
$TDCREATE
 40
2459668.362592593
  9
$TDUCREATE
 40
2459667.987592593
  9
$TDUPDATE
 40
2459668.362592593
  9
$TDUUPDATE
 40
2459667.987592593
  9
$TDINDWG
 40
0.0000115741
  9
$TDUSRTIMER
 40
0.0000115741
  9
$USRTIMER
 70
     1
  9
$ANGBASE
 50
0.0
  9
$ANGDIR
 70
     0
  9
$PDMODE
 70
     0
  9
$PDSIZE
 40
0.0
  9
$PLINEWID
 40
0.0
  9
$SPLFRAME
 70
     0
  9
$SPLINETYPE
 70
     6
  9
$SPLINESEGS
 70
     8
  9
$HANDSEED
  5
674
  9
$SURFTAB1
 70
     6
  9
$SURFTAB2
 70
     6
  9
$SURFTYPE
 70
     6
  9
$SURFU
 70
     6
  9
$SURFV
 70
     6
  9
$UCSBASE
  2

  9
$UCSNAME
  2

  9
$UCSORG
 10
0.0
 20
0.0
 30
0.0
  9
$UCSXDIR
 10
1.0
 20
0.0
 30
0.0
  9
$UCSYDIR
 10
0.0
 20
1.0
 30
0.0
  9
$UCSORTHOREF
  2

  9
$UCSORTHOVIEW
 70
     0
  9
$UCSORGTOP
 10
0.0
 20
0.0
 30
0.0
  9
$UCSORGBOTTOM
 10
0.0
 20
0.0
 30
0.0
  9
$UCSORGLEFT
 10
0.0
 20
0.0
 30
0.0
  9
$UCSORGRIGHT
 10
0.0
 20
0.0
 30
0.0
  9
$UCSORGFRONT
 10
0.0
 20
0.0
 30
0.0
  9
$UCSORGBACK
 10
0.0
 20
0.0
 30
0.0
  9
$PUCSBASE
  2

  9
$PUCSNAME
  2

  9
$PUCSORG
 10
0.0
 20
0.0
 30
0.0
  9
$PUCSXDIR
 10
1.0
 20
0.0
 30
0.0
  9
$PUCSYDIR
 10
0.0
 20
1.0
 30
0.0
  9
$PUCSORTHOREF
  2

  9
$PUCSORTHOVIEW
 70
     0
  9
$PUCSORGTOP
 10
0.0
 20
0.0
 30
0.0
  9
$PUCSORGBOTTOM
 10
0.0
 20
0.0
 30
0.0
  9
$PUCSORGLEFT
 10
0.0
 20
0.0
 30
0.0
  9
$PUCSORGRIGHT
 10
0.0
 20
0.0
 30
0.0
  9
$PUCSORGFRONT
 10
0.0
 20
0.0
 30
0.0
  9
$PUCSORGBACK
 10
0.0
 20
0.0
 30
0.0
  9
$USERI1
 70
     0
  9
$USERI2
 70
     0
  9
$USERI3
 70
     0
  9
$USERI4
 70
     0
  9
$USERI5
 70
     0
  9
$USERR1
 40
0.0
  9
$USERR2
 40
0.0
  9
$USERR3
 40
0.0
  9
$USERR4
 40
0.0
  9
$USERR5
 40
0.0
  9
$WORLDVIEW
 70
     1
  9
$SHADEDGE
 70
     3
  9
$SHADEDIF
 70
    70
  9
$TILEMODE
 70
     1
  9
$MAXACTVP
 70
    64
  9
$PINSBASE
 10
0.0
 20
0.0
 30
0.0
  9
$PLIMCHECK
 70
     0
  9
$PEXTMIN
 10
1.000000E+20
 20
1.000000E+20
 30
1.000000E+20
  9
$PEXTMAX
 10
-1.000000E+20
 20
-1.000000E+20
 30
-1.000000E+20
  9
$PLIMMIN
 10
0.0
 20
0.0
  9
$PLIMMAX
 10
12.0
 20
9.0
  9
$UNITMODE
 70
     0
  9
$VISRETAIN
 70
     1
  9
$PLINEGEN
 70
     0
  9
$PSLTSCALE
 70
     1
  9
$TREEDEPTH
 70
  3020
  9
$CMLSTYLE
  2
Standard
  9
$CMLJUST
 70
     0
  9
$CMLSCALE
 40
20.0
  9
$PROXYGRAPHICS
 70
     1
  9
$MEASUREMENT
 70
     1
  9
$CELWEIGHT
370
    -1
  9
$ENDCAPS
280
     0
  9
$JOINSTYLE
280
     0
  9
$LWDISPLAY
290
     0
  9
$INSUNITS
 70
     4
  9
$HYPERLINKBASE
  1

  9
$STYLESHEET
  1

  9
$XEDIT
290
     1
  9
$CEPSNTYPE
380
     0
  9
$PSTYLEMODE
290
     1
  9
$FINGERPRINTGUID
  2
{C3D0BDD7-AB97-5647-AF67-72048E21AD7B}
  9
$VERSIONGUID
  2
{42E335D6-762E-5840-92E7-AA249CC61002}
  9
$EXTNAMES
290
     1
  9
$PSVPSCALE
 40
0.0
  9
$OLESTARTUP
290
     0
  9
$SORTENTS
280
   127
  9
$INDEXCTL
280
     0
  9
$HIDETEXT
280
     1
  9
$XCLIPFRAME
280
     0
  9
$HALOGAP
280
     0
  9
$OBSCOLOR
 70
   257
  9
$OBSLTYPE
280
     0
  9
$INTERSECTIONDISPLAY
280
     0
  9
$INTERSECTIONCOLOR
 70
   257
  9
$DIMASSOC
280
     2
  9
$PROJECTNAME
  1

  9
$CAMERADISPLAY
290
     0
  9
$LENSLENGTH
 40
50.0
  9
$CAMERAHEIGHT
 40
0.0
  9
$STEPSPERSEC
 40
2.0
  9
$STEPSIZE
 40
6.0
  9
$3DDWFPREC
 40
2.0
  9
$PSOLWIDTH
 40
5.0
  9
$PSOLHEIGHT
 40
80.0
  9
$LOFTANG1
 40
1.570796
  9
$LOFTANG2
 40
1.570796
  9
$LOFTMAG1
 40
0.0
  9
$LOFTMAG2
 40
0.0
  9
$LOFTPARAM
 70
     7
  9
$LOFTNORMALS
280
     1
  9
$LATITUDE
 40
37.795
  9
$LONGITUDE
 40
-122.394
  9
$NORTHDIRECTION
 40
0.0
  9
$TIMEZONE
 70
 -8000
  9
$LIGHTGLYPHDISPLAY
280
     1
  9
$TILEMODELIGHTSYNCH
280
     1
  9
$CMATERIAL
347
11
  9
$SOLIDHIST
280
     0
  9
$SHOWHIST
280
     1
  9
$DWFFRAME
280
     2
  9
$DGNFRAME
280
     0
  9
$REALWORLDSCALE
290
     1
  9
$INTERFERECOLOR
 62
     1
  9
$INTERFEREOBJVS
345
33
  9
$INTERFEREVPVS
346
30
  9
$CSHADOW
280
     0
  9
$SHADOWPLANELOCATION
 40
0.0
  0
ENDSEC
  0
SECTION
  2
CLASSES
  0
CLASS
  1
ACDBDICTIONARYWDFLT
  2
AcDbDictionaryWithDefault
  3
ObjectDBX Classes
 90
        0
 91
        1
280
     0
281
     0
  0
CLASS
  1
MATERIAL
  2
AcDbMaterial
  3
ObjectDBX Classes
 90
     1153
 91
        3
280
     0
281
     0
  0
CLASS
  1
VISUALSTYLE
  2
AcDbVisualStyle
  3
ObjectDBX Classes
 90
     4095
 91
       24
280
     0
281
     0
  0
CLASS
  1
SCALE
  2
AcDbScale
  3
ObjectDBX Classes
 90
     1153
 91
       17
280
     0
281
     0
  0
CLASS
  1
TABLESTYLE
  2
AcDbTableStyle
  3
ObjectDBX Classes
 90
     4095
 91
        1
280
     0
281
     0
  0
CLASS
  1
MLEADERSTYLE
  2
AcDbMLeaderStyle
  3
ACDB_MLEADERSTYLE_CLASS
 90
     4095
 91
        1
280
     0
281
     0
  0
CLASS
  1
ACDBSECTIONVIEWSTYLE
  2
AcDbSectionViewStyle
  3
ObjectDBX Classes
 90
     1025
 91
        1
280
     0
281
     0
  0
CLASS
  1
ACDBDETAILVIEWSTYLE
  2
AcDbDetailViewStyle
  3
ObjectDBX Classes
 90
     1025
 91
        1
280
     0
281
     0
  0
CLASS
  1
ACMESCOPE
  2
AcMeScope
  3
AcMeServices
 90
     1024
 91
        1
280
     0
281
     0
  0
CLASS
  1
ACMECOMMANDHISTORY
  2
AcMeCommandHistory
  3
AcMeServices
 90
     1024
 91
        1
280
     0
281
     0
  0
CLASS
  1
ACIMSYSVARMAN
  2
AcImSysVarManager
  3
AcMeServices
 90
     1024
 91
        1
280
     0
281
     0
  0
CLASS
  1
ACIMINTSYSVAR
  2
AcImIntSysVar
  3
AcMeServices
 90
     1024
 91
        1
280
     0
281
     0
  0
CLASS
  1
ACMESTATEMGR
  2
AcMeStateMgr
  3
AcMeServices
 90
     1024
 91
        1
280
     0
281
     0
  0
CLASS
  1
ACGREFMASTER
  2
AcGrefMaster
  3
AcAttribServices
 90
     1024
 91
        1
280
     0
281
     0
  0
CLASS
  1
SORTENTSTABLE
  2
AcDbSortentsTable
  3
ObjectDBX Classes
 90
        0
 91
        3
280
     0
281
     0
  0
CLASS
  1
DICTIONARYVAR
  2
AcDbDictionaryVar
  3
ObjectDBX Classes
 90
        0
 91
        6
280
     0
281
     0
  0
CLASS
  1
CELLSTYLEMAP
  2
AcDbCellStyleMap
  3
ObjectDBX Classes
 90
     1152
 91
        1
280
     0
281
     0
  0
ENDSEC
  0
SECTION
  2
TABLES
  0
TABLE
  2
VPORT
  5
8
330
0
100
AcDbSymbolTable
 70
     1
1001
ACAD
1000
DbSaveVer
1071
      246
  0
VPORT
  5
57
330
8
100
AcDbSymbolTableRecord
100
AcDbViewportTableRecord
  2
*Active
 70
     0
 10
0.0
 20
0.0
 11
1.0
 21
1.0
 12
210.0
 22
148.5
 13
0.0
 23
0.0
 14
0.5
 24
0.5
 15
0.0
 25
0.0
 16
0.0
 26
0.0
 36
1.0
 17
0.0
 27
0.0
 37
0.0
 40
297.0
 41
1.779601
 42
50.0
 43
0.0
 44
0.0
 50
0.0
 51
0.0
 71
     0
 72
 20000
 73
     1
 74
     0
 75
     0
 76
     0
 77
     0
 78
     0
281
     0
 65
     1
110
0.0
120
0.0
130
0.0
111
1.0
121
0.0
131
0.0
112
0.0
122
1.0
132
0.0
 79
     0
146
0.0
348
2F
 60
     3
 61
     5
292
     1
282
     1
141
0.0
142
0.0
 63
   250
421
  3355443
  0
ENDTAB
  0
TABLE
  2
LTYPE
  5
5
330
0
100
AcDbSymbolTable
 70
    16
  0
LTYPE
  5
5B
330
5
100
AcDbSymbolTableRecord
100
AcDbLinetypeTableRecord
  2
ByBlock
 70
     0
  3

 72
    65
 73
     0
 40
0.0
  0
LTYPE
  5
5C
330
5
100
AcDbSymbolTableRecord
100
AcDbLinetypeTableRecord
  2
ByLayer
 70
     0
  3

 72
    65
 73
     0
 40
0.0
  0
LTYPE
  5
5D
330
5
100
AcDbSymbolTableRecord
100
AcDbLinetypeTableRecord
  2
Continuous
 70
     0
  3
Solid line
 72
    65
 73
     0
 40
0.0
  0
LTYPE
  5
81
330
5
100
AcDbSymbolTableRecord
100
AcDbLinetypeTableRecord
  2
HIDDEN
 70
     0
  3
Hidden __ __ __ __ __ __ __ __ __ __ __ __ __ _
 72
    65
 73
     2
 40
9.525
 49
6.35
 74
     0
 49
-3.175
 74
     0
  0
LTYPE
  5
82
330
5
100
AcDbSymbolTableRecord
100
AcDbLinetypeTableRecord
  2
PHANTOM2
 70
     0
  3
Phantom (.5x) ___ _ _ ___ _ _ ___ _ _ ___ _ _
 72
    65
 73
     6
 40
31.75
 49
15.875
 74
     0
 49
-3.175
 74
     0
 49
3.175
 74
     0
 49
-3.175
 74
     0
 49
3.175
 74
     0
 49
-3.175
 74
     0
  0
LTYPE
  5
83
330
5
100
AcDbSymbolTableRecord
100
AcDbLinetypeTableRecord
  2
CENTER
 70
     0
  3
Center ____ _ ____ _ ____ _ ____ _ ____ _ ____
 72
    65
 73
     4
 40
50.8
 49
31.75
 74
     0
 49
-6.35
 74
     0
 49
6.35
 74
     0
 49
-6.35
 74
     0
  0
LTYPE
  5
9D
330
5
100
AcDbSymbolTableRecord
100
AcDbLinetypeTableRecord
  2
CENTER2
 70
     0
  3
Center (.5x) ___ _ ___ _ ___ _ ___ _ ___ _ ___
 72
    65
 73
     4
 40
28.575
 49
19.05
 74
     0
 49
-3.175
 74
     0
 49
3.175
 74
     0
 49
-3.175
 74
     0
  0
LTYPE
  5
9E
330
5
100
AcDbSymbolTableRecord
100
AcDbLinetypeTableRecord
  2
HIDDEN2
 70
     0
  3
Hidden (.5x) _ _ _ _ _ _ _ _ _ _ _ _ _ _ _ _ _
 72
    65
 73
     2
 40
4.7625
 49
3.175
 74
     0
 49
-1.5875
 74
     0
  0
LTYPE
  5
9F
330
5
100
AcDbSymbolTableRecord
100
AcDbLinetypeTableRecord
  2
AM_ISO02W050
 70
     0
  3
__ __ __ __ __ __ __ __ __ __ __ __ __ __ __
 72
    65
 73
     2
 40
7.5
 49
6.0
 74
     0
 49
-1.5
 74
     0
  0
LTYPE
  5
A0
330
5
100
AcDbSymbolTableRecord
100
AcDbLinetypeTableRecord
  2
AM_ISO08W050
 70
     0
  3
____ . ____ . ____ . ____ . ____ . ____ . ____
 72
    65
 73
     4
 40
18.0
 49
12.0
 74
     0
 49
-1.5
 74
     0
 49
3.0
 74
     0
 49
-1.5
 74
     0
  0
LTYPE
  5
A1
330
5
100
AcDbSymbolTableRecord
100
AcDbLinetypeTableRecord
  2
AM_ISO09W050
 70
     0
  3
_____ . . _____ . . _____ . . ____ .. ____
 72
    65
 73
     6
 40
22.5
 49
12.0
 74
     0
 49
-1.5
 74
     0
 49
3.0
 74
     0
 49
-1.5
 74
     0
 49
3.0
 74
     0
 49
-1.5
 74
     0
  0
LTYPE
  5
A2
330
5
100
AcDbSymbolTableRecord
100
AcDbLinetypeTableRecord
  2
Amconstr
 70
     0
  3
_______________________
 72
    65
 73
     2
 40
9999.0
 49
9999.0
 74
     0
 49
0.0
 74
     0
  0
LTYPE
  5
A3
330
5
100
AcDbSymbolTableRecord
100
AcDbLinetypeTableRecord
  2
AM_ISO08W050x2
 70
     0
  3
__ . __ . __ . __ . __ . __
 72
    65
 73
     4
 40
9.0
 49
6.0
 74
     0
 49
-0.75
 74
     0
 49
1.5
 74
     0
 49
-0.75
 74
     0
  0
LTYPE
  5
A4
330
5
100
AcDbSymbolTableRecord
100
AcDbLinetypeTableRecord
  2
AM_ISO02W050x2
 70
     0
  3
 _ _ _ _ _ _ _ _ _ _ _ _
 72
    65
 73
     2
 40
3.75
 49
3.0
 74
     0
 49
-0.75
 74
     0
  0
LTYPE
  5
A5
330
5
100
AcDbSymbolTableRecord
100
AcDbLinetypeTableRecord
  2
Amzigzag
 70
     0
  3
/\/-/\/-/\/-/\/-/\/-/\/
 72
    65
 73
     2
 40
11.0001
 49
0.0001
 74
     4
 75
   136
340
9A
 46
0.04
 50
0.0
 44
0.0
 45
0.0
 49
-11.0
 74
     0
  0
LTYPE
  5
A6
330
5
100
AcDbSymbolTableRecord
100
AcDbLinetypeTableRecord
  2
ACISOWELD
 70
     0
  3
_ _ _ _ _
 72
    65
 73
     2
 40
2.0
 49
2.0
 74
     0
 49
-1.0
 74
     0
  0
LTYPE
  5
A7
330
5
100
AcDbSymbolTableRecord
100
AcDbLinetypeTableRecord
  2
ACISOTGL
 70
     0
  3
_ _ _ _ _
 72
    65
 73
     2
 40
3.0
 49
2.0
 74
     0
 49
-1.0
 74
     0
  0
LTYPE
  5
A8
330
5
100
AcDbSymbolTableRecord
100
AcDbLinetypeTableRecord
  2
ACISOTGB
 70
     0
  3
__ . . __ . .
 72
    65
 73
     6
 40
9.0
 49
4.0
 74
     0
 49
-1.0
 74
     0
 49
1.0
 74
     0
 49
-1.0
 74
     0
 49
1.0
 74
     0
 49
-1.0
 74
     0
  0
ENDTAB
  0
TABLE
  2
LAYER
  5
2
330
0
100
AcDbSymbolTable
 70
    14
  0
LAYER
  5
54
330
2
100
AcDbSymbolTableRecord
100
AcDbLayerTableRecord
  2
0
 70
     0
 62
     7
  6
Continuous
370
    -3
390
F
347
21
348
0
1001
AcAecLayerStandard
1000

1000

  0
LAYER
  5
79
330
2
100
AcDbSymbolTableRecord
100
AcDbLayerTableRecord
  2
Defpoints
 70
     0
 62
     7
  6
Continuous
290
     0
370
    -3
390
F
347
21
348
0
1001
AcAecLayerStandard
1000

1000

  0
LAYER
  5
B3
330
2
100
AcDbSymbolTableRecord
100
AcDbLayerTableRecord
  2
表示
 70
     0
 62
     7
  6
Continuous
370
    50
390
F
347
21
348
0
  0
LAYER
  5
BF
330
2
100
AcDbSymbolTableRecord
100
AcDbLayerTableRecord
  2
隠線
 70
     0
 62
     7
  6
HIDDEN2
370
    25
390
F
347
21
348
0
  0
LAYER
  5
E1
330
2
100
AcDbSymbolTableRecord
100
AcDbLayerTableRecord
  2
狭い隠線
 70
     0
 62
     7
  6
HIDDEN2
370
    25
390
F
347
21
348
0
  0
LAYER
  5
146
330
2
100
AcDbSymbolTableRecord
100
AcDbLayerTableRecord
  2
細線
 70
     0
 62
     7
  6
Continuous
370
    25
390
F
347
21
348
0
  0
LAYER
  5
1A7
330
2
100
AcDbSymbolTableRecord
100
AcDbLayerTableRecord
  2
Border
 70
     0
 62
     7
  6
Continuous
370
    25
390
F
347
21
348
0
1001
AcAecLayerStandard
1000

1000

1001
AcCmTransparency
1071
        0
  0
LAYER
  5
1ED
330
2
100
AcDbSymbolTableRecord
100
AcDbLayerTableRecord
  2
TitleBlock
 70
     0
 62
     7
  6
Continuous
370
    35
390
F
347
21
348
0
1001
AcAecLayerStandard
1000

1000

1001
AcCmTransparency
1071
        0
  0
LAYER
  5
239
330
2
100
AcDbSymbolTableRecord
100
AcDbLayerTableRecord
  2
Center Lines
 70
     0
 62
     7
  6
CENTER2
370
    25
390
F
347
21
348
0
  0
LAYER
  5
24E
330
2
100
AcDbSymbolTableRecord
100
AcDbLayerTableRecord
  2
Dimensions
 70
     0
 62
     7
  6
Continuous
370
    25
390
F
347
21
348
0
  0
ENDTAB
  0
TABLE
  2
STYLE
  5
3
330
0
100
AcDbSymbolTable
 70
     5
  0
STYLE
  5
55
330
3
100
AcDbSymbolTableRecord
100
AcDbTextStyleTableRecord
  2
Standard
 70
     0
 40
0.0
 41
1.0
 50
0.0
 71
     0
 42
3.5
  3
arial.ttf
  4

1001
ACAD
1000
Arial
1071
       34
  0
STYLE
  5
5A
330
3
100
AcDbSymbolTableRecord
100
AcDbTextStyleTableRecord
  2
Annotative
 70
     0
 40
0.0
 41
1.0
 50
0.0
 71
     0
 42
0.2
  3
txt
  4

1001
AcadAnnotative
1000
AnnotativeData
1002
{
1070
     1
1070
     1
1002
}
  0
STYLE
  5
99
330
3
100
AcDbSymbolTableRecord
100
AcDbTextStyleTableRecord
  2
FusionTitle
 70
     0
 40
0.0
 41
1.0
 50
0.0
 71
     0
 42
2.5
  3
arial.ttf
  4

1001
ACAD
1000
Arial
1071
       34
  0
STYLE
  5
9A
330
3
100
AcDbSymbolTableRecord
100
AcDbTextStyleTableRecord
  2

 70
     1
 40
0.0
 41
1.0
 50
0.0
 71
     0
 42
10.0
  3
genltshp.shx
  4

  0
STYLE
  5
9B
330
3
100
AcDbSymbolTableRecord
100
AcDbTextStyleTableRecord
  2
ACISOGDT
 70
     0
 40
0.0
 41
1.0
 50
0.0
 71
     0
 42
10.0
  3
amgdt.shx
  4

  0
ENDTAB
  0
TABLE
  2
VIEW
  5
6
330
0
100
AcDbSymbolTable
 70
     0
  0
ENDTAB
  0
TABLE
  2
UCS
  5
7
330
0
100
AcDbSymbolTable
 70
     0
  0
ENDTAB
  0
TABLE
  2
APPID
  5
9
330
0
100
AcDbSymbolTable
 70
    26
  0
APPID
  5
56
330
9
100
AcDbSymbolTableRecord
100
AcDbRegAppTableRecord
  2
ACAD
 70
     0
  0
APPID
  5
5E
330
9
100
AcDbSymbolTableRecord
100
AcDbRegAppTableRecord
  2
AcadAnnotative
 70
     0
  0
APPID
  5
78
330
9
100
AcDbSymbolTableRecord
100
AcDbRegAppTableRecord
  2
ACAD_PSEXT
 70
     0
  0
APPID
  5
7A
330
9
100
AcDbSymbolTableRecord
100
AcDbRegAppTableRecord
  2
MCAD_NO_VIS
 70
     0
  0
APPID
  5
7B
330
9
100
AcDbSymbolTableRecord
100
AcDbRegAppTableRecord
  2
ACAD_TEMP_GRAPHIC
 70
     0
  0
APPID
  5
84
330
9
100
AcDbSymbolTableRecord
100
AcDbRegAppTableRecord
  2
ACAD_DSTYLE_DIMJAG
 70
     0
  0
APPID
  5
85
330
9
100
AcDbSymbolTableRecord
100
AcDbRegAppTableRecord
  2
ACAD_DSTYLE_DIMTALN
 70
     0
  0
APPID
  5
86
330
9
100
AcDbSymbolTableRecord
100
AcDbRegAppTableRecord
  2
ACAD_NAV_VCDISPLAY
 70
     0
  0
APPID
  5
87
330
9
100
AcDbSymbolTableRecord
100
AcDbRegAppTableRecord
  2
AcAecLayerStandard
 70
     0
  0
APPID
  5
88
330
9
100
AcDbSymbolTableRecord
100
AcDbRegAppTableRecord
  2
AcCmTransparency
 70
     0
  0
APPID
  5
89
330
9
100
AcDbSymbolTableRecord
100
AcDbRegAppTableRecord
  2
AcDbDynamicBlockGUID
 70
     0
  0
APPID
  5
8A
330
9
100
AcDbSymbolTableRecord
100
AcDbRegAppTableRecord
  2
ACAD_DSTYLE_DIMBREAK
 70
     0
  0
APPID
  5
8B
330
9
100
AcDbSymbolTableRecord
100
AcDbRegAppTableRecord
  2
FUSIONTITLEBLOCK
 70
     0
  0
APPID
  5
8C
330
9
100
AcDbSymbolTableRecord
100
AcDbRegAppTableRecord
  2
FUSIONCURRENTTITLEBLOCK
 70
     0
  0
APPID
  5
8D
330
9
100
AcDbSymbolTableRecord
100
AcDbRegAppTableRecord
  2
AcSynergy
 70
     0
  0
APPID
  5
8E
330
9
100
AcDbSymbolTableRecord
100
AcDbRegAppTableRecord
  2
ACAD_VIEW_EDGE_ID
 70
     0
  0
APPID
  5
8F
330
9
100
AcDbSymbolTableRecord
100
AcDbRegAppTableRecord
  2
GENIUS_GENSCREG_15
 70
     0
  0
APPID
  5
90
330
9
100
AcDbSymbolTableRecord
100
AcDbRegAppTableRecord
  2
GENIUS_GENOBJ-N-SDF_13
 70
     0
  0
APPID
  5
91
330
9
100
AcDbSymbolTableRecord
100
AcDbRegAppTableRecord
  2
GENIUS_GENODEF_13
 70
     0
  0
APPID
  5
92
330
9
100
AcDbSymbolTableRecord
100
AcDbRegAppTableRecord
  2
ACAD_TC
 70
     0
  0
APPID
  5
93
330
9
100
AcDbSymbolTableRecord
100
AcDbRegAppTableRecord
  2
ACAD_DIMASSOC_CALC_DIMLFAC
 70
     0
  0
APPID
  5
94
330
9
100
AcDbSymbolTableRecord
100
AcDbRegAppTableRecord
  2
ACAD_DIMASSOC_DIMLFAC
 70
     0
  0
APPID
  5
95
330
9
100
AcDbSymbolTableRecord
100
AcDbRegAppTableRecord
  2
ACAD_DIMASSOC_OVERRIDDEN_DIMLFAC
 70
     0
  0
APPID
  5
96
330
9
100
AcDbSymbolTableRecord
100
AcDbRegAppTableRecord
  2
ACAD_DSTYLE_DIMJAG_POSITION
 70
     0
  0
APPID
  5
97
330
9
100
AcDbSymbolTableRecord
100
AcDbRegAppTableRecord
  2
FUSIONTITLEBLOCKATTRIBUTEOVERRIDE
 70
     0
  0
APPID
  5
98
330
9
100
AcDbSymbolTableRecord
100
AcDbRegAppTableRecord
  2
ACATTRIBSERVICES
 70
     0
  0
ENDTAB
  0
TABLE
  2
DIMSTYLE
  5
A
330
0
100
AcDbSymbolTable
 70
     3
100
AcDbDimStyleTable
 71
     1
340
AB
  0
DIMSTYLE
105
58
330
A
100
AcDbSymbolTableRecord
100
AcDbDimStyleTableRecord
  2
Standard
 70
     0
 41
3.5
 42
2.1
 43
10.5
 44
2.1
 78
     8
 79
     2
140
3.5
143
0.03937
146
0.714286
147
1.4
179
     2
271
     2
272
     2
284
     8
340
55
  0
DIMSTYLE
105
59
330
A
100
AcDbSymbolTableRecord
100
AcDbDimStyleTableRecord
  2
Annotative
 70
     0
 40
0.0
 41
3.5
 42
2.1
 43
10.5
 44
2.1
 73
     0
 74
     0
 77
     1
 78
     8
 79
     2
140
3.5
141
2.5
143
0.03937
146
0.714286
147
1.4
171
     3
172
     1
179
     2
271
     2
272
     2
274
     3
278
    44
283
     0
284
     8
340
55
1001
AcadAnnotative
1000
AnnotativeData
1002
{
1070
     1
1070
     1
1002
}
  0
DIMSTYLE
105
AB
102
{ACAD_REACTORS
330
24D
330
25B
330
268
330
275
330
282
330
28F
330
2A6
330
2B3
330
2C2
330
2D1
330
2E0
102
}
330
A
100
AcDbSymbolTableRecord
100
AcDbDimStyleTableRecord
  2
ISO-25
 70
     0
 41
3.5
 42
2.1
 43
10.5
 44
2.1
 47
0.1
 48
0.1
 73
     0
 74
     0
 77
     1
 78
     8
 79
     2
140
3.5
141
0.0
143
0.03937
146
0.714286
147
1.4
172
     1
176
   256
177
   256
178
   256
179
     2
271
     2
272
     2
283
     0
284
     8
285
    12
286
    12
340
55
1001
ACAD_DSTYLE_DIMJAG
1070
   388
1040
1.5
1001
ACAD_DSTYLE_DIMTALN
1070
   392
1070
     1
1001
ACAD_DSTYLE_DIMBREAK
1070
   391
1040
3.5
  0
ENDTAB
  0
TABLE
  2
BLOCK_RECORD
  5
1
330
0
100
AcDbSymbolTable
 70
    33
  0
BLOCK_RECORD
  5
70
102
{ACAD_XDICTIONARY
360
AC
102
}
330
1
100
AcDbSymbolTableRecord
100
AcDbBlockTableRecord
  2
*Model_Space
340
73
 70
     0
280
     1
281
     0
  0
BLOCK_RECORD
  5
6C
330
1
100
AcDbSymbolTableRecord
100
AcDbBlockTableRecord
  2
*Paper_Space
340
6F
 70
     0
280
     1
281
     0
  0
BLOCK_RECORD
  5
74
330
1
100
AcDbSymbolTableRecord
100
AcDbBlockTableRecord
  2
*Paper_Space0
340
77
 70
     0
280
     1
281
     0
  0
BLOCK_RECORD
  5
1A8
102
{ACAD_XDICTIONARY
360
1A9
102
}
330
1
100
AcDbSymbolTableRecord
100
AcDbBlockTableRecord
  2
ISO_A3_SHEET
340
0
310
2800000020000000200000000100080000000000000400000000000000000000000000000000000000000000000080000080000000808000800000008000800080800000C0C0C000C0DCC000F0CAA6000020400000206000002080000020A0000020C0000020E00000400000004020000040400000406000004080000040A0
310
000040C0000040E00000600000006020000060400000606000006080000060A0000060C0000060E00000800000008020000080400000806000008080000080A0000080C0000080E00000A0000000A0200000A0400000A0600000A0800000A0A00000A0C00000A0E00000C0000000C0200000C0400000C0600000C0800000C0
310
A00000C0C00000C0E00000E0000000E0200000E0400000E0600000E0800000E0A00000E0C00000E0E00040000000400020004000400040006000400080004000A0004000C0004000E00040200000402020004020400040206000402080004020A0004020C0004020E000404000004040200040404000404060004040800040
310
40A0004040C0004040E00040600000406020004060400040606000406080004060A0004060C0004060E00040800000408020004080400040806000408080004080A0004080C0004080E00040A0000040A0200040A0400040A0600040A0800040A0A00040A0C00040A0E00040C0000040C0200040C0400040C0600040C08000
310
40C0A00040C0C00040C0E00040E0000040E0200040E0400040E0600040E0800040E0A00040E0C00040E0E00080000000800020008000400080006000800080008000A0008000C0008000E00080200000802020008020400080206000802080008020A0008020C0008020E00080400000804020008040400080406000804080
310
008040A0008040C0008040E00080600000806020008060400080606000806080008060A0008060C0008060E00080800000808020008080400080806000808080008080A0008080C0008080E00080A0000080A0200080A0400080A0600080A0800080A0A00080A0C00080A0E00080C0000080C0200080C0400080C0600080C0
310
800080C0A00080C0C00080C0E00080E0000080E0200080E0400080E0600080E0800080E0A00080E0C00080E0E000C0000000C0002000C0004000C0006000C0008000C000A000C000C000C000E000C0200000C0202000C0204000C0206000C0208000C020A000C020C000C020E000C0400000C0402000C0404000C0406000C0
310
408000C040A000C040C000C040E000C0600000C0602000C0604000C0606000C0608000C060A000C060C000C060E000C0800000C0802000C0804000C0806000C0808000C080A000C080C000C080E000C0A00000C0A02000C0A04000C0A06000C0A08000C0A0A000C0A0C000C0A0E000C0C00000C0C02000C0C04000C0C06000
310
C0C08000C0C0A000F0FBFF00A4A0A000808080000000FF0000FF000000FFFF00FF000000FF00FF00FFFF0000FFFFFF0049494949494949494949494949494949494949494949494949494949494949494949494949494949494949494949494949494949494949494949494949494949494949494949494949494949494949
310
494949494949494949494949494949494949494949494949494949494949494949494949494949494949494949494949494949494949494949494949494949494949494949494949494949494949494949494949494949494949494949494949494949494949494949494949494949494949FFFFFFFFFFFFFFFFFFFFFFFFFF
310
FFFFFFFFFFFFFFFFFFFFFFFFFFFFFFFFFF4949FF49FF494949494949494949494949FF494949494949494949494949FFFF49494949FF49494949494949494949494949494949494949494949494949FF49494949FFFF49494949494949494949494949494949494949494949494949FF4949494949FF494949494949494949
310
49494949494949494949494949494949FF4949494949FF49494949494949494949494949494949494949494949494949FF49494949FFFF49494949494949494949494949494949494949494949494949FF4949494949FF49494949494949494949494949494949494949494949494949FF4949494949FF4949494949494949
310
4949494949494949494949494949494949FF4949494949FF49494949494949494949494949494949494949494949494949FF49494949FFFF49494949494949494949494949494949494949494949494949FF4949494949FF49494949494949494949494949494949494949494949494949FF4949494949FF49494949494949
310
494949494949494949494949494949494949FF49494949FFFF49494949494949494949494949494949494949494949494949FF4949494949FF49494949494949494949494949494949494949494949494949FF4949494949FF49494949494949494949494949494949494949494949494949FF49494949FFFF494949494949
310
49494949494949494949494949494949494949FF4949494949FF49494949494949494949494949494949494949494949494949FF494949FF49FF494949494949494949494949FF494949494949494949494949FFFF4949FFFFFFFFFFFFFFFFFFFFFFFFFFFFFFFFFFFFFFFFFFFFFFFFFFFFFFFFFFFF49494949494949494949
310
49494949494949494949494949494949494949494949494949494949494949494949494949494949494949494949494949494949494949494949494949494949494949494949494949494949494949494949494949494949494949494949494949494949494949494949494949494949494949494949494949494949494949
310
4949494949494949494949494949494949494949494949494949494949494949494949494949494949494949494949494949494949494949
102
{BLKREFS
331
1A6
102
}
 70
     4
280
     1
281
     0
1001
AcDbDynamicBlockGUID
1000
{B4874B5E-8040-BF49-A9B6-B81412F7B0AC}
  0
BLOCK_RECORD
  5
1EE
102
{ACAD_XDICTIONARY
360
1EF
102
}
330
1
100
AcDbSymbolTableRecord
100
AcDbBlockTableRecord
  2
ISO_TITLEBLOCK
340
0
310
2800000020000000200000000100080000000000000400000000000000000000000000000000000000000000000080000080000000808000800000008000800080800000C0C0C000C0DCC000F0CAA6000020400000206000002080000020A0000020C0000020E00000400000004020000040400000406000004080000040A0
310
000040C0000040E00000600000006020000060400000606000006080000060A0000060C0000060E00000800000008020000080400000806000008080000080A0000080C0000080E00000A0000000A0200000A0400000A0600000A0800000A0A00000A0C00000A0E00000C0000000C0200000C0400000C0600000C0800000C0
310
A00000C0C00000C0E00000E0000000E0200000E0400000E0600000E0800000E0A00000E0C00000E0E00040000000400020004000400040006000400080004000A0004000C0004000E00040200000402020004020400040206000402080004020A0004020C0004020E000404000004040200040404000404060004040800040
310
40A0004040C0004040E00040600000406020004060400040606000406080004060A0004060C0004060E00040800000408020004080400040806000408080004080A0004080C0004080E00040A0000040A0200040A0400040A0600040A0800040A0A00040A0C00040A0E00040C0000040C0200040C0400040C0600040C08000
310
40C0A00040C0C00040C0E00040E0000040E0200040E0400040E0600040E0800040E0A00040E0C00040E0E00080000000800020008000400080006000800080008000A0008000C0008000E00080200000802020008020400080206000802080008020A0008020C0008020E00080400000804020008040400080406000804080
310
008040A0008040C0008040E00080600000806020008060400080606000806080008060A0008060C0008060E00080800000808020008080400080806000808080008080A0008080C0008080E00080A0000080A0200080A0400080A0600080A0800080A0A00080A0C00080A0E00080C0000080C0200080C0400080C0600080C0
310
800080C0A00080C0C00080C0E00080E0000080E0200080E0400080E0600080E0800080E0A00080E0C00080E0E000C0000000C0002000C0004000C0006000C0008000C000A000C000C000C000E000C0200000C0202000C0204000C0206000C0208000C020A000C020C000C020E000C0400000C0402000C0404000C0406000C0
310
408000C040A000C040C000C040E000C0600000C0602000C0604000C0606000C0608000C060A000C060C000C060E000C0800000C0802000C0804000C0806000C0808000C080A000C080C000C080E000C0A00000C0A02000C0A04000C0A06000C0A08000C0A0A000C0A0C000C0A0E000C0C00000C0C02000C0C04000C0C06000
310
C0C08000C0C0A000F0FBFF00A4A0A000808080000000FF0000FF000000FFFF00FF000000FF00FF00FFFF0000FFFFFF0049494949494949494949494949494949494949494949494949494949494949494949494949494949494949494949494949494949494949494949494949494949494949494949494949494949494949
310
49494949494949494949494949494949494949494949494949494949494949494949494949494949494949494949494949494949494949494949494949494949494949494949494949494949494949494949494949494949494949494949494949494949494949494949494949494949494949494949494949494949494949
310
49494949494949494949494949494949494949494949494949494949494949494949494949494949494949494949494949494949494949494949494949494949494949494949494949494949494949494949494949494949494949494949494949494949494949494949494949494949494949494949494949494949494949
310
49494949494949494949494949494949494949494949494949494949494949494949494949494949494949494949494949494949FFFFFFFFFFFFFFFFFFFFFFFFFFFFFFFFFFFFFFFFFFFFFFFFFFFFFF4949494949FF4949494949494949FFFFFFFFFF49494949FFFFFFFFFFFFFFFFFFFF49494949FF4949494949494949FFFF
310
FFFFFF494949FFFFFFFFFFFFFFFFFFFF4949494949FF4949494949494949FFFFFFFFFF494949FFFFFFFFFFFFFFFFFFFF4949494949FF4949494949494949FFFFFFFFFFFFFFFFFFFFFFFFFFFFFFFFFFFF4949494949FFFFFFFFFFFFFFFFFFFFFFFFFFFFFFFFFFFFFFFFFFFFFFFFFFFFFF4949494949FFFFFF49FFFFFFFFFFFF
310
FFFFFFFFFFFFFFFFFFFFFFFFFFFFFFFFFFFFFFFF4949FFFFFFFFFFFFFFFFFFFFFFFFFFFFFFFFFFFFFFFFFFFFFFFFFFFFFF494949494949494949494949494949494949494949494949494949494949494949494949494949494949494949494949494949494949494949494949494949494949494949494949494949494949
310
49494949494949494949494949494949494949494949494949494949494949494949494949494949494949494949494949494949494949494949494949494949494949494949494949494949494949494949494949494949494949494949494949494949494949494949494949494949494949494949494949494949494949
310
49494949494949494949494949494949494949494949494949494949494949494949494949494949494949494949494949494949494949494949494949494949494949494949494949494949494949494949494949494949494949494949494949494949494949494949494949494949494949494949494949494949494949
310
4949494949494949494949494949494949494949494949494949494949494949494949494949494949494949494949494949494949494949
102
{BLKREFS
331
1EC
102
}
 70
     4
280
     1
281
     0
1001
AcDbDynamicBlockGUID
1000
{BCD52D05-323A-B54A-8A21-1B84008CF9CB}
1001
FUSIONTITLEBLOCK
1000
TitleBlock
  0
BLOCK_RECORD
  5
23A
330
1
100
AcDbSymbolTableRecord
100
AcDbBlockTableRecord
  2
*U7
340
0
102
{BLKREFS
331
238
102
}
 70
     0
280
     1
281
     0
  0
BLOCK_RECORD
  5
244
330
1
100
AcDbSymbolTableRecord
100
AcDbBlockTableRecord
  2
*U8
340
0
102
{BLKREFS
331
243
102
}
 70
     0
280
     1
281
     0
  0
BLOCK_RECORD
  5
249
330
1
100
AcDbSymbolTableRecord
100
AcDbBlockTableRecord
  2
*U9
340
0
102
{BLKREFS
331
248
102
}
 70
     0
280
     1
281
     0
  0
BLOCK_RECORD
  5
24F
330
1
100
AcDbSymbolTableRecord
100
AcDbBlockTableRecord
  2
*D10
340
0
 70
     0
280
     1
281
     0
  0
BLOCK_RECORD
  5
25C
330
1
100
AcDbSymbolTableRecord
100
AcDbBlockTableRecord
  2
*D11
340
0
 70
     0
280
     1
281
     0
  0
BLOCK_RECORD
  5
269
330
1
100
AcDbSymbolTableRecord
100
AcDbBlockTableRecord
  2
*D12
340
0
 70
     0
280
     1
281
     0
  0
BLOCK_RECORD
  5
276
330
1
100
AcDbSymbolTableRecord
100
AcDbBlockTableRecord
  2
*D13
340
0
 70
     0
280
     1
281
     0
  0
BLOCK_RECORD
  5
283
330
1
100
AcDbSymbolTableRecord
100
AcDbBlockTableRecord
  2
*D14
340
0
 70
     0
280
     1
281
     0
  0
BLOCK_RECORD
  5
290
330
1
100
AcDbSymbolTableRecord
100
AcDbBlockTableRecord
  2
*D15
340
0
 70
     0
280
     1
281
     0
  0
BLOCK_RECORD
  5
29D
330
1
100
AcDbSymbolTableRecord
100
AcDbBlockTableRecord
  2
*U16
340
0
102
{BLKREFS
331
29C
102
}
 70
     0
280
     1
281
     0
  0
BLOCK_RECORD
  5
2A7
330
1
100
AcDbSymbolTableRecord
100
AcDbBlockTableRecord
  2
*D17
340
0
 70
     0
280
     1
281
     0
  0
BLOCK_RECORD
  5
2B4
330
1
100
AcDbSymbolTableRecord
100
AcDbBlockTableRecord
  2
*D18
340
0
 70
     0
280
     1
281
     0
  0
BLOCK_RECORD
  5
2C3
330
1
100
AcDbSymbolTableRecord
100
AcDbBlockTableRecord
  2
*D19
340
0
 70
     0
280
     1
281
     0
  0
BLOCK_RECORD
  5
2D2
330
1
100
AcDbSymbolTableRecord
100
AcDbBlockTableRecord
  2
*D20
340
0
 70
     0
280
     1
281
     0
  0
BLOCK_RECORD
  5
2E1
330
1
100
AcDbSymbolTableRecord
100
AcDbBlockTableRecord
  2
*D21
340
0
 70
     0
280
     1
281
     0
  0
BLOCK_RECORD
  5
2EE
330
1
100
AcDbSymbolTableRecord
100
AcDbBlockTableRecord
  2
*D22
340
0
 70
     0
280
     1
281
     0
  0
BLOCK_RECORD
  5
2FA
330
1
100
AcDbSymbolTableRecord
100
AcDbBlockTableRecord
  2
*D23
340
0
 70
     0
280
     1
281
     0
  0
BLOCK_RECORD
  5
306
330
1
100
AcDbSymbolTableRecord
100
AcDbBlockTableRecord
  2
*D24
340
0
 70
     0
280
     1
281
     0
  0
BLOCK_RECORD
  5
312
330
1
100
AcDbSymbolTableRecord
100
AcDbBlockTableRecord
  2
*D25
340
0
 70
     0
280
     1
281
     0
  0
BLOCK_RECORD
  5
31E
330
1
100
AcDbSymbolTableRecord
100
AcDbBlockTableRecord
  2
*D26
340
0
 70
     0
280
     1
281
     0
  0
BLOCK_RECORD
  5
32A
330
1
100
AcDbSymbolTableRecord
100
AcDbBlockTableRecord
  2
*D27
340
0
 70
     0
280
     1
281
     0
  0
BLOCK_RECORD
  5
336
330
1
100
AcDbSymbolTableRecord
100
AcDbBlockTableRecord
  2
*D28
340
0
 70
     0
280
     1
281
     0
  0
BLOCK_RECORD
  5
342
330
1
100
AcDbSymbolTableRecord
100
AcDbBlockTableRecord
  2
*D29
340
0
 70
     0
280
     1
281
     0
  0
BLOCK_RECORD
  5
350
330
1
100
AcDbSymbolTableRecord
100
AcDbBlockTableRecord
  2
*D30
340
0
 70
     0
280
     1
281
     0
  0
BLOCK_RECORD
  5
35E
330
1
100
AcDbSymbolTableRecord
100
AcDbBlockTableRecord
  2
*D31
340
0
 70
     0
280
     1
281
     0
  0
BLOCK_RECORD
  5
36C
330
1
100
AcDbSymbolTableRecord
100
AcDbBlockTableRecord
  2
*D32
340
0
 70
     0
280
     1
281
     0
  0
ENDTAB
  0
ENDSEC
  0
SECTION
  2
BLOCKS
  0
BLOCK
  5
71
330
70
100
AcDbEntity
  8
0
100
AcDbBlockBegin
  2
*Model_Space
 70
     0
 10
0.0
 20
0.0
 30
0.0
  3
*Model_Space
  1

  0
ENDBLK
  5
72
330
70
100
AcDbEntity
  8
0
100
AcDbBlockEnd
  0
BLOCK
  5
6D
330
6C
100
AcDbEntity
 67
     1
  8
0
100
AcDbBlockBegin
  2
*Paper_Space
 70
     0
 10
0.0
 20
0.0
 30
0.0
  3
*Paper_Space
  1

  0
ENDBLK
  5
6E
330
6C
100
AcDbEntity
 67
     1
  8
0
100
AcDbBlockEnd
  0
BLOCK
  5
75
330
74
100
AcDbEntity
 67
     1
  8
0
100
AcDbBlockBegin
  2
*Paper_Space0
 70
     0
 10
0.0
 20
0.0
 30
0.0
  3
*Paper_Space0
  1

  0
ENDBLK
  5
76
330
74
100
AcDbEntity
 67
     1
  8
0
100
AcDbBlockEnd
  0
BLOCK
  5
1AA
330
1A8
100
AcDbEntity
  8
0
100
AcDbBlockBegin
  2
ISO_A3_SHEET
 70
     0
 10
0.0
 20
0.0
 30
0.0
  3
ISO_A3_SHEET
  1

  0
LINE
  5
1AB
330
1A8
100
AcDbEntity
  8
Defpoints
100
AcDbLine
 10
0.0
 20
0.0
 30
0.0
 11
15.0
 21
0.0
 31
0.0
  0
LINE
  5
1AC
330
1A8
100
AcDbEntity
  8
Defpoints
100
AcDbLine
 10
405.0
 20
0.0
 30
0.0
 11
420.0
 21
0.0
 31
0.0
  0
LINE
  5
1AD
330
1A8
100
AcDbEntity
  8
Border
100
AcDbLine
 10
20.0
 20
10.0
 30
0.0
 11
410.0
 21
10.0
 31
0.0
  0
LINE
  5
1AE
330
1A8
100
AcDbEntity
  8
Defpoints
100
AcDbLine
 10
420.0
 20
0.0
 30
0.0
 11
420.0
 21
15.0
 31
0.0
  0
LINE
  5
1AF
330
1A8
100
AcDbEntity
  8
Defpoints
100
AcDbLine
 10
420.0
 20
282.0
 30
0.0
 11
420.0
 21
297.0
 31
0.0
  0
LINE
  5
1B0
330
1A8
100
AcDbEntity
  8
Defpoints
100
AcDbLine
 10
420.0
 20
297.0
 30
0.0
 11
405.0
 21
297.0
 31
0.0
  0
LINE
  5
1B1
330
1A8
100
AcDbEntity
  8
Defpoints
100
AcDbLine
 10
15.0
 20
297.0
 30
0.0
 11
0.0
 21
297.0
 31
0.0
  0
LINE
  5
1B2
330
1A8
100
AcDbEntity
  8
Border
100
AcDbLine
 10
410.0
 20
287.0
 30
0.0
 11
20.0
 21
287.0
 31
0.0
  0
LINE
  5
1B3
330
1A8
100
AcDbEntity
  8
Defpoints
100
AcDbLine
 10
0.0
 20
297.0
 30
0.0
 11
0.0
 21
282.0
 31
0.0
  0
LINE
  5
1B4
330
1A8
100
AcDbEntity
  8
Defpoints
100
AcDbLine
 10
0.0
 20
15.0
 30
0.0
 11
0.0
 21
0.0
 31
0.0
  0
LINE
  5
1B5
330
1A8
100
AcDbEntity
  8
Border
100
AcDbLine
 10
20.0
 20
287.0
 30
0.0
 11
20.0
 21
10.0
 31
0.0
  0
LINE
  5
1B6
330
1A8
100
AcDbEntity
  8
Border
100
AcDbLine
 10
410.0
 20
287.0
 30
0.0
 11
410.0
 21
10.0
 31
0.0
  0
LINE
  5
1B7
330
1A8
100
AcDbEntity
  8
Border
100
AcDbLine
 10
215.0
 20
5.0
 30
0.0
 11
215.0
 21
15.0
 31
0.0
  0
LINE
  5
1B8
330
1A8
100
AcDbEntity
  8
Border
100
AcDbLine
 10
215.0
 20
292.0
 30
0.0
 11
215.0
 21
282.0
 31
0.0
  0
LINE
  5
1B9
330
1A8
100
AcDbEntity
  8
Border
100
AcDbLine
 10
265.0
 20
292.0
 30
0.0
 11
265.0
 21
287.0
 31
0.0
  0
LINE
  5
1BA
330
1A8
100
AcDbEntity
  8
Border
100
AcDbLine
 10
315.0
 20
292.0
 30
0.0
 11
315.0
 21
287.0
 31
0.0
  0
LINE
  5
1BB
330
1A8
100
AcDbEntity
  8
Border
100
AcDbLine
 10
365.0
 20
292.0
 30
0.0
 11
365.0
 21
287.0
 31
0.0
  0
LINE
  5
1BC
330
1A8
100
AcDbEntity
  8
Border
100
AcDbLine
 10
165.0
 20
292.0
 30
0.0
 11
165.0
 21
287.0
 31
0.0
  0
LINE
  5
1BD
330
1A8
100
AcDbEntity
  8
Border
100
AcDbLine
 10
115.0
 20
292.0
 30
0.0
 11
115.0
 21
287.0
 31
0.0
  0
LINE
  5
1BE
330
1A8
100
AcDbEntity
  8
Border
100
AcDbLine
 10
65.0
 20
292.0
 30
0.0
 11
65.0
 21
287.0
 31
0.0
  0
LINE
  5
1BF
330
1A8
100
AcDbEntity
  8
Border
100
AcDbLine
 10
15.0
 20
148.5
 30
0.0
 11
25.0
 21
148.5
 31
0.0
  0
LINE
  5
1C0
330
1A8
100
AcDbEntity
  8
Border
100
AcDbLine
 10
15.0
 20
100.66667
 30
0.0
 11
20.0
 21
100.66667
 31
0.0
  0
LINE
  5
1C1
330
1A8
100
AcDbEntity
  8
Border
100
AcDbLine
 10
15.0
 20
52.83334
 30
0.0
 11
20.0
 21
52.83334
 31
0.0
  0
LINE
  5
1C2
330
1A8
100
AcDbEntity
  8
Border
100
AcDbLine
 10
15.0
 20
196.33333
 30
0.0
 11
20.0
 21
196.33333
 31
0.0
  0
LINE
  5
1C3
330
1A8
100
AcDbEntity
  8
Border
100
AcDbLine
 10
15.0
 20
244.16666
 30
0.0
 11
20.0
 21
244.16666
 31
0.0
  0
LINE
  5
1C4
330
1A8
100
AcDbEntity
  8
Border
100
AcDbLine
 10
415.0
 20
148.5
 30
0.0
 11
405.0
 21
148.5
 31
0.0
  0
LINE
  5
1C5
330
1A8
100
AcDbEntity
  8
Border
100
AcDbLine
 10
265.0
 20
5.0
 30
0.0
 11
265.0
 21
10.0
 31
0.0
  0
LINE
  5
1C6
330
1A8
100
AcDbEntity
  8
Border
100
AcDbLine
 10
315.0
 20
5.0
 30
0.0
 11
315.0
 21
10.0
 31
0.0
  0
LINE
  5
1C7
330
1A8
100
AcDbEntity
  8
Border
100
AcDbLine
 10
365.0
 20
5.0
 30
0.0
 11
365.0
 21
10.0
 31
0.0
  0
LINE
  5
1C8
330
1A8
100
AcDbEntity
  8
Border
100
AcDbLine
 10
165.0
 20
5.0
 30
0.0
 11
165.0
 21
10.0
 31
0.0
  0
LINE
  5
1C9
330
1A8
100
AcDbEntity
  8
Border
100
AcDbLine
 10
115.0
 20
5.0
 30
0.0
 11
115.0
 21
10.0
 31
0.0
  0
LINE
  5
1CA
330
1A8
100
AcDbEntity
  8
Border
100
AcDbLine
 10
65.0
 20
5.0
 30
0.0
 11
65.0
 21
10.0
 31
0.0
  0
LINE
  5
1CB
330
1A8
100
AcDbEntity
  8
Border
100
AcDbLine
 10
415.0
 20
100.66667
 30
0.0
 11
410.0
 21
100.66667
 31
0.0
  0
LINE
  5
1CC
330
1A8
100
AcDbEntity
  8
Border
100
AcDbLine
 10
415.0
 20
52.83334
 30
0.0
 11
410.0
 21
52.83334
 31
0.0
  0
LINE
  5
1CD
330
1A8
100
AcDbEntity
  8
Border
100
AcDbLine
 10
415.0
 20
196.33333
 30
0.0
 11
410.0
 21
196.33333
 31
0.0
  0
LINE
  5
1CE
330
1A8
100
AcDbEntity
  8
Border
100
AcDbLine
 10
415.0
 20
244.16666
 30
0.0
 11
410.0
 21
244.16666
 31
0.0
  0
TEXT
  5
1CF
330
1A8
100
AcDbEntity
  8
Border
100
AcDbText
 10
39.02882
 20
288.244884
 30
0.0
 40
2.5
  1
1
  7
FusionTitle
 72
     4
 11
40.0
 21
289.5
 31
0.0
100
AcDbText
  0
TEXT
  5
1D0
330
1A8
100
AcDbEntity
  8
Border
100
AcDbText
 10
16.335266
 20
266.83333
 30
0.0
 40
2.5
  1
A
  7
FusionTitle
 72
     4
 11
17.5
 21
268.08333
 31
0.0
100
AcDbText
  0
TEXT
  5
1D1
330
1A8
100
AcDbEntity
  8
Border
100
AcDbText
 10
89.02882
 20
288.244884
 30
0.0
 40
2.5
  1
2
  7
FusionTitle
 72
     4
 11
90.0
 21
289.5
 31
0.0
100
AcDbText
  0
TEXT
  5
1D2
330
1A8
100
AcDbEntity
  8
Border
100
AcDbText
 10
139.02882
 20
288.267053
 30
0.0
 40
2.5
  1
3
  7
FusionTitle
 72
     4
 11
140.0
 21
289.5
 31
0.0
100
AcDbText
  0
TEXT
  5
1D3
330
1A8
100
AcDbEntity
  8
Border
100
AcDbText
 10
189.02882
 20
288.25
 30
0.0
 40
2.5
  1
4
  7
FusionTitle
 72
     4
 11
190.0
 21
289.5
 31
0.0
100
AcDbText
  0
TEXT
  5
1D4
330
1A8
100
AcDbEntity
  8
Border
100
AcDbText
 10
239.02882
 20
288.28837
 30
0.0
 40
2.5
  1
5
  7
FusionTitle
 72
     4
 11
240.0
 21
289.5
 31
0.0
100
AcDbText
  0
TEXT
  5
1D5
330
1A8
100
AcDbEntity
  8
Border
100
AcDbText
 10
289.02882
 20
288.266201
 30
0.0
 40
2.5
  1
6
  7
FusionTitle
 72
     4
 11
290.0
 21
289.5
 31
0.0
100
AcDbText
  0
TEXT
  5
1D6
330
1A8
100
AcDbEntity
  8
Border
100
AcDbText
 10
339.02882
 20
288.266201
 30
0.0
 40
2.5
  1
7
  7
FusionTitle
 72
     4
 11
340.0
 21
289.5
 31
0.0
100
AcDbText
  0
TEXT
  5
1D7
330
1A8
100
AcDbEntity
  8
Border
100
AcDbText
 10
389.02882
 20
288.266201
 30
0.0
 40
2.5
  1
8
  7
FusionTitle
 72
     4
 11
390.0
 21
289.5
 31
0.0
100
AcDbText
  0
TEXT
  5
1D8
330
1A8
100
AcDbEntity
  8
Border
100
AcDbText
 10
39.02882
 20
6.244884
 30
0.0
 40
2.5
  1
1
  7
FusionTitle
 72
     4
 11
40.0
 21
7.5
 31
0.0
100
AcDbText
  0
TEXT
  5
1D9
330
1A8
100
AcDbEntity
  8
Border
100
AcDbText
 10
89.02882
 20
6.244884
 30
0.0
 40
2.5
  1
2
  7
FusionTitle
 72
     4
 11
90.0
 21
7.5
 31
0.0
100
AcDbText
  0
TEXT
  5
1DA
330
1A8
100
AcDbEntity
  8
Border
100
AcDbText
 10
139.02882
 20
6.267053
 30
0.0
 40
2.5
  1
3
  7
FusionTitle
 72
     4
 11
140.0
 21
7.5
 31
0.0
100
AcDbText
  0
TEXT
  5
1DB
330
1A8
100
AcDbEntity
  8
Border
100
AcDbText
 10
189.02882
 20
6.25
 30
0.0
 40
2.5
  1
4
  7
FusionTitle
 72
     4
 11
190.0
 21
7.5
 31
0.0
100
AcDbText
  0
TEXT
  5
1DC
330
1A8
100
AcDbEntity
  8
Border
100
AcDbText
 10
239.02882
 20
6.28837
 30
0.0
 40
2.5
  1
5
  7
FusionTitle
 72
     4
 11
240.0
 21
7.5
 31
0.0
100
AcDbText
  0
TEXT
  5
1DD
330
1A8
100
AcDbEntity
  8
Border
100
AcDbText
 10
289.02882
 20
6.266201
 30
0.0
 40
2.5
  1
6
  7
FusionTitle
 72
     4
 11
290.0
 21
7.5
 31
0.0
100
AcDbText
  0
TEXT
  5
1DE
330
1A8
100
AcDbEntity
  8
Border
100
AcDbText
 10
339.02882
 20
6.266201
 30
0.0
 40
2.5
  1
7
  7
FusionTitle
 72
     4
 11
340.0
 21
7.5
 31
0.0
100
AcDbText
  0
TEXT
  5
1DF
330
1A8
100
AcDbEntity
  8
Border
100
AcDbText
 10
389.02882
 20
6.266201
 30
0.0
 40
2.5
  1
8
  7
FusionTitle
 72
     4
 11
390.0
 21
7.5
 31
0.0
100
AcDbText
  0
TEXT
  5
1E0
330
1A8
100
AcDbEntity
  8
Border
100
AcDbText
 10
16.335266
 20
219.0
 30
0.0
 40
2.5
  1
B
  7
FusionTitle
 72
     4
 11
17.5
 21
220.25
 31
0.0
100
AcDbText
  0
TEXT
  5
1E1
330
1A8
100
AcDbEntity
  8
Border
100
AcDbText
 10
16.238915
 20
171.16667
 30
0.0
 40
2.5
  1
C
  7
FusionTitle
 72
     4
 11
17.5
 21
172.41667
 31
0.0
100
AcDbText
  0
TEXT
  5
1E2
330
1A8
100
AcDbEntity
  8
Border
100
AcDbText
 10
16.238915
 20
123.33334
 30
0.0
 40
2.5
  1
D
  7
FusionTitle
 72
     4
 11
17.5
 21
124.58334
 31
0.0
100
AcDbText
  0
TEXT
  5
1E3
330
1A8
100
AcDbEntity
  8
Border
100
AcDbText
 10
16.335266
 20
75.50001
 30
0.0
 40
2.5
  1
E
  7
FusionTitle
 72
     4
 11
17.5
 21
76.75001
 31
0.0
100
AcDbText
  0
TEXT
  5
1E4
330
1A8
100
AcDbEntity
  8
Border
100
AcDbText
 10
16.433322
 20
27.66668
 30
0.0
 40
2.5
  1
F
  7
FusionTitle
 72
     4
 11
17.5
 21
28.91668
 31
0.0
100
AcDbText
  0
TEXT
  5
1E5
330
1A8
100
AcDbEntity
  8
Border
100
AcDbText
 10
411.335266
 20
266.83333
 30
0.0
 40
2.5
  1
A
  7
FusionTitle
 72
     4
 11
412.5
 21
268.08333
 31
0.0
100
AcDbText
  0
TEXT
  5
1E6
330
1A8
100
AcDbEntity
  8
Border
100
AcDbText
 10
411.335266
 20
219.0
 30
0.0
 40
2.5
  1
B
  7
FusionTitle
 72
     4
 11
412.5
 21
220.25
 31
0.0
100
AcDbText
  0
TEXT
  5
1E7
330
1A8
100
AcDbEntity
  8
Border
100
AcDbText
 10
411.238915
 20
171.16667
 30
0.0
 40
2.5
  1
C
  7
FusionTitle
 72
     4
 11
412.5
 21
172.41667
 31
0.0
100
AcDbText
  0
TEXT
  5
1E8
330
1A8
100
AcDbEntity
  8
Border
100
AcDbText
 10
411.238915
 20
123.33334
 30
0.0
 40
2.5
  1
D
  7
FusionTitle
 72
     4
 11
412.5
 21
124.58334
 31
0.0
100
AcDbText
  0
TEXT
  5
1E9
330
1A8
100
AcDbEntity
  8
Border
100
AcDbText
 10
411.335266
 20
75.50001
 30
0.0
 40
2.5
  1
E
  7
FusionTitle
 72
     4
 11
412.5
 21
76.75001
 31
0.0
100
AcDbText
  0
TEXT
  5
1EA
330
1A8
100
AcDbEntity
  8
Border
100
AcDbText
 10
411.433322
 20
27.66668
 30
0.0
 40
2.5
  1
F
  7
FusionTitle
 72
     4
 11
412.5
 21
28.91668
 31
0.0
100
AcDbText
  0
ENDBLK
  5
1EB
330
1A8
100
AcDbEntity
  8
0
100
AcDbBlockEnd
  0
BLOCK
  5
1F1
330
1EE
100
AcDbEntity
  8
0
100
AcDbBlockBegin
  2
ISO_TITLEBLOCK
 70
     2
 10
0.0
 20
0.0
 30
0.0
  3
ISO_TITLEBLOCK
  1

  0
LINE
  5
1F2
330
1EE
100
AcDbEntity
  8
TitleBlock
100
AcDbLine
 10
-180.0
 20
0.0
 30
0.0
 11
0.0
 21
0.0
 31
0.0
  0
LINE
  5
1F3
330
1EE
100
AcDbEntity
  8
TitleBlock
100
AcDbLine
 10
-61.0
 20
10.0
 30
0.0
 11
0.0
 21
10.0
 31
0.0
  0
LINE
  5
1F4
330
1EE
100
AcDbEntity
  8
TitleBlock
100
AcDbLine
 10
-122.0
 20
27.0
 30
0.0
 11
0.0
 21
27.0
 31
0.0
  0
LINE
  5
1F5
330
1EE
100
AcDbEntity
  8
TitleBlock
100
AcDbLine
 10
-180.0
 20
37.0
 30
0.0
 11
0.0
 21
37.0
 31
0.0
  0
LINE
  5
1F6
330
1EE
100
AcDbEntity
  8
TitleBlock
100
AcDbLine
 10
0.0
 20
0.0
 30
0.0
 11
0.0
 21
47.0
 31
0.0
  0
LINE
  5
1F7
330
1EE
100
AcDbEntity
  8
TitleBlock
100
AcDbLine
 10
-15.0
 20
0.0
 30
0.0
 11
-15.0
 21
10.0
 31
0.0
  0
LINE
  5
1F8
330
1EE
100
AcDbEntity
  8
TitleBlock
100
AcDbLine
 10
-51.0
 20
0.0
 30
0.0
 11
-51.0
 21
10.0
 31
0.0
  0
LINE
  5
1F9
330
1EE
100
AcDbEntity
  8
TitleBlock
100
AcDbLine
 10
-61.0
 20
0.0
 30
0.0
 11
-61.0
 21
47.0
 31
0.0
  0
LINE
  5
1FA
330
1EE
100
AcDbEntity
  8
TitleBlock
100
AcDbLine
 10
-122.0
 20
0.0
 30
0.0
 11
-122.0
 21
47.0
 31
0.0
  0
LINE
  5
1FB
330
1EE
100
AcDbEntity
  8
TitleBlock
100
AcDbLine
 10
-156.0
 20
37.0
 30
0.0
 11
-156.0
 21
47.0
 31
0.0
  0
LINE
  5
1FC
330
1EE
100
AcDbEntity
  8
TitleBlock
100
AcDbLine
 10
0.0
 20
47.0
 30
0.0
 11
-180.0
 21
47.0
 31
0.0
  0
LINE
  5
1FD
330
1EE
100
AcDbEntity
  8
TitleBlock
100
AcDbLine
 10
-180.0
 20
47.0
 30
0.0
 11
-180.0
 21
0.0
 31
0.0
  0
TEXT
  5
1FE
330
1EE
100
AcDbEntity
  8
TitleBlock
100
AcDbText
 10
-179.0
 20
44.2
 30
0.0
 40
1.8
  1
Dept.
  7
FusionTitle
 11
-179.0
 21
46.0
 31
0.0
100
AcDbText
 73
     3
  0
TEXT
  5
1FF
330
1EE
100
AcDbEntity
  8
TitleBlock
100
AcDbText
 10
-155.0
 20
44.2
 30
0.0
 40
1.8
  1
Technical reference
  7
FusionTitle
 11
-155.0
 21
46.0
 31
0.0
100
AcDbText
 73
     3
  0
TEXT
  5
200
330
1EE
100
AcDbEntity
  8
TitleBlock
100
AcDbText
 10
-121.0
 20
44.2
 30
0.0
 40
1.8
  1
Created by
  7
FusionTitle
 11
-121.0
 21
46.0
 31
0.0
100
AcDbText
 73
     3
  0
TEXT
  5
201
330
1EE
100
AcDbEntity
  8
TitleBlock
100
AcDbText
 10
-60.0
 20
44.2
 30
0.0
 40
1.8
  1
Approved by
  7
FusionTitle
 11
-60.0
 21
46.0
 31
0.0
100
AcDbText
 73
     3
  0
TEXT
  5
202
330
1EE
100
AcDbEntity
  8
TitleBlock
100
AcDbText
 10
-121.0
 20
34.2
 30
0.0
 40
1.8
  1
Document type
  7
FusionTitle
 11
-121.0
 21
36.0
 31
0.0
100
AcDbText
 73
     3
  0
TEXT
  5
203
330
1EE
100
AcDbEntity
  8
TitleBlock
100
AcDbText
 10
-60.0
 20
34.2
 30
0.0
 40
1.8
  1
Document status
  7
FusionTitle
 11
-60.0
 21
36.0
 31
0.0
100
AcDbText
 73
     3
  0
TEXT
  5
204
330
1EE
100
AcDbEntity
  8
TitleBlock
100
AcDbText
 10
-121.0
 20
24.2
 30
0.0
 40
1.8
  1
Title
  7
FusionTitle
 11
-121.0
 21
26.0
 31
0.0
100
AcDbText
 73
     3
  0
TEXT
  5
205
330
1EE
100
AcDbEntity
  8
TitleBlock
100
AcDbText
 10
-60.0
 20
24.2
 30
0.0
 40
1.8
  1
DWG No.
  7
FusionTitle
 11
-60.0
 21
26.0
 31
0.0
100
AcDbText
 73
     3
  0
TEXT
  5
206
330
1EE
100
AcDbEntity
  8
TitleBlock
100
AcDbText
 10
-60.0
 20
7.2
 30
0.0
 40
1.8
  1
Rev.
  7
FusionTitle
 11
-60.0
 21
9.0
 31
0.0
100
AcDbText
 73
     3
  0
TEXT
  5
207
330
1EE
100
AcDbEntity
  8
TitleBlock
100
AcDbText
 10
-50.0
 20
7.2
 30
0.0
 40
1.8
  1
Date of issue
  7
FusionTitle
 11
-50.0
 21
9.0
 31
0.0
100
AcDbText
 73
     3
  0
TEXT
  5
208
330
1EE
100
AcDbEntity
  8
TitleBlock
100
AcDbText
 10
-14.0
 20
7.2
 30
0.0
 40
1.8
  1
Sheet
  7
FusionTitle
 11
-14.0
 21
9.0
 31
0.0
100
AcDbText
 73
     3
  0
ATTDEF
  5
209
102
{ACAD_XDICTIONARY
360
20A
102
}
330
1EE
100
AcDbEntity
  8
TitleBlock
100
AcDbText
 10
-50.0
 20
1.5
 30
0.0
 40
3.5
  1

  7
FusionTitle
 11
-50.0
 21
5.0
 31
0.0
100
AcDbAttributeDefinition
280
     0
  3
Date of issue
  2
DATE_OF_ISSUE
 70
     0
 74
     3
280
     1
  0
ATTDEF
  5
20B
102
{ACAD_XDICTIONARY
360
20C
102
}
330
1EE
100
AcDbEntity
  8
TitleBlock
100
AcDbText
 10
-61.026774
 20
1.35
 30
0.0
 40
3.5
  1

  7
FusionTitle
 72
     1
 11
-56.0
 21
4.85
 31
0.0
100
AcDbAttributeDefinition
280
     0
  3
Revision
  2
REV
 70
     0
 74
     3
280
     1
  0
ATTDEF
  5
20D
102
{ACAD_XDICTIONARY
360
20E
102
}
330
1EE
100
AcDbEntity
  8
TitleBlock
100
AcDbText
 10
-121.0
 20
1.5
 30
0.0
 40
5.0
  1

  7
FusionTitle
 11
-121.0
 21
6.5
 31
0.0
100
AcDbAttributeDefinition
280
     0
  3
3rd Title
  2
TITLE_3
 70
     0
 74
     3
280
     1
  0
ATTDEF
  5
20F
102
{ACAD_XDICTIONARY
360
210
102
}
330
1EE
100
AcDbEntity
  8
TitleBlock
100
AcDbText
 10
-60.0
 20
28.5
 30
0.0
 40
3.5
  1

  7
FusionTitle
 11
-60.0
 21
32.0
 31
0.0
100
AcDbAttributeDefinition
280
     0
  3
Document status
  2
DOCUMENT_STATUS
 70
     0
 74
     3
280
     1
  0
ATTDEF
  5
211
102
{ACAD_XDICTIONARY
360
212
102
}
330
1EE
100
AcDbEntity
  8
TitleBlock
100
AcDbText
 10
-121.0
 20
28.5
 30
0.0
 40
3.5
  1

  7
FusionTitle
 11
-121.0
 21
32.0
 31
0.0
100
AcDbAttributeDefinition
280
     0
  3
Document type
  2
DOCUMENT_TYPE
 70
     0
 74
     3
280
     1
  0
ATTDEF
  5
213
102
{ACAD_XDICTIONARY
360
214
102
}
330
1EE
100
AcDbEntity
  8
TitleBlock
100
AcDbText
 10
-43.923943
 20
38.5
 30
0.0
 40
3.5
  1

  7
FusionTitle
 72
     2
 11
-0.992838
 21
42.0
 31
0.0
100
AcDbAttributeDefinition
280
     0
  3
Approved date
  2
APPROVED_DATE
 70
     0
 74
     3
280
     1
  0
ATTDEF
  5
215
102
{ACAD_XDICTIONARY
360
216
102
}
330
1EE
100
AcDbEntity
  8
TitleBlock
100
AcDbText
 10
-101.123124
 20
38.5
 30
0.0
 40
3.5
  1

  7
FusionTitle
 72
     2
 11
-62.0
 21
42.0
 31
0.0
100
AcDbAttributeDefinition
280
     0
  3
Created date
  2
CREATED_DATE
 70
     0
 74
     3
280
     1
  0
ATTDEF
  5
217
102
{ACAD_XDICTIONARY
360
218
102
}
330
1EE
100
AcDbEntity
  8
TitleBlock
100
AcDbText
 10
-15.65075
 20
1.35
 30
0.0
 40
3.5
  1

  7
FusionTitle
 72
     1
 11
-7.5
 21
4.85
 31
0.0
100
AcDbAttributeDefinition
280
     0
  3
Sheet
  2
SHEET
 70
     0
 74
     3
280
     1
  0
ATTDEF
  5
219
102
{ACAD_XDICTIONARY
360
21A
102
}
330
1EE
100
AcDbEntity
  8
TitleBlock
100
AcDbText
 10
-121.0
 20
9.0
 30
0.0
 40
5.0
  1

  7
FusionTitle
 11
-121.0
 21
14.0
 31
0.0
100
AcDbAttributeDefinition
280
     0
  3
2nd Title
  2
TITLE_2
 70
     0
 74
     3
280
     1
  0
ATTDEF
  5
21B
102
{ACAD_XDICTIONARY
360
21C
102
}
330
1EE
100
AcDbEntity
  8
TitleBlock
100
AcDbText
 10
-64.456344
 20
14.751432
 30
0.0
 40
5.0
  1

  7
FusionTitle
 72
     1
 11
-30.5
 21
19.751432
 31
0.0
100
AcDbAttributeDefinition
280
     0
  3
Drawing number
  2
DRAWING_NUMBER
 70
     0
 74
     3
280
     1
  0
ATTDEF
  5
21D
102
{ACAD_XDICTIONARY
360
21E
102
}
330
1EE
100
AcDbEntity
  8
TitleBlock
100
AcDbText
 10
-121.0
 20
16.5
 30
0.0
 40
5.0
  1

  7
FusionTitle
 11
-121.0
 21
21.5
 31
0.0
100
AcDbAttributeDefinition
280
     0
  3
1st Title
  2
TITLE_1
 70
     0
 74
     3
280
     1
  0
ATTDEF
  5
21F
102
{ACAD_XDICTIONARY
360
220
102
}
330
1EE
100
AcDbEntity
  8
TitleBlock
100
AcDbText
 10
-60.0
 20
38.5
 30
0.0
 40
3.5
  1

  7
FusionTitle
 11
-60.0
 21
42.0
 31
0.0
100
AcDbAttributeDefinition
280
     0
  3
Approved by
  2
APPROVED_BY
 70
     0
 74
     3
280
     1
  0
ATTDEF
  5
221
102
{ACAD_XDICTIONARY
360
222
102
}
330
1EE
100
AcDbEntity
  8
TitleBlock
100
AcDbText
 10
-121.0
 20
38.5
 30
0.0
 40
3.5
  1

  7
FusionTitle
 11
-121.0
 21
42.0
 31
0.0
100
AcDbAttributeDefinition
280
     0
  3
Created by
  2
CREATED_BY
 70
     0
 74
     3
280
     1
  0
ATTDEF
  5
223
102
{ACAD_XDICTIONARY
360
224
102
}
330
1EE
100
AcDbEntity
  8
TitleBlock
100
AcDbText
 10
-155.0
 20
38.5
 30
0.0
 40
3.5
  1

  7
FusionTitle
 11
-155.0
 21
42.0
 31
0.0
100
AcDbAttributeDefinition
280
     0
  3
Technical reference
  2
TECHNICAL_REFERENCE
 70
     0
 74
     3
280
     1
  0
ATTDEF
  5
225
102
{ACAD_XDICTIONARY
360
226
102
}
330
1EE
100
AcDbEntity
  8
TitleBlock
100
AcDbText
 10
-179.0
 20
38.5
 30
0.0
 40
3.5
  1

  7
FusionTitle
 11
-179.0
 21
42.0
 31
0.0
100
AcDbAttributeDefinition
280
     0
  3
Department
  2
DEPT
 70
     0
 74
     3
280
     1
  0
ENDBLK
  5
227
330
1EE
100
AcDbEntity
  8
0
100
AcDbBlockEnd
  0
BLOCK
  5
23B
330
23A
100
AcDbEntity
  8
0
100
AcDbBlockBegin
  2
*U7
 70
     1
 10
0.0
 20
0.0
 30
0.0
  3
*U7
  1

  0
LINE
  5
23C
330
23A
100
AcDbEntity
  8
Center Lines
  6
Continuous
 62
     0
440
 16777216
 48
0.75
100
AcDbLine
 10
-0.892969
 20
0.0
 30
0.0
 11
0.892969
 21
0.0
 31
0.0
  0
LINE
  5
23D
330
23A
100
AcDbEntity
  8
Center Lines
  6
Continuous
 62
     0
440
 16777216
 48
0.75
100
AcDbLine
 10
0.0
 20
-0.892969
 30
0.0
 11
0.0
 21
0.892969
 31
0.0
  0
LINE
  5
23E
330
23A
100
AcDbEntity
  8
Center Lines
 62
     0
440
 16777216
 48
0.75
100
AcDbLine
 10
-26.5
 20
0.0
 30
0.0
 11
-2.678906
 21
0.0
 31
0.0
  0
LINE
  5
23F
330
23A
100
AcDbEntity
  8
Center Lines
 62
     0
440
 16777216
 48
0.75
100
AcDbLine
 10
2.678906
 20
0.0
 30
0.0
 11
26.5
 21
0.0
 31
0.0
  0
LINE
  5
240
330
23A
100
AcDbEntity
  8
Center Lines
 62
     0
440
 16777216
 48
0.75
100
AcDbLine
 10
0.0
 20
-26.5
 30
0.0
 11
0.0
 21
-2.678906
 31
0.0
  0
LINE
  5
241
330
23A
100
AcDbEntity
  8
Center Lines
 62
     0
440
 16777216
 48
0.75
100
AcDbLine
 10
0.0
 20
2.678906
 30
0.0
 11
0.0
 21
26.5
 31
0.0
  0
ENDBLK
  5
242
330
23A
100
AcDbEntity
  8
0
100
AcDbBlockEnd
  0
BLOCK
  5
245
330
244
100
AcDbEntity
  8
0
100
AcDbBlockBegin
  2
*U8
 70
     1
 10
0.0
 20
0.0
 30
0.0
  3
*U8
  1

  0
LINE
  5
246
330
244
100
AcDbEntity
  8
Center Lines
 62
     0
440
 16777216
 48
0.75
100
AcDbLine
 10
-45.0
 20
0.0
 30
0.0
 11
45.0
 21
0.0
 31
0.0
  0
ENDBLK
  5
247
330
244
100
AcDbEntity
  8
0
100
AcDbBlockEnd
  0
BLOCK
  5
24A
330
249
100
AcDbEntity
  8
0
100
AcDbBlockBegin
  2
*U9
 70
     1
 10
0.0
 20
0.0
 30
0.0
  3
*U9
  1

  0
LINE
  5
24B
330
249
100
AcDbEntity
  8
Center Lines
 62
     0
440
 16777216
 48
0.75
100
AcDbLine
 10
-10.25
 20
0.0
 30
0.0
 11
10.25
 21
0.0
 31
0.0
  0
ENDBLK
  5
24C
330
249
100
AcDbEntity
  8
0
100
AcDbBlockEnd
  0
BLOCK
  5
250
330
24F
100
AcDbEntity
  8
0
100
AcDbBlockBegin
  2
*D10
 70
     1
 10
0.0
 20
0.0
 30
0.0
  3
*D10
  1

  0
LINE
  5
251
330
24F
100
AcDbEntity
  8
Dimensions
440
 16777216
370
    -2
100
AcDbLine
 10
223.291661
 20
238.297816
 30
0.0
 11
186.93248
 21
238.297816
 31
0.0
  0
LINE
  5
252
330
24F
100
AcDbEntity
  8
Dimensions
440
 16777216
370
    -2
100
AcDbLine
 10
223.291661
 20
192.297816
 30
0.0
 11
186.93248
 21
192.297816
 31
0.0
  0
LINE
  5
253
330
24F
100
AcDbEntity
  8
Dimensions
440
 16777216
370
    -2
100
AcDbLine
 10
189.03248
 20
234.797816
 30
0.0
 11
189.03248
 21
195.797816
 31
0.0
  0
SOLID
  5
254
330
24F
100
AcDbEntity
  8
Dimensions
440
 16777216
100
AcDbTrace
 10
188.449146
 20
234.797816
 30
0.0
 11
189.615813
 21
234.797816
 31
0.0
 12
189.03248
 22
238.297816
 32
0.0
 13
189.03248
 23
238.297816
 33
0.0
  0
SOLID
  5
255
330
24F
100
AcDbEntity
  8
Dimensions
440
 16777216
100
AcDbTrace
 10
188.449146
 20
195.797816
 30
0.0
 11
189.615813
 21
195.797816
 31
0.0
 12
189.03248
 22
192.297816
 32
0.0
 13
189.03248
 23
192.297816
 33
0.0
  0
MTEXT
  5
256
330
24F
100
AcDbEntity
  8
Dimensions
440
 16777216
100
AcDbMText
 10
185.747589
 20
215.297816
 30
0.0
 40
3.5
 41
0.0
 46
0.0
 71
     5
 72
     1
  1
%%C46
 11
0.0
 21
1.0
 31
0.0
 73
     1
 44
1.0
  0
POINT
  5
257
330
24F
100
AcDbEntity
  8
Defpoints
 62
     0
440
 16777216
100
AcDbPoint
 10
225.391661
 20
238.297816
 30
0.0
  0
POINT
  5
258
330
24F
100
AcDbEntity
  8
Defpoints
 62
     0
440
 16777216
100
AcDbPoint
 10
225.391661
 20
192.297816
 30
0.0
  0
POINT
  5
259
330
24F
100
AcDbEntity
  8
Defpoints
 62
     0
440
 16777216
100
AcDbPoint
 10
189.03248
 20
192.297816
 30
0.0
  0
ENDBLK
  5
25A
330
24F
100
AcDbEntity
  8
0
100
AcDbBlockEnd
  0
BLOCK
  5
25D
330
25C
100
AcDbEntity
  8
0
100
AcDbBlockBegin
  2
*D11
 70
     1
 10
0.0
 20
0.0
 30
0.0
  3
*D11
  1

  0
LINE
  5
25E
330
25C
100
AcDbEntity
  8
Dimensions
440
 16777216
370
    -2
100
AcDbLine
 10
224.391661
 20
239.397816
 30
0.0
 11
224.391661
 21
255.358106
 31
0.0
  0
LINE
  5
25F
330
25C
100
AcDbEntity
  8
Dimensions
440
 16777216
370
    -2
100
AcDbLine
 10
324.391661
 20
236.397816
 30
0.0
 11
324.391661
 21
255.358106
 31
0.0
  0
LINE
  5
260
330
25C
100
AcDbEntity
  8
Dimensions
440
 16777216
370
    -2
100
AcDbLine
 10
227.891661
 20
253.258106
 30
0.0
 11
320.891661
 21
253.258106
 31
0.0
  0
SOLID
  5
261
330
25C
100
AcDbEntity
  8
Dimensions
440
 16777216
100
AcDbTrace
 10
227.891661
 20
253.841439
 30
0.0
 11
227.891661
 21
252.674773
 31
0.0
 12
224.391661
 22
253.258106
 32
0.0
 13
224.391661
 23
253.258106
 33
0.0
  0
SOLID
  5
262
330
25C
100
AcDbEntity
  8
Dimensions
440
 16777216
100
AcDbTrace
 10
320.891661
 20
253.841439
 30
0.0
 11
320.891661
 21
252.674773
 31
0.0
 12
324.391661
 22
253.258106
 32
0.0
 13
324.391661
 23
253.258106
 33
0.0
  0
MTEXT
  5
263
330
25C
100
AcDbEntity
  8
Dimensions
440
 16777216
100
AcDbMText
 10
274.391661
 20
256.445112
 30
0.0
 40
3.5
 41
0.0
 46
0.0
 71
     5
 72
     1
  1
100
 73
     1
 44
1.0
  0
POINT
  5
264
330
25C
100
AcDbEntity
  8
Defpoints
 62
     0
440
 16777216
100
AcDbPoint
 10
224.391661
 20
237.297816
 30
0.0
  0
POINT
  5
265
330
25C
100
AcDbEntity
  8
Defpoints
 62
     0
440
 16777216
100
AcDbPoint
 10
324.391661
 20
234.297816
 30
0.0
  0
POINT
  5
266
330
25C
100
AcDbEntity
  8
Defpoints
 62
     0
440
 16777216
100
AcDbPoint
 10
324.391661
 20
253.258106
 30
0.0
  0
ENDBLK
  5
267
330
25C
100
AcDbEntity
  8
0
100
AcDbBlockEnd
  0
BLOCK
  5
26A
330
269
100
AcDbEntity
  8
0
100
AcDbBlockBegin
  2
*D12
 70
     1
 10
0.0
 20
0.0
 30
0.0
  3
*D12
  1

  0
LINE
  5
26B
330
269
100
AcDbEntity
  8
Dimensions
440
 16777216
370
    -2
100
AcDbLine
 10
239.391661
 20
239.897816
 30
0.0
 11
239.391661
 21
245.987034
 31
0.0
  0
LINE
  5
26C
330
269
100
AcDbEntity
  8
Dimensions
440
 16777216
370
    -2
100
AcDbLine
 10
324.391661
 20
236.397816
 30
0.0
 11
324.391661
 21
245.987034
 31
0.0
  0
LINE
  5
26D
330
269
100
AcDbEntity
  8
Dimensions
440
 16777216
370
    -2
100
AcDbLine
 10
242.891661
 20
243.887034
 30
0.0
 11
320.891661
 21
243.887034
 31
0.0
  0
SOLID
  5
26E
330
269
100
AcDbEntity
  8
Dimensions
440
 16777216
100
AcDbTrace
 10
242.891661
 20
244.470367
 30
0.0
 11
242.891661
 21
243.3037
 31
0.0
 12
239.391661
 22
243.887034
 32
0.0
 13
239.391661
 23
243.887034
 33
0.0
  0
SOLID
  5
26F
330
269
100
AcDbEntity
  8
Dimensions
440
 16777216
100
AcDbTrace
 10
320.891661
 20
244.470367
 30
0.0
 11
320.891661
 21
243.3037
 31
0.0
 12
324.391661
 22
243.887034
 32
0.0
 13
324.391661
 23
243.887034
 33
0.0
  0
MTEXT
  5
270
330
269
100
AcDbEntity
  8
Dimensions
440
 16777216
100
AcDbMText
 10
281.891661
 20
247.074039
 30
0.0
 40
3.5
 41
0.0
 46
0.0
 71
     5
 72
     1
  1
85
 73
     1
 44
1.0
  0
POINT
  5
271
330
269
100
AcDbEntity
  8
Defpoints
 62
     0
440
 16777216
100
AcDbPoint
 10
239.391661
 20
237.797816
 30
0.0
  0
POINT
  5
272
330
269
100
AcDbEntity
  8
Defpoints
 62
     0
440
 16777216
100
AcDbPoint
 10
324.391661
 20
234.297816
 30
0.0
  0
POINT
  5
273
330
269
100
AcDbEntity
  8
Defpoints
 62
     0
440
 16777216
100
AcDbPoint
 10
324.391661
 20
243.887034
 30
0.0
  0
ENDBLK
  5
274
330
269
100
AcDbEntity
  8
0
100
AcDbBlockEnd
  0
BLOCK
  5
277
330
276
100
AcDbEntity
  8
0
100
AcDbBlockBegin
  2
*D13
 70
     1
 10
0.0
 20
0.0
 30
0.0
  3
*D13
  1

  0
LINE
  5
278
330
276
100
AcDbEntity
  8
Dimensions
440
 16777216
370
    -2
100
AcDbLine
 10
239.391661
 20
190.697816
 30
0.0
 11
239.391661
 21
175.93965
 31
0.0
  0
LINE
  5
279
330
276
100
AcDbEntity
  8
Dimensions
440
 16777216
370
    -2
100
AcDbLine
 10
224.391661
 20
191.197816
 30
0.0
 11
224.391661
 21
175.93965
 31
0.0
  0
LINE
  5
27A
330
276
100
AcDbEntity
  8
Dimensions
440
 16777216
370
    -2
100
AcDbLine
 10
235.891661
 20
178.03965
 30
0.0
 11
227.891661
 21
178.03965
 31
0.0
  0
SOLID
  5
27B
330
276
100
AcDbEntity
  8
Dimensions
440
 16777216
100
AcDbTrace
 10
235.891661
 20
178.622984
 30
0.0
 11
235.891661
 21
177.456317
 31
0.0
 12
239.391661
 22
178.03965
 32
0.0
 13
239.391661
 23
178.03965
 33
0.0
  0
SOLID
  5
27C
330
276
100
AcDbEntity
  8
Dimensions
440
 16777216
100
AcDbTrace
 10
227.891661
 20
178.622984
 30
0.0
 11
227.891661
 21
177.456317
 31
0.0
 12
224.391661
 22
178.03965
 32
0.0
 13
224.391661
 23
178.03965
 33
0.0
  0
MTEXT
  5
27D
330
276
100
AcDbEntity
  8
Dimensions
440
 16777216
100
AcDbMText
 10
231.891661
 20
181.226656
 30
0.0
 40
3.5
 41
0.0
 46
0.0
 71
     5
 72
     1
  1
15
 73
     1
 44
1.0
  0
POINT
  5
27E
330
276
100
AcDbEntity
  8
Defpoints
 62
     0
440
 16777216
100
AcDbPoint
 10
239.391661
 20
192.797816
 30
0.0
  0
POINT
  5
27F
330
276
100
AcDbEntity
  8
Defpoints
 62
     0
440
 16777216
100
AcDbPoint
 10
224.391661
 20
193.297816
 30
0.0
  0
POINT
  5
280
330
276
100
AcDbEntity
  8
Defpoints
 62
     0
440
 16777216
100
AcDbPoint
 10
224.391661
 20
178.03965
 30
0.0
  0
ENDBLK
  5
281
330
276
100
AcDbEntity
  8
0
100
AcDbBlockEnd
  0
BLOCK
  5
284
330
283
100
AcDbEntity
  8
0
100
AcDbBlockBegin
  2
*D14
 70
     1
 10
0.0
 20
0.0
 30
0.0
  3
*D14
  1

  0
LINE
  5
285
330
283
100
AcDbEntity
  8
Dimensions
440
 16777216
370
    -2
100
AcDbLine
 10
312.291661
 20
222.297816
 30
0.0
 11
293.897879
 21
222.297816
 31
0.0
  0
LINE
  5
286
330
283
100
AcDbEntity
  8
Dimensions
440
 16777216
370
    -2
100
AcDbLine
 10
312.291661
 20
208.297816
 30
0.0
 11
293.897879
 21
208.297816
 31
0.0
  0
LINE
  5
287
330
283
100
AcDbEntity
  8
Dimensions
440
 16777216
370
    -2
100
AcDbLine
 10
295.997879
 20
218.797816
 30
0.0
 11
295.997879
 21
211.797816
 31
0.0
  0
SOLID
  5
288
330
283
100
AcDbEntity
  8
Dimensions
440
 16777216
100
AcDbTrace
 10
295.414546
 20
218.797816
 30
0.0
 11
296.581213
 21
218.797816
 31
0.0
 12
295.997879
 22
222.297816
 32
0.0
 13
295.997879
 23
222.297816
 33
0.0
  0
SOLID
  5
289
330
283
100
AcDbEntity
  8
Dimensions
440
 16777216
100
AcDbTrace
 10
295.414546
 20
211.797816
 30
0.0
 11
296.581213
 21
211.797816
 31
0.0
 12
295.997879
 22
208.297816
 32
0.0
 13
295.997879
 23
208.297816
 33
0.0
  0
MTEXT
  5
28A
330
283
100
AcDbEntity
  8
Dimensions
440
 16777216
100
AcDbMText
 10
292.840717
 20
215.297816
 30
0.0
 40
3.5
 41
0.0
 46
0.0
 71
     5
 72
     1
  1
14
 11
0.0
 21
1.0
 31
0.0
 73
     1
 44
1.0
  0
POINT
  5
28B
330
283
100
AcDbEntity
  8
Defpoints
 62
     0
440
 16777216
100
AcDbPoint
 10
314.391661
 20
222.297816
 30
0.0
  0
POINT
  5
28C
330
283
100
AcDbEntity
  8
Defpoints
 62
     0
440
 16777216
100
AcDbPoint
 10
314.391661
 20
208.297816
 30
0.0
  0
POINT
  5
28D
330
283
100
AcDbEntity
  8
Defpoints
 62
     0
440
 16777216
100
AcDbPoint
 10
295.997879
 20
208.297816
 30
0.0
  0
ENDBLK
  5
28E
330
283
100
AcDbEntity
  8
0
100
AcDbBlockEnd
  0
BLOCK
  5
291
330
290
100
AcDbEntity
  8
0
100
AcDbBlockBegin
  2
*D15
 70
     1
 10
0.0
 20
0.0
 30
0.0
  3
*D15
  1

  0
LINE
  5
292
330
290
100
AcDbEntity
  8
Dimensions
440
 16777216
370
    -2
100
AcDbLine
 10
243.391661
 20
213.197816
 30
0.0
 11
243.391661
 21
175.305829
 31
0.0
  0
LINE
  5
293
330
290
100
AcDbEntity
  8
Dimensions
440
 16777216
370
    -2
100
AcDbLine
 10
321.391661
 20
213.197816
 30
0.0
 11
321.391661
 21
175.305829
 31
0.0
  0
LINE
  5
294
330
290
100
AcDbEntity
  8
Dimensions
440
 16777216
370
    -2
100
AcDbLine
 10
246.891661
 20
177.405829
 30
0.0
 11
317.891661
 21
177.405829
 31
0.0
  0
SOLID
  5
295
330
290
100
AcDbEntity
  8
Dimensions
440
 16777216
100
AcDbTrace
 10
246.891661
 20
177.989162
 30
0.0
 11
246.891661
 21
176.822495
 31
0.0
 12
243.391661
 22
177.405829
 32
0.0
 13
243.391661
 23
177.405829
 33
0.0
  0
SOLID
  5
296
330
290
100
AcDbEntity
  8
Dimensions
440
 16777216
100
AcDbTrace
 10
317.891661
 20
177.989162
 30
0.0
 11
317.891661
 21
176.822495
 31
0.0
 12
321.391661
 22
177.405829
 32
0.0
 13
321.391661
 23
177.405829
 33
0.0
  0
MTEXT
  5
297
330
290
100
AcDbEntity
  8
Dimensions
440
 16777216
100
AcDbMText
 10
282.391661
 20
180.592834
 30
0.0
 40
3.5
 41
0.0
 46
0.0
 71
     5
 72
     1
  1
78
 73
     1
 44
1.0
  0
POINT
  5
298
330
290
100
AcDbEntity
  8
Defpoints
 62
     0
440
 16777216
100
AcDbPoint
 10
243.391661
 20
215.297816
 30
0.0
  0
POINT
  5
299
330
290
100
AcDbEntity
  8
Defpoints
 62
     0
440
 16777216
100
AcDbPoint
 10
321.391661
 20
215.297816
 30
0.0
  0
POINT
  5
29A
330
290
100
AcDbEntity
  8
Defpoints
 62
     0
440
 16777216
100
AcDbPoint
 10
321.391661
 20
177.405829
 30
0.0
  0
ENDBLK
  5
29B
330
290
100
AcDbEntity
  8
0
100
AcDbBlockEnd
  0
BLOCK
  5
29E
330
29D
100
AcDbEntity
  8
0
100
AcDbBlockBegin
  2
*U16
 70
     1
 10
0.0
 20
0.0
 30
0.0
  3
*U16
  1

  0
LINE
  5
29F
330
29D
100
AcDbEntity
  8
Center Lines
  6
Continuous
 62
     0
440
 16777216
 48
0.75
100
AcDbLine
 10
-0.892969
 20
0.0
 30
0.0
 11
0.892969
 21
0.0
 31
0.0
  0
LINE
  5
2A0
330
29D
100
AcDbEntity
  8
Center Lines
  6
Continuous
 62
     0
440
 16777216
 48
0.75
100
AcDbLine
 10
0.0
 20
-0.892969
 30
0.0
 11
0.0
 21
0.892969
 31
0.0
  0
LINE
  5
2A1
330
29D
100
AcDbEntity
  8
Center Lines
 62
     0
440
 16777216
 48
0.75
100
AcDbLine
 10
-6.88975
 20
0.0
 30
0.0
 11
-2.678906
 21
0.0
 31
0.0
  0
LINE
  5
2A2
330
29D
100
AcDbEntity
  8
Center Lines
 62
     0
440
 16777216
 48
0.75
100
AcDbLine
 10
2.678906
 20
0.0
 30
0.0
 11
6.88975
 21
0.0
 31
0.0
  0
LINE
  5
2A3
330
29D
100
AcDbEntity
  8
Center Lines
 62
     0
440
 16777216
 48
0.75
100
AcDbLine
 10
0.0
 20
-6.88975
 30
0.0
 11
0.0
 21
-2.678906
 31
0.0
  0
LINE
  5
2A4
330
29D
100
AcDbEntity
  8
Center Lines
 62
     0
440
 16777216
 48
0.75
100
AcDbLine
 10
0.0
 20
2.678906
 30
0.0
 11
0.0
 21
6.88975
 31
0.0
  0
ENDBLK
  5
2A5
330
29D
100
AcDbEntity
  8
0
100
AcDbBlockEnd
  0
BLOCK
  5
2A8
330
2A7
100
AcDbEntity
  8
0
100
AcDbBlockBegin
  2
*D17
 70
     1
 10
0.0
 20
0.0
 30
0.0
  3
*D17
  1

  0
LINE
  5
2A9
330
2A7
100
AcDbEntity
  8
Dimensions
440
 16777216
370
    -2
100
AcDbLine
 10
114.799523
 20
216.78274
 30
0.0
 11
138.434728
 21
240.417946
 31
0.0
  0
LINE
  5
2AA
330
2A7
100
AcDbEntity
  8
Dimensions
440
 16777216
370
    -2
100
AcDbLine
 10
99.950281
 20
231.631983
 30
0.0
 11
123.585486
 21
255.267188
 31
0.0
  0
LINE
  5
2AB
330
2A7
100
AcDbEntity
  8
Dimensions
440
 16777216
370
    -2
100
AcDbLine
 10
134.47493
 20
241.407895
 30
0.0
 11
124.575435
 21
251.30739
 31
0.0
  0
SOLID
  5
2AC
330
2A7
100
AcDbEntity
  8
Dimensions
440
 16777216
100
AcDbTrace
 10
134.887409
 20
241.820374
 30
0.0
 11
134.062451
 21
240.995416
 31
0.0
 12
136.949804
 22
238.933021
 32
0.0
 13
136.949804
 23
238.933021
 33
0.0
  0
SOLID
  5
2AD
330
2A7
100
AcDbEntity
  8
Dimensions
440
 16777216
100
AcDbTrace
 10
124.987914
 20
251.719869
 30
0.0
 11
124.162957
 21
250.894911
 31
0.0
 12
122.100562
 22
253.782264
 32
0.0
 13
122.100562
 23
253.782264
 33
0.0
  0
MTEXT
  5
2AE
330
2A7
100
AcDbEntity
  8
Dimensions
440
 16777216
100
AcDbMText
 10
132.283235
 20
248.064493
 30
0.0
 40
3.5
 41
0.0
 46
0.0
 71
     5
 72
     1
  1
21
 11
0.707107
 21
-0.707107
 31
0.0
 73
     1
 44
1.0
  0
POINT
  5
2AF
330
2A7
100
AcDbEntity
  8
Defpoints
 62
     0
440
 16777216
100
AcDbPoint
 10
113.314599
 20
215.297816
 30
0.0
  0
POINT
  5
2B0
330
2A7
100
AcDbEntity
  8
Defpoints
 62
     0
440
 16777216
100
AcDbPoint
 10
98.465356
 20
230.147058
 30
0.0
  0
POINT
  5
2B1
330
2A7
100
AcDbEntity
  8
Defpoints
 62
     0
440
 16777216
100
AcDbPoint
 10
122.100562
 20
253.782264
 30
0.0
  0
ENDBLK
  5
2B2
330
2A7
100
AcDbEntity
  8
0
100
AcDbBlockEnd
  0
BLOCK
  5
2B5
330
2B4
100
AcDbEntity
  8
0
100
AcDbBlockBegin
  2
*D18
 70
     1
 10
0.0
 20
0.0
 30
0.0
  3
*D18
  1

  0
LINE
  5
2B6
330
2B4
100
AcDbEntity
  8
Dimensions
440
 16777216
370
    -2
100
AcDbLine
 10
112.735692
 20
215.297816
 30
0.0
 11
166.332962
 21
215.297816
 31
0.0
  0
LINE
  5
2B7
330
2B4
100
AcDbEntity
  8
Dimensions
440
 16777216
370
    -2
100
AcDbLine
 10
104.58709
 20
236.268792
 30
0.0
 11
142.105758
 21
273.78746
 31
0.0
  0
ARC
  5
2B8
330
2B4
100
AcDbEntity
  8
Dimensions
440
 16777216
370
    -2
100
AcDbCircle
 10
83.616114
 20
215.297816
 30
0.0
 40
80.61684854280478
100
AcDbArc
 50
2.487706
 51
42.512294
  0
SOLID
  5
2B9
330
2B4
100
AcDbEntity
  8
Dimensions
440
 16777216
100
AcDbTrace
 10
164.740182
 20
218.809654
 30
0.0
 11
163.57379
 21
218.784328
 31
0.0
 12
164.232962
 22
215.297816
 32
0.0
 13
164.232962
 23
215.297816
 33
0.0
  0
SOLID
  5
2BA
330
2B4
100
AcDbEntity
  8
Dimensions
440
 16777216
100
AcDbTrace
 10
142.620065
 20
269.371094
 30
0.0
 11
143.462737
 21
270.17795
 31
0.0
 12
140.620834
 22
272.302536
 32
0.0
 13
140.620834
 23
272.302536
 33
0.0
  0
MTEXT
  5
2BB
330
2B4
100
AcDbEntity
  8
Dimensions
440
 16777216
100
AcDbMText
 10
161.034162
 20
247.365422
 30
0.0
 40
3.5
 41
0.0
 46
0.0
 71
     5
 72
     1
  1
45\U+00B0
 11
0.382683
 21
-0.92388
 31
0.0
 73
     1
 44
1.0
  0
POINT
  5
2BC
330
2B4
100
AcDbEntity
  8
Defpoints
 62
     0
440
 16777216
100
AcDbPoint
 10
161.48601
 20
236.162992
 30
0.0
  0
POINT
  5
2BD
330
2B4
100
AcDbEntity
  8
Defpoints
 62
     0
440
 16777216
100
AcDbPoint
 10
103.102166
 20
234.783868
 30
0.0
  0
POINT
  5
2BE
330
2B4
100
AcDbEntity
  8
Defpoints
 62
     0
440
 16777216
100
AcDbPoint
 10
86.814599
 20
215.297816
 30
0.0
  0
POINT
  5
2BF
330
2B4
100
AcDbEntity
  8
Defpoints
 62
     0
440
 16777216
100
AcDbPoint
 10
110.635692
 20
215.297816
 30
0.0
  0
POINT
  5
2C0
330
2B4
100
AcDbEntity
  8
Defpoints
 62
     0
440
 16777216
100
AcDbPoint
 10
93.828547
 20
225.510249
 30
0.0
  0
ENDBLK
  5
2C1
330
2B4
100
AcDbEntity
  8
0
100
AcDbBlockEnd
  0
BLOCK
  5
2C4
330
2C3
100
AcDbEntity
  8
0
100
AcDbBlockBegin
  2
*D19
 70
     1
 10
0.0
 20
0.0
 30
0.0
  3
*D19
  1

  0
LINE
  5
2C5
330
2C3
100
AcDbEntity
  8
Dimensions
440
 16777216
370
    -2
100
AcDbLine
 10
321.391661
 20
213.197816
 30
0.0
 11
321.391661
 21
183.288164
 31
0.0
  0
LINE
  5
2C6
330
2C3
100
AcDbEntity
  8
Dimensions
440
 16777216
370
    -2
100
AcDbLine
 10
324.391661
 20
194.197816
 30
0.0
 11
324.391661
 21
183.288164
 31
0.0
  0
LINE
  5
2C7
330
2C3
100
AcDbEntity
  8
Dimensions
440
 16777216
370
    -2
100
AcDbLine
 10
327.891661
 20
185.388164
 30
0.0
 11
331.391661
 21
185.388164
 31
0.0
  0
LINE
  5
2C8
330
2C3
100
AcDbEntity
  8
Dimensions
440
 16777216
370
    -2
100
AcDbLine
 10
317.891661
 20
185.388164
 30
0.0
 11
308.131679
 21
185.388164
 31
0.0
  0
LINE
  5
2C9
330
2C3
100
AcDbEntity
  8
Dimensions
440
 16777216
370
    -2
100
AcDbLine
 10
324.391661
 20
185.388164
 30
0.0
 11
321.391661
 21
185.388164
 31
0.0
  0
SOLID
  5
2CA
330
2C3
100
AcDbEntity
  8
Dimensions
440
 16777216
100
AcDbTrace
 10
327.891661
 20
185.971497
 30
0.0
 11
327.891661
 21
184.804831
 31
0.0
 12
324.391661
 22
185.388164
 32
0.0
 13
324.391661
 23
185.388164
 33
0.0
  0
SOLID
  5
2CB
330
2C3
100
AcDbEntity
  8
Dimensions
440
 16777216
100
AcDbTrace
 10
317.891661
 20
185.971497
 30
0.0
 11
317.891661
 21
184.804831
 31
0.0
 12
321.391661
 22
185.388164
 32
0.0
 13
321.391661
 23
185.388164
 33
0.0
  0
MTEXT
  5
2CC
330
2C3
100
AcDbEntity
  8
Dimensions
440
 16777216
100
AcDbMText
 10
310.677655
 20
188.576363
 30
0.0
 40
3.5
 41
0.0
 46
0.0
 71
     5
 72
     1
  1
3
 73
     1
 44
1.0
  0
POINT
  5
2CD
330
2C3
100
AcDbEntity
  8
Defpoints
 62
     0
440
 16777216
100
AcDbPoint
 10
321.391661
 20
215.297816
 30
0.0
  0
POINT
  5
2CE
330
2C3
100
AcDbEntity
  8
Defpoints
 62
     0
440
 16777216
100
AcDbPoint
 10
324.391661
 20
196.297816
 30
0.0
  0
POINT
  5
2CF
330
2C3
100
AcDbEntity
  8
Defpoints
 62
     0
440
 16777216
100
AcDbPoint
 10
324.391661
 20
185.388164
 30
0.0
  0
ENDBLK
  5
2D0
330
2C3
100
AcDbEntity
  8
0
100
AcDbBlockEnd
  0
BLOCK
  5
2D3
330
2D2
100
AcDbEntity
  8
0
100
AcDbBlockBegin
  2
*D20
 70
     1
 10
0.0
 20
0.0
 30
0.0
  3
*D20
  1

  0
LINE
  5
2D4
330
2D2
100
AcDbEntity
  8
Dimensions
440
 16777216
370
    -2
100
AcDbLine
 10
243.391661
 20
213.197816
 30
0.0
 11
243.391661
 21
185.209837
 31
0.0
  0
LINE
  5
2D5
330
2D2
100
AcDbEntity
  8
Dimensions
440
 16777216
370
    -2
100
AcDbLine
 10
239.391661
 20
190.697816
 30
0.0
 11
239.391661
 21
185.209837
 31
0.0
  0
LINE
  5
2D6
330
2D2
100
AcDbEntity
  8
Dimensions
440
 16777216
370
    -2
100
AcDbLine
 10
235.891661
 20
187.309837
 30
0.0
 11
232.391661
 21
187.309837
 31
0.0
  0
LINE
  5
2D7
330
2D2
100
AcDbEntity
  8
Dimensions
440
 16777216
370
    -2
100
AcDbLine
 10
246.891661
 20
187.309837
 30
0.0
 11
257.678807
 21
187.309837
 31
0.0
  0
LINE
  5
2D8
330
2D2
100
AcDbEntity
  8
Dimensions
440
 16777216
370
    -2
100
AcDbLine
 10
239.391661
 20
187.309837
 30
0.0
 11
243.391661
 21
187.309837
 31
0.0
  0
SOLID
  5
2D9
330
2D2
100
AcDbEntity
  8
Dimensions
440
 16777216
100
AcDbTrace
 10
235.891661
 20
187.893171
 30
0.0
 11
235.891661
 21
186.726504
 31
0.0
 12
239.391661
 22
187.309837
 32
0.0
 13
239.391661
 23
187.309837
 33
0.0
  0
SOLID
  5
2DA
330
2D2
100
AcDbEntity
  8
Dimensions
440
 16777216
100
AcDbTrace
 10
246.891661
 20
187.893171
 30
0.0
 11
246.891661
 21
186.726504
 31
0.0
 12
243.391661
 22
187.309837
 32
0.0
 13
243.391661
 23
187.309837
 33
0.0
  0
MTEXT
  5
2DB
330
2D2
100
AcDbEntity
  8
Dimensions
440
 16777216
100
AcDbMText
 10
255.068371
 20
190.459837
 30
0.0
 40
3.5
 41
0.0
 46
0.0
 71
     5
 72
     1
  1
4
 73
     1
 44
1.0
  0
POINT
  5
2DC
330
2D2
100
AcDbEntity
  8
Defpoints
 62
     0
440
 16777216
100
AcDbPoint
 10
243.391661
 20
215.297816
 30
0.0
  0
POINT
  5
2DD
330
2D2
100
AcDbEntity
  8
Defpoints
 62
     0
440
 16777216
100
AcDbPoint
 10
239.391661
 20
192.797816
 30
0.0
  0
POINT
  5
2DE
330
2D2
100
AcDbEntity
  8
Defpoints
 62
     0
440
 16777216
100
AcDbPoint
 10
239.391661
 20
187.309837
 30
0.0
  0
ENDBLK
  5
2DF
330
2D2
100
AcDbEntity
  8
0
100
AcDbBlockEnd
  0
BLOCK
  5
2E2
330
2E1
100
AcDbEntity
  8
0
100
AcDbBlockBegin
  2
*D21
 70
     1
 10
0.0
 20
0.0
 30
0.0
  3
*D21
  1

  0
LINE
  5
2E3
330
2E1
100
AcDbEntity
  8
Dimensions
440
 16777216
370
    -2
100
AcDbLine
 10
223.291661
 20
227.798816
 30
0.0
 11
201.291661
 21
227.798816
 31
0.0
  0
LINE
  5
2E4
330
2E1
100
AcDbEntity
  8
Dimensions
440
 16777216
370
    -2
100
AcDbLine
 10
222.291661
 20
202.796816
 30
0.0
 11
201.291661
 21
202.796816
 31
0.0
  0
LINE
  5
2E5
330
2E1
100
AcDbEntity
  8
Dimensions
440
 16777216
370
    -2
100
AcDbLine
 10
203.391661
 20
224.298816
 30
0.0
 11
203.391661
 21
206.296816
 31
0.0
  0
SOLID
  5
2E6
330
2E1
100
AcDbEntity
  8
Dimensions
440
 16777216
100
AcDbTrace
 10
202.808328
 20
224.298816
 30
0.0
 11
203.974994
 21
224.298816
 31
0.0
 12
203.391661
 22
227.798816
 32
0.0
 13
203.391661
 23
227.798816
 33
0.0
  0
SOLID
  5
2E7
330
2E1
100
AcDbEntity
  8
Dimensions
440
 16777216
100
AcDbTrace
 10
202.808328
 20
206.296816
 30
0.0
 11
203.974994
 21
206.296816
 31
0.0
 12
203.391661
 22
202.796816
 32
0.0
 13
203.391661
 23
202.796816
 33
0.0
  0
MTEXT
  5
2E8
330
2E1
100
AcDbEntity
  8
Dimensions
440
 16777216
100
AcDbMText
 10
200.10677
 20
215.297816
 30
0.0
 40
3.5
 41
0.0
 46
0.0
 71
     5
 72
     1
  1
%%C25
 11
0.0
 21
1.0
 31
0.0
 73
     1
 44
1.0
  0
POINT
  5
2E9
330
2E1
100
AcDbEntity
  8
Defpoints
 62
     0
440
 16777216
100
AcDbPoint
 10
225.391661
 20
227.798816
 30
0.0
  0
POINT
  5
2EA
330
2E1
100
AcDbEntity
  8
Defpoints
 62
     0
440
 16777216
100
AcDbPoint
 10
224.391661
 20
202.796816
 30
0.0
  0
POINT
  5
2EB
330
2E1
100
AcDbEntity
  8
Defpoints
 62
     0
440
 16777216
100
AcDbPoint
 10
203.391661
 20
202.796816
 30
0.0
  0
ENDBLK
  5
2EC
330
2E1
100
AcDbEntity
  8
0
100
AcDbBlockEnd
  0
BLOCK
  5
2EF
330
2EE
100
AcDbEntity
  8
0
100
AcDbBlockBegin
  2
*D22
 70
     1
 10
0.0
 20
0.0
 30
0.0
  3
*D22
  1

  0
LINE
  5
60B
330
2EE
100
AcDbEntity
  8
Dimensions
440
 16777216
370
    -2
100
AcDbLine
 10
223.291661
 20
238.297816
 30
0.0
 11
186.93248
 21
238.297816
 31
0.0
  0
LINE
  5
60C
330
2EE
100
AcDbEntity
  8
Dimensions
440
 16777216
370
    -2
100
AcDbLine
 10
223.291661
 20
192.297816
 30
0.0
 11
186.93248
 21
192.297816
 31
0.0
  0
LINE
  5
60D
330
2EE
100
AcDbEntity
  8
Dimensions
440
 16777216
370
    -2
100
AcDbLine
 10
189.03248
 20
234.797816
 30
0.0
 11
189.03248
 21
195.797816
 31
0.0
  0
SOLID
  5
60E
330
2EE
100
AcDbEntity
  8
Dimensions
440
 16777216
100
AcDbTrace
 10
188.449146
 20
234.797816
 30
0.0
 11
189.615813
 21
234.797816
 31
0.0
 12
189.03248
 22
238.297816
 32
0.0
 13
189.03248
 23
238.297816
 33
0.0
  0
SOLID
  5
60F
330
2EE
100
AcDbEntity
  8
Dimensions
440
 16777216
100
AcDbTrace
 10
188.449146
 20
195.797816
 30
0.0
 11
189.615813
 21
195.797816
 31
0.0
 12
189.03248
 22
192.297816
 32
0.0
 13
189.03248
 23
192.297816
 33
0.0
  0
MTEXT
  5
610
330
2EE
100
AcDbEntity
  8
Dimensions
440
 16777216
100
AcDbMText
 10
185.747589
 20
215.297816
 30
0.0
 40
3.5
 41
0.0
 46
0.0
 71
     5
 72
     1
  1
%%C46
 11
0.0
 21
1.0
 31
0.0
 73
     1
 44
1.0
  0
POINT
  5
611
330
2EE
100
AcDbEntity
  8
Defpoints
 62
     0
440
 16777216
100
AcDbPoint
 10
225.391661
 20
238.297816
 30
0.0
  0
POINT
  5
612
330
2EE
100
AcDbEntity
  8
Defpoints
 62
     0
440
 16777216
100
AcDbPoint
 10
225.391661
 20
192.297816
 30
0.0
  0
POINT
  5
613
330
2EE
100
AcDbEntity
  8
Defpoints
 62
     0
440
 16777216
100
AcDbPoint
 10
189.03248
 20
192.297816
 30
0.0
  0
ENDBLK
  5
2F0
330
2EE
100
AcDbEntity
  8
0
100
AcDbBlockEnd
  0
BLOCK
  5
2FB
330
2FA
100
AcDbEntity
  8
0
100
AcDbBlockBegin
  2
*D23
 70
     1
 10
0.0
 20
0.0
 30
0.0
  3
*D23
  1

  0
LINE
  5
614
330
2FA
100
AcDbEntity
  8
Dimensions
440
 16777216
370
    -2
100
AcDbLine
 10
224.391661
 20
239.397816
 30
0.0
 11
224.391661
 21
255.358106
 31
0.0
  0
LINE
  5
615
330
2FA
100
AcDbEntity
  8
Dimensions
440
 16777216
370
    -2
100
AcDbLine
 10
324.391661
 20
236.397816
 30
0.0
 11
324.391661
 21
255.358106
 31
0.0
  0
LINE
  5
616
330
2FA
100
AcDbEntity
  8
Dimensions
440
 16777216
370
    -2
100
AcDbLine
 10
227.891661
 20
253.258106
 30
0.0
 11
320.891661
 21
253.258106
 31
0.0
  0
SOLID
  5
617
330
2FA
100
AcDbEntity
  8
Dimensions
440
 16777216
100
AcDbTrace
 10
227.891661
 20
253.841439
 30
0.0
 11
227.891661
 21
252.674773
 31
0.0
 12
224.391661
 22
253.258106
 32
0.0
 13
224.391661
 23
253.258106
 33
0.0
  0
SOLID
  5
618
330
2FA
100
AcDbEntity
  8
Dimensions
440
 16777216
100
AcDbTrace
 10
320.891661
 20
253.841439
 30
0.0
 11
320.891661
 21
252.674773
 31
0.0
 12
324.391661
 22
253.258106
 32
0.0
 13
324.391661
 23
253.258106
 33
0.0
  0
MTEXT
  5
619
330
2FA
100
AcDbEntity
  8
Dimensions
440
 16777216
100
AcDbMText
 10
274.391661
 20
256.445112
 30
0.0
 40
3.5
 41
0.0
 46
0.0
 71
     5
 72
     1
  1
100
 73
     1
 44
1.0
  0
POINT
  5
61A
330
2FA
100
AcDbEntity
  8
Defpoints
 62
     0
440
 16777216
100
AcDbPoint
 10
224.391661
 20
237.297816
 30
0.0
  0
POINT
  5
61B
330
2FA
100
AcDbEntity
  8
Defpoints
 62
     0
440
 16777216
100
AcDbPoint
 10
324.391661
 20
234.297816
 30
0.0
  0
POINT
  5
61C
330
2FA
100
AcDbEntity
  8
Defpoints
 62
     0
440
 16777216
100
AcDbPoint
 10
324.391661
 20
253.258106
 30
0.0
  0
ENDBLK
  5
2FC
330
2FA
100
AcDbEntity
  8
0
100
AcDbBlockEnd
  0
BLOCK
  5
307
330
306
100
AcDbEntity
  8
0
100
AcDbBlockBegin
  2
*D24
 70
     1
 10
0.0
 20
0.0
 30
0.0
  3
*D24
  1

  0
LINE
  5
61D
330
306
100
AcDbEntity
  8
Dimensions
440
 16777216
370
    -2
100
AcDbLine
 10
239.391661
 20
239.897816
 30
0.0
 11
239.391661
 21
245.987034
 31
0.0
  0
LINE
  5
61E
330
306
100
AcDbEntity
  8
Dimensions
440
 16777216
370
    -2
100
AcDbLine
 10
324.391661
 20
236.397816
 30
0.0
 11
324.391661
 21
245.987034
 31
0.0
  0
LINE
  5
61F
330
306
100
AcDbEntity
  8
Dimensions
440
 16777216
370
    -2
100
AcDbLine
 10
242.891661
 20
243.887034
 30
0.0
 11
320.891661
 21
243.887034
 31
0.0
  0
SOLID
  5
620
330
306
100
AcDbEntity
  8
Dimensions
440
 16777216
100
AcDbTrace
 10
242.891661
 20
244.470367
 30
0.0
 11
242.891661
 21
243.3037
 31
0.0
 12
239.391661
 22
243.887034
 32
0.0
 13
239.391661
 23
243.887034
 33
0.0
  0
SOLID
  5
621
330
306
100
AcDbEntity
  8
Dimensions
440
 16777216
100
AcDbTrace
 10
320.891661
 20
244.470367
 30
0.0
 11
320.891661
 21
243.3037
 31
0.0
 12
324.391661
 22
243.887034
 32
0.0
 13
324.391661
 23
243.887034
 33
0.0
  0
MTEXT
  5
622
330
306
100
AcDbEntity
  8
Dimensions
440
 16777216
100
AcDbMText
 10
281.891661
 20
247.074039
 30
0.0
 40
3.5
 41
0.0
 46
0.0
 71
     5
 72
     1
  1
85
 73
     1
 44
1.0
  0
POINT
  5
623
330
306
100
AcDbEntity
  8
Defpoints
 62
     0
440
 16777216
100
AcDbPoint
 10
239.391661
 20
237.797816
 30
0.0
  0
POINT
  5
624
330
306
100
AcDbEntity
  8
Defpoints
 62
     0
440
 16777216
100
AcDbPoint
 10
324.391661
 20
234.297816
 30
0.0
  0
POINT
  5
625
330
306
100
AcDbEntity
  8
Defpoints
 62
     0
440
 16777216
100
AcDbPoint
 10
324.391661
 20
243.887034
 30
0.0
  0
ENDBLK
  5
308
330
306
100
AcDbEntity
  8
0
100
AcDbBlockEnd
  0
BLOCK
  5
313
330
312
100
AcDbEntity
  8
0
100
AcDbBlockBegin
  2
*D25
 70
     1
 10
0.0
 20
0.0
 30
0.0
  3
*D25
  1

  0
LINE
  5
626
330
312
100
AcDbEntity
  8
Dimensions
440
 16777216
370
    -2
100
AcDbLine
 10
239.391661
 20
190.697816
 30
0.0
 11
239.391661
 21
175.93965
 31
0.0
  0
LINE
  5
627
330
312
100
AcDbEntity
  8
Dimensions
440
 16777216
370
    -2
100
AcDbLine
 10
224.391661
 20
191.197816
 30
0.0
 11
224.391661
 21
175.93965
 31
0.0
  0
LINE
  5
628
330
312
100
AcDbEntity
  8
Dimensions
440
 16777216
370
    -2
100
AcDbLine
 10
235.891661
 20
178.03965
 30
0.0
 11
227.891661
 21
178.03965
 31
0.0
  0
SOLID
  5
629
330
312
100
AcDbEntity
  8
Dimensions
440
 16777216
100
AcDbTrace
 10
235.891661
 20
178.622984
 30
0.0
 11
235.891661
 21
177.456317
 31
0.0
 12
239.391661
 22
178.03965
 32
0.0
 13
239.391661
 23
178.03965
 33
0.0
  0
SOLID
  5
62A
330
312
100
AcDbEntity
  8
Dimensions
440
 16777216
100
AcDbTrace
 10
227.891661
 20
178.622984
 30
0.0
 11
227.891661
 21
177.456317
 31
0.0
 12
224.391661
 22
178.03965
 32
0.0
 13
224.391661
 23
178.03965
 33
0.0
  0
MTEXT
  5
62B
330
312
100
AcDbEntity
  8
Dimensions
440
 16777216
100
AcDbMText
 10
231.891661
 20
181.226656
 30
0.0
 40
3.5
 41
0.0
 46
0.0
 71
     5
 72
     1
  1
15
 73
     1
 44
1.0
  0
POINT
  5
62C
330
312
100
AcDbEntity
  8
Defpoints
 62
     0
440
 16777216
100
AcDbPoint
 10
239.391661
 20
192.797816
 30
0.0
  0
POINT
  5
62D
330
312
100
AcDbEntity
  8
Defpoints
 62
     0
440
 16777216
100
AcDbPoint
 10
224.391661
 20
193.297816
 30
0.0
  0
POINT
  5
62E
330
312
100
AcDbEntity
  8
Defpoints
 62
     0
440
 16777216
100
AcDbPoint
 10
224.391661
 20
178.03965
 30
0.0
  0
ENDBLK
  5
314
330
312
100
AcDbEntity
  8
0
100
AcDbBlockEnd
  0
BLOCK
  5
31F
330
31E
100
AcDbEntity
  8
0
100
AcDbBlockBegin
  2
*D26
 70
     1
 10
0.0
 20
0.0
 30
0.0
  3
*D26
  1

  0
LINE
  5
62F
330
31E
100
AcDbEntity
  8
Dimensions
440
 16777216
370
    -2
100
AcDbLine
 10
312.291661
 20
222.297816
 30
0.0
 11
293.897879
 21
222.297816
 31
0.0
  0
LINE
  5
630
330
31E
100
AcDbEntity
  8
Dimensions
440
 16777216
370
    -2
100
AcDbLine
 10
312.291661
 20
208.297816
 30
0.0
 11
293.897879
 21
208.297816
 31
0.0
  0
LINE
  5
631
330
31E
100
AcDbEntity
  8
Dimensions
440
 16777216
370
    -2
100
AcDbLine
 10
295.997879
 20
218.797816
 30
0.0
 11
295.997879
 21
211.797816
 31
0.0
  0
SOLID
  5
632
330
31E
100
AcDbEntity
  8
Dimensions
440
 16777216
100
AcDbTrace
 10
295.414546
 20
218.797816
 30
0.0
 11
296.581213
 21
218.797816
 31
0.0
 12
295.997879
 22
222.297816
 32
0.0
 13
295.997879
 23
222.297816
 33
0.0
  0
SOLID
  5
633
330
31E
100
AcDbEntity
  8
Dimensions
440
 16777216
100
AcDbTrace
 10
295.414546
 20
211.797816
 30
0.0
 11
296.581213
 21
211.797816
 31
0.0
 12
295.997879
 22
208.297816
 32
0.0
 13
295.997879
 23
208.297816
 33
0.0
  0
MTEXT
  5
634
330
31E
100
AcDbEntity
  8
Dimensions
440
 16777216
100
AcDbMText
 10
292.840717
 20
215.297816
 30
0.0
 40
3.5
 41
0.0
 46
0.0
 71
     5
 72
     1
  1
14
 11
0.0
 21
1.0
 31
0.0
 73
     1
 44
1.0
  0
POINT
  5
635
330
31E
100
AcDbEntity
  8
Defpoints
 62
     0
440
 16777216
100
AcDbPoint
 10
314.391661
 20
222.297816
 30
0.0
  0
POINT
  5
636
330
31E
100
AcDbEntity
  8
Defpoints
 62
     0
440
 16777216
100
AcDbPoint
 10
314.391661
 20
208.297816
 30
0.0
  0
POINT
  5
637
330
31E
100
AcDbEntity
  8
Defpoints
 62
     0
440
 16777216
100
AcDbPoint
 10
295.997879
 20
208.297816
 30
0.0
  0
ENDBLK
  5
320
330
31E
100
AcDbEntity
  8
0
100
AcDbBlockEnd
  0
BLOCK
  5
32B
330
32A
100
AcDbEntity
  8
0
100
AcDbBlockBegin
  2
*D27
 70
     1
 10
0.0
 20
0.0
 30
0.0
  3
*D27
  1

  0
LINE
  5
638
330
32A
100
AcDbEntity
  8
Dimensions
440
 16777216
370
    -2
100
AcDbLine
 10
243.391661
 20
213.197816
 30
0.0
 11
243.391661
 21
175.305829
 31
0.0
  0
LINE
  5
639
330
32A
100
AcDbEntity
  8
Dimensions
440
 16777216
370
    -2
100
AcDbLine
 10
321.391661
 20
213.197816
 30
0.0
 11
321.391661
 21
175.305829
 31
0.0
  0
LINE
  5
63A
330
32A
100
AcDbEntity
  8
Dimensions
440
 16777216
370
    -2
100
AcDbLine
 10
246.891661
 20
177.405829
 30
0.0
 11
317.891661
 21
177.405829
 31
0.0
  0
SOLID
  5
63B
330
32A
100
AcDbEntity
  8
Dimensions
440
 16777216
100
AcDbTrace
 10
246.891661
 20
177.989162
 30
0.0
 11
246.891661
 21
176.822495
 31
0.0
 12
243.391661
 22
177.405829
 32
0.0
 13
243.391661
 23
177.405829
 33
0.0
  0
SOLID
  5
63C
330
32A
100
AcDbEntity
  8
Dimensions
440
 16777216
100
AcDbTrace
 10
317.891661
 20
177.989162
 30
0.0
 11
317.891661
 21
176.822495
 31
0.0
 12
321.391661
 22
177.405829
 32
0.0
 13
321.391661
 23
177.405829
 33
0.0
  0
MTEXT
  5
63D
330
32A
100
AcDbEntity
  8
Dimensions
440
 16777216
100
AcDbMText
 10
282.391661
 20
180.592834
 30
0.0
 40
3.5
 41
0.0
 46
0.0
 71
     5
 72
     1
  1
78
 73
     1
 44
1.0
  0
POINT
  5
63E
330
32A
100
AcDbEntity
  8
Defpoints
 62
     0
440
 16777216
100
AcDbPoint
 10
243.391661
 20
215.297816
 30
0.0
  0
POINT
  5
63F
330
32A
100
AcDbEntity
  8
Defpoints
 62
     0
440
 16777216
100
AcDbPoint
 10
321.391661
 20
215.297816
 30
0.0
  0
POINT
  5
640
330
32A
100
AcDbEntity
  8
Defpoints
 62
     0
440
 16777216
100
AcDbPoint
 10
321.391661
 20
177.405829
 30
0.0
  0
ENDBLK
  5
32C
330
32A
100
AcDbEntity
  8
0
100
AcDbBlockEnd
  0
BLOCK
  5
337
330
336
100
AcDbEntity
  8
0
100
AcDbBlockBegin
  2
*D28
 70
     1
 10
0.0
 20
0.0
 30
0.0
  3
*D28
  1

  0
LINE
  5
641
330
336
100
AcDbEntity
  8
Dimensions
440
 16777216
370
    -2
100
AcDbLine
 10
114.799523
 20
216.78274
 30
0.0
 11
138.434728
 21
240.417946
 31
0.0
  0
LINE
  5
642
330
336
100
AcDbEntity
  8
Dimensions
440
 16777216
370
    -2
100
AcDbLine
 10
99.950281
 20
231.631983
 30
0.0
 11
123.585486
 21
255.267188
 31
0.0
  0
LINE
  5
643
330
336
100
AcDbEntity
  8
Dimensions
440
 16777216
370
    -2
100
AcDbLine
 10
134.47493
 20
241.407895
 30
0.0
 11
124.575435
 21
251.30739
 31
0.0
  0
SOLID
  5
644
330
336
100
AcDbEntity
  8
Dimensions
440
 16777216
100
AcDbTrace
 10
134.887409
 20
241.820374
 30
0.0
 11
134.062451
 21
240.995416
 31
0.0
 12
136.949804
 22
238.933021
 32
0.0
 13
136.949804
 23
238.933021
 33
0.0
  0
SOLID
  5
645
330
336
100
AcDbEntity
  8
Dimensions
440
 16777216
100
AcDbTrace
 10
124.987914
 20
251.719869
 30
0.0
 11
124.162957
 21
250.894911
 31
0.0
 12
122.100562
 22
253.782264
 32
0.0
 13
122.100562
 23
253.782264
 33
0.0
  0
MTEXT
  5
646
330
336
100
AcDbEntity
  8
Dimensions
440
 16777216
100
AcDbMText
 10
132.283235
 20
248.064493
 30
0.0
 40
3.5
 41
0.0
 46
0.0
 71
     5
 72
     1
  1
21
 11
0.707107
 21
-0.707107
 31
0.0
 73
     1
 44
1.0
  0
POINT
  5
647
330
336
100
AcDbEntity
  8
Defpoints
 62
     0
440
 16777216
100
AcDbPoint
 10
113.314599
 20
215.297816
 30
0.0
  0
POINT
  5
648
330
336
100
AcDbEntity
  8
Defpoints
 62
     0
440
 16777216
100
AcDbPoint
 10
98.465356
 20
230.147058
 30
0.0
  0
POINT
  5
649
330
336
100
AcDbEntity
  8
Defpoints
 62
     0
440
 16777216
100
AcDbPoint
 10
122.100562
 20
253.782264
 30
0.0
  0
ENDBLK
  5
338
330
336
100
AcDbEntity
  8
0
100
AcDbBlockEnd
  0
BLOCK
  5
343
330
342
100
AcDbEntity
  8
0
100
AcDbBlockBegin
  2
*D29
 70
     1
 10
0.0
 20
0.0
 30
0.0
  3
*D29
  1

  0
LINE
  5
64A
330
342
100
AcDbEntity
  8
Dimensions
440
 16777216
370
    -2
100
AcDbLine
 10
112.735692
 20
215.297816
 30
0.0
 11
166.332962
 21
215.297816
 31
0.0
  0
LINE
  5
64B
330
342
100
AcDbEntity
  8
Dimensions
440
 16777216
370
    -2
100
AcDbLine
 10
104.58709
 20
236.268792
 30
0.0
 11
142.105758
 21
273.78746
 31
0.0
  0
ARC
  5
64C
330
342
100
AcDbEntity
  8
Dimensions
440
 16777216
370
    -2
100
AcDbCircle
 10
83.616114
 20
215.297816
 30
0.0
 40
80.61684854280446
100
AcDbArc
 50
2.487706
 51
42.512294
  0
SOLID
  5
64D
330
342
100
AcDbEntity
  8
Dimensions
440
 16777216
100
AcDbTrace
 10
164.740182
 20
218.809654
 30
0.0
 11
163.57379
 21
218.784328
 31
0.0
 12
164.232962
 22
215.297816
 32
0.0
 13
164.232962
 23
215.297816
 33
0.0
  0
SOLID
  5
64E
330
342
100
AcDbEntity
  8
Dimensions
440
 16777216
100
AcDbTrace
 10
142.620065
 20
269.371094
 30
0.0
 11
143.462737
 21
270.17795
 31
0.0
 12
140.620834
 22
272.302536
 32
0.0
 13
140.620834
 23
272.302536
 33
0.0
  0
MTEXT
  5
64F
330
342
100
AcDbEntity
  8
Dimensions
440
 16777216
100
AcDbMText
 10
161.034162
 20
247.365422
 30
0.0
 40
3.5
 41
0.0
 46
0.0
 71
     5
 72
     1
  1
45\U+00B0
 11
0.382683
 21
-0.92388
 31
0.0
 73
     1
 44
1.0
  0
POINT
  5
650
330
342
100
AcDbEntity
  8
Defpoints
 62
     0
440
 16777216
100
AcDbPoint
 10
161.48601
 20
236.162992
 30
0.0
  0
POINT
  5
651
330
342
100
AcDbEntity
  8
Defpoints
 62
     0
440
 16777216
100
AcDbPoint
 10
103.102166
 20
234.783868
 30
0.0
  0
POINT
  5
652
330
342
100
AcDbEntity
  8
Defpoints
 62
     0
440
 16777216
100
AcDbPoint
 10
86.814599
 20
215.297816
 30
0.0
  0
POINT
  5
653
330
342
100
AcDbEntity
  8
Defpoints
 62
     0
440
 16777216
100
AcDbPoint
 10
110.635692
 20
215.297816
 30
0.0
  0
POINT
  5
654
330
342
100
AcDbEntity
  8
Defpoints
 62
     0
440
 16777216
100
AcDbPoint
 10
93.828547
 20
225.510249
 30
0.0
  0
ENDBLK
  5
344
330
342
100
AcDbEntity
  8
0
100
AcDbBlockEnd
  0
BLOCK
  5
351
330
350
100
AcDbEntity
  8
0
100
AcDbBlockBegin
  2
*D30
 70
     1
 10
0.0
 20
0.0
 30
0.0
  3
*D30
  1

  0
LINE
  5
655
330
350
100
AcDbEntity
  8
Dimensions
440
 16777216
370
    -2
100
AcDbLine
 10
321.391661
 20
213.197816
 30
0.0
 11
321.391661
 21
183.288164
 31
0.0
  0
LINE
  5
656
330
350
100
AcDbEntity
  8
Dimensions
440
 16777216
370
    -2
100
AcDbLine
 10
324.391661
 20
194.197816
 30
0.0
 11
324.391661
 21
183.288164
 31
0.0
  0
LINE
  5
657
330
350
100
AcDbEntity
  8
Dimensions
440
 16777216
370
    -2
100
AcDbLine
 10
327.891661
 20
185.388164
 30
0.0
 11
331.391661
 21
185.388164
 31
0.0
  0
LINE
  5
658
330
350
100
AcDbEntity
  8
Dimensions
440
 16777216
370
    -2
100
AcDbLine
 10
317.891661
 20
185.388164
 30
0.0
 11
308.131679
 21
185.388164
 31
0.0
  0
LINE
  5
659
330
350
100
AcDbEntity
  8
Dimensions
440
 16777216
370
    -2
100
AcDbLine
 10
324.391661
 20
185.388164
 30
0.0
 11
321.391661
 21
185.388164
 31
0.0
  0
SOLID
  5
65A
330
350
100
AcDbEntity
  8
Dimensions
440
 16777216
100
AcDbTrace
 10
327.891661
 20
185.971497
 30
0.0
 11
327.891661
 21
184.804831
 31
0.0
 12
324.391661
 22
185.388164
 32
0.0
 13
324.391661
 23
185.388164
 33
0.0
  0
SOLID
  5
65B
330
350
100
AcDbEntity
  8
Dimensions
440
 16777216
100
AcDbTrace
 10
317.891661
 20
185.971497
 30
0.0
 11
317.891661
 21
184.804831
 31
0.0
 12
321.391661
 22
185.388164
 32
0.0
 13
321.391661
 23
185.388164
 33
0.0
  0
MTEXT
  5
65C
330
350
100
AcDbEntity
  8
Dimensions
440
 16777216
100
AcDbMText
 10
310.677655
 20
188.576363
 30
0.0
 40
3.5
 41
0.0
 46
0.0
 71
     5
 72
     1
  1
3
 73
     1
 44
1.0
  0
POINT
  5
65D
330
350
100
AcDbEntity
  8
Defpoints
 62
     0
440
 16777216
100
AcDbPoint
 10
321.391661
 20
215.297816
 30
0.0
  0
POINT
  5
65E
330
350
100
AcDbEntity
  8
Defpoints
 62
     0
440
 16777216
100
AcDbPoint
 10
324.391661
 20
196.297816
 30
0.0
  0
POINT
  5
65F
330
350
100
AcDbEntity
  8
Defpoints
 62
     0
440
 16777216
100
AcDbPoint
 10
324.391661
 20
185.388164
 30
0.0
  0
ENDBLK
  5
352
330
350
100
AcDbEntity
  8
0
100
AcDbBlockEnd
  0
BLOCK
  5
35F
330
35E
100
AcDbEntity
  8
0
100
AcDbBlockBegin
  2
*D31
 70
     1
 10
0.0
 20
0.0
 30
0.0
  3
*D31
  1

  0
LINE
  5
660
330
35E
100
AcDbEntity
  8
Dimensions
440
 16777216
370
    -2
100
AcDbLine
 10
243.391661
 20
213.197816
 30
0.0
 11
243.391661
 21
185.209837
 31
0.0
  0
LINE
  5
661
330
35E
100
AcDbEntity
  8
Dimensions
440
 16777216
370
    -2
100
AcDbLine
 10
239.391661
 20
190.697816
 30
0.0
 11
239.391661
 21
185.209837
 31
0.0
  0
LINE
  5
662
330
35E
100
AcDbEntity
  8
Dimensions
440
 16777216
370
    -2
100
AcDbLine
 10
235.891661
 20
187.309837
 30
0.0
 11
232.391661
 21
187.309837
 31
0.0
  0
LINE
  5
663
330
35E
100
AcDbEntity
  8
Dimensions
440
 16777216
370
    -2
100
AcDbLine
 10
246.891661
 20
187.309837
 30
0.0
 11
257.678807
 21
187.309837
 31
0.0
  0
LINE
  5
664
330
35E
100
AcDbEntity
  8
Dimensions
440
 16777216
370
    -2
100
AcDbLine
 10
239.391661
 20
187.309837
 30
0.0
 11
243.391661
 21
187.309837
 31
0.0
  0
SOLID
  5
665
330
35E
100
AcDbEntity
  8
Dimensions
440
 16777216
100
AcDbTrace
 10
235.891661
 20
187.893171
 30
0.0
 11
235.891661
 21
186.726504
 31
0.0
 12
239.391661
 22
187.309837
 32
0.0
 13
239.391661
 23
187.309837
 33
0.0
  0
SOLID
  5
666
330
35E
100
AcDbEntity
  8
Dimensions
440
 16777216
100
AcDbTrace
 10
246.891661
 20
187.893171
 30
0.0
 11
246.891661
 21
186.726504
 31
0.0
 12
243.391661
 22
187.309837
 32
0.0
 13
243.391661
 23
187.309837
 33
0.0
  0
MTEXT
  5
667
330
35E
100
AcDbEntity
  8
Dimensions
440
 16777216
100
AcDbMText
 10
255.068371
 20
190.459837
 30
0.0
 40
3.5
 41
0.0
 46
0.0
 71
     5
 72
     1
  1
4
 73
     1
 44
1.0
  0
POINT
  5
668
330
35E
100
AcDbEntity
  8
Defpoints
 62
     0
440
 16777216
100
AcDbPoint
 10
243.391661
 20
215.297816
 30
0.0
  0
POINT
  5
669
330
35E
100
AcDbEntity
  8
Defpoints
 62
     0
440
 16777216
100
AcDbPoint
 10
239.391661
 20
192.797816
 30
0.0
  0
POINT
  5
66A
330
35E
100
AcDbEntity
  8
Defpoints
 62
     0
440
 16777216
100
AcDbPoint
 10
239.391661
 20
187.309837
 30
0.0
  0
ENDBLK
  5
360
330
35E
100
AcDbEntity
  8
0
100
AcDbBlockEnd
  0
BLOCK
  5
36D
330
36C
100
AcDbEntity
  8
0
100
AcDbBlockBegin
  2
*D32
 70
     1
 10
0.0
 20
0.0
 30
0.0
  3
*D32
  1

  0
LINE
  5
66B
330
36C
100
AcDbEntity
  8
Dimensions
440
 16777216
370
    -2
100
AcDbLine
 10
223.291661
 20
227.798816
 30
0.0
 11
201.291661
 21
227.798816
 31
0.0
  0
LINE
  5
66C
330
36C
100
AcDbEntity
  8
Dimensions
440
 16777216
370
    -2
100
AcDbLine
 10
222.291661
 20
202.796816
 30
0.0
 11
201.291661
 21
202.796816
 31
0.0
  0
LINE
  5
66D
330
36C
100
AcDbEntity
  8
Dimensions
440
 16777216
370
    -2
100
AcDbLine
 10
203.391661
 20
224.298816
 30
0.0
 11
203.391661
 21
206.296816
 31
0.0
  0
SOLID
  5
66E
330
36C
100
AcDbEntity
  8
Dimensions
440
 16777216
100
AcDbTrace
 10
202.808328
 20
224.298816
 30
0.0
 11
203.974994
 21
224.298816
 31
0.0
 12
203.391661
 22
227.798816
 32
0.0
 13
203.391661
 23
227.798816
 33
0.0
  0
SOLID
  5
66F
330
36C
100
AcDbEntity
  8
Dimensions
440
 16777216
100
AcDbTrace
 10
202.808328
 20
206.296816
 30
0.0
 11
203.974994
 21
206.296816
 31
0.0
 12
203.391661
 22
202.796816
 32
0.0
 13
203.391661
 23
202.796816
 33
0.0
  0
MTEXT
  5
670
330
36C
100
AcDbEntity
  8
Dimensions
440
 16777216
100
AcDbMText
 10
200.10677
 20
215.297816
 30
0.0
 40
3.5
 41
0.0
 46
0.0
 71
     5
 72
     1
  1
%%C25
 11
0.0
 21
1.0
 31
0.0
 73
     1
 44
1.0
  0
POINT
  5
671
330
36C
100
AcDbEntity
  8
Defpoints
 62
     0
440
 16777216
100
AcDbPoint
 10
225.391661
 20
227.798816
 30
0.0
  0
POINT
  5
672
330
36C
100
AcDbEntity
  8
Defpoints
 62
     0
440
 16777216
100
AcDbPoint
 10
224.391661
 20
202.796816
 30
0.0
  0
POINT
  5
673
330
36C
100
AcDbEntity
  8
Defpoints
 62
     0
440
 16777216
100
AcDbPoint
 10
203.391661
 20
202.796816
 30
0.0
  0
ENDBLK
  5
36E
330
36C
100
AcDbEntity
  8
0
100
AcDbBlockEnd
  0
ENDSEC
  0
SECTION
  2
ENTITIES
  0
INSERT
  5
1A6
330
70
100
AcDbEntity
  8
Border
100
AcDbBlockReference
  2
ISO_A3_SHEET
 10
0.0
 20
0.0
 30
0.0
  0
INSERT
  5
1EC
330
70
100
AcDbEntity
  8
TitleBlock
100
AcDbBlockReference
 66
     1
  2
ISO_TITLEBLOCK
 10
410.0
 20
10.0
 30
0.0
  0
ATTRIB
  5
228
330
1EC
100
AcDbEntity
  8
TitleBlock
100
AcDbText
 10
360.0
 20
11.5
 30
0.0
 40
3.5
  1

  7
FusionTitle
 11
360.0
 21
15.0
 31
0.0
100
AcDbAttribute
280
     0
  2
DATE_OF_ISSUE
 70
     0
 74
     3
280
     1
  0
ATTRIB
  5
229
330
1EC
100
AcDbEntity
  8
TitleBlock
100
AcDbText
 10
354.0
 20
11.35
 30
0.0
 40
3.5
  1

  7
FusionTitle
 72
     1
 11
354.0
 21
14.85
 31
0.0
100
AcDbAttribute
280
     0
  2
REV
 70
     0
 74
     3
280
     1
  0
ATTRIB
  5
22A
330
1EC
100
AcDbEntity
  8
TitleBlock
100
AcDbText
 10
289.0
 20
11.5
 30
0.0
 40
5.0
  1

  7
FusionTitle
 11
289.0
 21
16.5
 31
0.0
100
AcDbAttribute
280
     0
  2
TITLE_3
 70
     0
 74
     3
280
     1
  0
ATTRIB
  5
22B
330
1EC
100
AcDbEntity
  8
TitleBlock
100
AcDbText
 10
350.0
 20
38.5
 30
0.0
 40
3.5
  1

  7
FusionTitle
 11
350.0
 21
42.0
 31
0.0
100
AcDbAttribute
280
     0
  2
DOCUMENT_STATUS
 70
     0
 74
     3
280
     1
  0
ATTRIB
  5
22C
330
1EC
100
AcDbEntity
  8
TitleBlock
100
AcDbText
 10
289.0
 20
38.5
 30
0.0
 40
3.5
  1

  7
FusionTitle
 11
289.0
 21
42.0
 31
0.0
100
AcDbAttribute
280
     0
  2
DOCUMENT_TYPE
 70
     0
 74
     3
280
     1
  0
ATTRIB
  5
22D
330
1EC
100
AcDbEntity
  8
TitleBlock
100
AcDbText
 10
409.007162
 20
48.5
 30
0.0
 40
3.5
  1

  7
FusionTitle
 72
     2
 11
409.007162
 21
52.0
 31
0.0
100
AcDbAttribute
280
     0
  2
APPROVED_DATE
 70
     0
 74
     3
280
     1
  0
ATTRIB
  5
22E
330
1EC
100
AcDbEntity
  8
TitleBlock
100
AcDbText
 10
323.528649
 20
48.5
 30
0.0
 40
3.5
  1
2022/03/28
  7
FusionTitle
 72
     2
 11
348.0
 21
52.0
 31
0.0
100
AcDbAttribute
280
     0
  2
CREATED_DATE
 70
     0
 74
     3
280
     1
  0
ATTRIB
  5
22F
330
1EC
100
AcDbEntity
  8
TitleBlock
100
AcDbText
 10
399.101467
 20
11.35
 30
0.0
 40
3.5
  1
1/1
  7
FusionTitle
 72
     1
 11
402.5
 21
14.85
 31
0.0
100
AcDbAttribute
280
     0
  2
SHEET
 70
     0
 74
     3
280
     1
  0
ATTRIB
  5
230
330
1EC
100
AcDbEntity
  8
TitleBlock
100
AcDbText
 10
289.0
 20
19.0
 30
0.0
 40
5.0
  1

  7
FusionTitle
 11
289.0
 21
24.0
 31
0.0
100
AcDbAttribute
280
     0
  2
TITLE_2
 70
     0
 74
     3
280
     1
  0
ATTRIB
  5
231
330
1EC
100
AcDbEntity
  8
TitleBlock
100
AcDbText
 10
379.5
 20
24.751432
 30
0.0
 40
5.0
  1

  7
FusionTitle
 72
     1
 11
379.5
 21
29.751432
 31
0.0
100
AcDbAttribute
280
     0
  2
DRAWING_NUMBER
 70
     0
 74
     3
280
     1
  0
ATTRIB
  5
232
330
1EC
100
AcDbEntity
  8
TitleBlock
100
AcDbText
 10
289.0
 20
26.5
 30
0.0
 40
5.0
  1
NC40-25
  7
FusionTitle
 11
289.0
 21
31.5
 31
0.0
100
AcDbAttribute
280
     0
  2
TITLE_1
 70
     0
 74
     3
280
     1
1001
FUSIONTITLEBLOCKATTRIBUTEOVERRIDE
1070
     1
  0
ATTRIB
  5
233
330
1EC
100
AcDbEntity
  8
TitleBlock
100
AcDbText
 10
350.0
 20
48.5
 30
0.0
 40
3.5
  1

  7
FusionTitle
 11
350.0
 21
52.0
 31
0.0
100
AcDbAttribute
280
     0
  2
APPROVED_BY
 70
     0
 74
     3
280
     1
  0
ATTRIB
  5
234
330
1EC
100
AcDbEntity
  8
TitleBlock
100
AcDbText
 10
289.0
 20
48.5
 30
0.0
 40
3.5
  1
Naoki Soneda
  7
FusionTitle
 11
289.0
 21
52.0
 31
0.0
100
AcDbAttribute
280
     0
  2
CREATED_BY
 70
     0
 74
     3
280
     1
  0
ATTRIB
  5
235
330
1EC
100
AcDbEntity
  8
TitleBlock
100
AcDbText
 10
255.0
 20
48.5
 30
0.0
 40
3.5
  1

  7
FusionTitle
 11
255.0
 21
52.0
 31
0.0
100
AcDbAttribute
280
     0
  2
TECHNICAL_REFERENCE
 70
     0
 74
     3
280
     1
  0
ATTRIB
  5
236
330
1EC
100
AcDbEntity
  8
TitleBlock
100
AcDbText
 10
231.0
 20
48.5
 30
0.0
 40
3.5
  1

  7
FusionTitle
 11
231.0
 21
52.0
 31
0.0
100
AcDbAttribute
280
     0
  2
DEPT
 70
     0
 74
     3
280
     1
  0
SEQEND
  5
237
330
1EC
100
AcDbEntity
  8
TitleBlock
  0
INSERT
  5
238
330
70
100
AcDbEntity
  8
Center Lines
 48
0.75
100
AcDbBlockReference
  2
*U7
 10
113.314599
 20
215.297816
 30
0.0
  0
INSERT
  5
243
330
70
100
AcDbEntity
  8
Center Lines
 48
0.75
100
AcDbBlockReference
  2
*U8
 10
281.891661
 20
215.297816
 30
0.0
  0
INSERT
  5
248
330
70
100
AcDbEntity
  8
Center Lines
 48
0.75
100
AcDbBlockReference
  2
*U9
 10
232.141661
 20
215.297816
 30
0.0
  0
DIMENSION
  5
24D
330
70
100
AcDbEntity
  8
Dimensions
100
AcDbDimension
280
     0
  2
*D22
 10
189.03248
 20
192.297816
 30
0.0
 11
185.747589
 21
215.297816
 31
0.0
 70
    32
  1
%%C<>
 71
     5
 42
46.0
 73
     0
 74
     0
 75
     0
  3
ISO-25
100
AcDbAlignedDimension
 13
225.391661
 23
238.297816
 33
0.0
 14
225.391661
 24
192.297816
 34
0.0
 50
90.0
100
AcDbRotatedDimension
1001
ACAD_DIMASSOC_CALC_DIMLFAC
1040
-1.0
1001
ACAD_DIMASSOC_DIMLFAC
1040
-1.0
1001
ACAD_DIMASSOC_OVERRIDDEN_DIMLFAC
1040
0.0
1001
ACAD_TC
1000
DSTYLE_TC
1002
{
1070
   177
1004
18000000020000008C8C8CC2000000000000000000000000
1070
   176
1004
18000000020000008C8C8CC2000000000000000000000000
1002
}
1001
ACAD_DSTYLE_DIMJAG_POSITION
1070
   387
1070
     0
1070
   389
1010
0.0
1020
0.0
1030
0.0
1001
ACAD
1000
DSTYLE
1002
{
1070
   177
1070
   256
1070
   176
1070
   256
1070
   144
1040
1.0
1002
}
  0
DIMENSION
  5
25B
330
70
100
AcDbEntity
  8
Dimensions
100
AcDbDimension
280
     0
  2
*D23
 10
324.391661
 20
253.258106
 30
0.0
 11
274.391661
 21
256.445112
 31
0.0
 70
    32
 71
     5
 42
100.0
 73
     0
 74
     0
 75
     0
  3
ISO-25
100
AcDbAlignedDimension
 13
224.391661
 23
237.297816
 33
0.0
 14
324.391661
 24
234.297816
 34
0.0
100
AcDbRotatedDimension
1001
ACAD_DIMASSOC_CALC_DIMLFAC
1040
-1.0
1001
ACAD_DIMASSOC_DIMLFAC
1040
-1.0
1001
ACAD_DIMASSOC_OVERRIDDEN_DIMLFAC
1040
0.0
1001
ACAD_TC
1000
DSTYLE_TC
1002
{
1070
   177
1004
18000000020000008C8C8CC2000000000000000000000000
1070
   176
1004
18000000020000008C8C8CC2000000000000000000000000
1002
}
1001
ACAD_DSTYLE_DIMJAG_POSITION
1070
   387
1070
     0
1070
   389
1010
0.0
1020
0.0
1030
0.0
1001
ACAD
1000
DSTYLE
1002
{
1070
   177
1070
   256
1070
   176
1070
   256
1070
   144
1040
1.0
1002
}
  0
DIMENSION
  5
268
330
70
100
AcDbEntity
  8
Dimensions
100
AcDbDimension
280
     0
  2
*D24
 10
324.391661
 20
243.887034
 30
0.0
 11
281.891661
 21
247.074039
 31
0.0
 70
    32
 71
     5
 42
85.0
 73
     0
 74
     0
 75
     0
  3
ISO-25
100
AcDbAlignedDimension
 13
239.391661
 23
237.797816
 33
0.0
 14
324.391661
 24
234.297816
 34
0.0
100
AcDbRotatedDimension
1001
ACAD_DIMASSOC_CALC_DIMLFAC
1040
-1.0
1001
ACAD_DIMASSOC_DIMLFAC
1040
-1.0
1001
ACAD_DIMASSOC_OVERRIDDEN_DIMLFAC
1040
0.0
1001
ACAD_TC
1000
DSTYLE_TC
1002
{
1070
   177
1004
18000000020000008C8C8CC2000000000000000000000000
1070
   176
1004
18000000020000008C8C8CC2000000000000000000000000
1002
}
1001
ACAD_DSTYLE_DIMJAG_POSITION
1070
   387
1070
     0
1070
   389
1010
0.0
1020
0.0
1030
0.0
1001
ACAD
1000
DSTYLE
1002
{
1070
   177
1070
   256
1070
   176
1070
   256
1070
   144
1040
1.0
1002
}
  0
DIMENSION
  5
275
330
70
100
AcDbEntity
  8
Dimensions
100
AcDbDimension
280
     0
  2
*D25
 10
224.391661
 20
178.03965
 30
0.0
 11
231.891661
 21
181.226656
 31
0.0
 70
    32
 71
     5
 42
15.0
 73
     0
 74
     0
 75
     0
  3
ISO-25
100
AcDbAlignedDimension
 13
239.391661
 23
192.797816
 33
0.0
 14
224.391661
 24
193.297816
 34
0.0
100
AcDbRotatedDimension
1001
ACAD_DIMASSOC_CALC_DIMLFAC
1040
-1.0
1001
ACAD_DIMASSOC_DIMLFAC
1040
-1.0
1001
ACAD_DIMASSOC_OVERRIDDEN_DIMLFAC
1040
0.0
1001
ACAD_TC
1000
DSTYLE_TC
1002
{
1070
   177
1004
18000000020000008C8C8CC2000000000000000000000000
1070
   176
1004
18000000020000008C8C8CC2000000000000000000000000
1002
}
1001
ACAD_DSTYLE_DIMJAG_POSITION
1070
   387
1070
     0
1070
   389
1010
0.0
1020
0.0
1030
0.0
1001
ACAD
1000
DSTYLE
1002
{
1070
   177
1070
   256
1070
   176
1070
   256
1070
   144
1040
1.0
1002
}
  0
DIMENSION
  5
282
330
70
100
AcDbEntity
  8
Dimensions
100
AcDbDimension
280
     0
  2
*D26
 10
295.997879
 20
208.297816
 30
0.0
 11
292.840717
 21
215.297816
 31
0.0
 70
    32
 71
     5
 42
14.0
 73
     0
 74
     0
 75
     0
  3
ISO-25
100
AcDbAlignedDimension
 13
314.391661
 23
222.297816
 33
0.0
 14
314.391661
 24
208.297816
 34
0.0
 50
90.0
100
AcDbRotatedDimension
1001
ACAD_DIMASSOC_CALC_DIMLFAC
1040
-1.0
1001
ACAD_DIMASSOC_DIMLFAC
1040
-1.0
1001
ACAD_DIMASSOC_OVERRIDDEN_DIMLFAC
1040
0.0
1001
ACAD_TC
1000
DSTYLE_TC
1002
{
1070
   177
1004
18000000020000008C8C8CC2000000000000000000000000
1070
   176
1004
18000000020000008C8C8CC2000000000000000000000000
1002
}
1001
ACAD_DSTYLE_DIMJAG_POSITION
1070
   387
1070
     0
1070
   389
1010
0.0
1020
0.0
1030
0.0
1001
ACAD
1000
DSTYLE
1002
{
1070
   177
1070
   256
1070
   176
1070
   256
1070
   144
1040
1.0
1002
}
  0
DIMENSION
  5
28F
330
70
100
AcDbEntity
  8
Dimensions
100
AcDbDimension
280
     0
  2
*D27
 10
321.391661
 20
177.405829
 30
0.0
 11
282.391661
 21
177.405829
 31
0.0
 70
   160
 71
     5
 42
78.0
 73
     0
 74
     0
 75
     0
  3
ISO-25
100
AcDbAlignedDimension
 13
243.391661
 23
215.297816
 33
0.0
 14
321.391661
 24
215.297816
 34
0.0
100
AcDbRotatedDimension
1001
ACAD_DIMASSOC_CALC_DIMLFAC
1040
-1.0
1001
ACAD_DIMASSOC_DIMLFAC
1040
-1.0
1001
ACAD_DIMASSOC_OVERRIDDEN_DIMLFAC
1040
0.0
1001
ACAD_DSTYLE_DIMJAG_POSITION
1070
   387
1070
     0
1070
   389
1010
0.0
1020
0.0
1030
0.0
1001
ACAD
1000
DSTYLE
1002
{
1070
   144
1040
1.0
1002
}
  0
INSERT
  5
29C
330
70
100
AcDbEntity
  8
Center Lines
 48
0.75
100
AcDbBlockReference
  2
*U16
 10
231.908299
 20
215.297816
 30
0.0
  0
DIMENSION
  5
2A6
330
70
100
AcDbEntity
  8
Dimensions
100
AcDbDimension
280
     0
  2
*D28
 10
122.100562
 20
253.782264
 30
0.0
 11
130.050784
 21
245.832042
 31
0.0
 70
   161
 71
     5
 42
21.0
 73
     0
 74
     0
 75
     0
  3
ISO-25
100
AcDbAlignedDimension
 13
113.314599
 23
215.297816
 33
0.0
 14
98.465356
 24
230.147058
 34
0.0
1001
ACAD_DIMASSOC_CALC_DIMLFAC
1040
-1.0
1001
ACAD_DIMASSOC_DIMLFAC
1040
-1.0
1001
ACAD_DIMASSOC_OVERRIDDEN_DIMLFAC
1040
0.0
1001
ACAD_DSTYLE_DIMJAG_POSITION
1070
   387
1070
     0
1070
   389
1010
0.0
1020
0.0
1030
0.0
1001
ACAD
1000
DSTYLE
1002
{
1070
   144
1040
1.0
1002
}
  0
DIMENSION
  5
2B3
330
70
100
AcDbEntity
  8
Dimensions
100
AcDbDimension
280
     0
  2
*D29
 10
93.828547
 20
225.510249
 30
0.0
 11
161.034162
 21
247.365422
 31
0.0
 70
    34
 71
     5
 42
0.785398
 73
     0
 74
     0
 75
     0
  3
ISO-25
100
AcDb2LineAngularDimension
 13
86.814599
 23
215.297816
 33
0.0
 14
110.635692
 24
215.297816
 34
0.0
 15
103.102166
 25
234.783868
 35
0.0
 16
161.48601
 26
236.162992
 36
0.0
1001
ACAD_DSTYLE_DIMJAG_POSITION
1070
   387
1070
     0
1070
   389
1010
0.0
1020
0.0
1030
0.0
1001
ACAD
1000
DSTYLE
1002
{
1070
   144
1040
1.0
1070
     3
1000

1002
}
  0
DIMENSION
  5
2C2
330
70
100
AcDbEntity
  8
Dimensions
100
AcDbDimension
280
     0
  2
*D30
 10
324.391661
 20
185.388164
 30
0.0
 11
310.677655
 21
185.388164
 31
0.0
 70
   160
 71
     5
 42
3.0
 73
     0
 74
     0
 75
     0
  3
ISO-25
100
AcDbAlignedDimension
 13
321.391661
 23
215.297816
 33
0.0
 14
324.391661
 24
196.297816
 34
0.0
100
AcDbRotatedDimension
1001
ACAD_DIMASSOC_CALC_DIMLFAC
1040
-1.0
1001
ACAD_DIMASSOC_DIMLFAC
1040
-1.0
1001
ACAD_DIMASSOC_OVERRIDDEN_DIMLFAC
1040
0.0
1001
ACAD_DSTYLE_DIMJAG_POSITION
1070
   387
1070
     0
1070
   389
1010
0.0
1020
0.0
1030
0.0
1001
ACAD
1000
DSTYLE
1002
{
1070
   144
1040
1.0
1002
}
  0
DIMENSION
  5
2D1
330
70
100
AcDbEntity
  8
Dimensions
100
AcDbDimension
280
     0
  2
*D31
 10
239.391661
 20
187.309837
 30
0.0
 11
255.068371
 21
187.309837
 31
0.0
 70
   160
 71
     5
 42
4.0
 73
     0
 74
     0
 75
     0
  3
ISO-25
100
AcDbAlignedDimension
 13
243.391661
 23
215.297816
 33
0.0
 14
239.391661
 24
192.797816
 34
0.0
100
AcDbRotatedDimension
1001
ACAD_DIMASSOC_CALC_DIMLFAC
1040
-1.0
1001
ACAD_DIMASSOC_DIMLFAC
1040
-1.0
1001
ACAD_DIMASSOC_OVERRIDDEN_DIMLFAC
1040
0.0
1001
ACAD_DSTYLE_DIMJAG_POSITION
1070
   387
1070
     0
1070
   389
1010
0.0
1020
0.0
1030
0.0
1001
ACAD
1000
DSTYLE
1002
{
1070
   144
1040
1.0
1002
}
  0
DIMENSION
  5
2E0
330
70
100
AcDbEntity
  8
Dimensions
100
AcDbDimension
280
     0
  2
*D32
 10
203.391661
 20
202.796816
 30
0.0
 11
200.10677
 21
215.297816
 31
0.0
 70
    32
  1
%%C<>
 71
     5
 42
25.002
 73
     0
 74
     0
 75
     0
  3
ISO-25
100
AcDbAlignedDimension
 13
225.391661
 23
227.798816
 33
0.0
 14
224.391661
 24
202.796816
 34
0.0
 50
90.0
100
AcDbRotatedDimension
1001
ACAD_DIMASSOC_CALC_DIMLFAC
1040
-1.0
1001
ACAD_DIMASSOC_DIMLFAC
1040
-1.0
1001
ACAD_DIMASSOC_OVERRIDDEN_DIMLFAC
1040
0.0
1001
ACAD_TC
1000
DSTYLE_TC
1002
{
1070
   177
1004
18000000020000008C8C8CC2000000000000000000000000
1070
   176
1004
18000000020000008C8C8CC2000000000000000000000000
1002
}
1001
ACAD_DSTYLE_DIMJAG_POSITION
1070
   387
1070
     0
1070
   389
1010
0.0
1020
0.0
1030
0.0
1001
ACAD
1000
DSTYLE
1002
{
1070
   177
1070
   256
1070
   176
1070
   256
1070
   144
1040
1.0
1002
}
  0
LINE
  5
4B4
330
70
100
AcDbEntity
  8
表示
100
AcDbLine
 10
314.391661
 20
223.225523
 30
18.357642
 11
250.391661
 21
223.225523
 31
18.357642
210
-0.0000000000000001
220
-1.0
230
0.0
  0
LINE
  5
4B5
330
70
100
AcDbEntity
  8
表示
100
AcDbLine
 10
250.391661
 20
222.297816
 30
17.730951
 11
314.391661
 21
222.297816
 31
17.730951
210
-0.0000000000000001
220
-1.0
230
0.0
  0
SPLINE
  5
4B6
330
70
100
AcDbEntity
  8
表示
100
AcDbSpline
 70
     4
 71
     3
 72
    27
 73
    23
 74
     0
 42
0.000000001
 43
0.0000000001
 40
-2.129095278636254
 40
-2.129095278636254
 40
-2.129095278636254
 40
-2.129095278636254
 40
-1.862882453828411
 40
-1.862882453828411
 40
-1.596669629020567
 40
-1.596669629020567
 40
-1.410433774729977
 40
-1.410433774729977
 40
-1.197580768322684
 40
-1.197580768322684
 40
-1.064547639318127
 40
-1.064547639318127
 40
-1.064547639318127
 40
-0.93151451031357
 40
-0.93151451031357
 40
-0.7186615039062789
 40
-0.7186615039062789
 40
-0.5324256496156883
 40
-0.5324256496156883
 40
-0.2662128248078441
 40
-0.2662128248078441
 40
0.0
 40
0.0
 40
0.0
 40
0.0
 10
314.3916611576387
 20
207.3701090444653
 30
18.35764153895252
 41
1.0
 10
315.4143224618274
 20
207.3701090444653
 30
18.35764153895252
 41
1.0
 10
316.4977303902524
 20
207.572386532729
 30
18.44874855643684
 41
1.0
 10
318.4688204669273
 20
208.3788870995316
 30
18.76604489069359
 41
1.0
 10
319.3581142821859
 20
208.9821403711855
 30
18.98638472557104
 41
1.0
 10
320.5502493913627
 20
210.1629599242245
 30
19.33218595727521
 41
1.0
 10
320.998648432218
 20
210.739348460456
 30
19.4804499952188
 41
1.0
 10
321.7756698492794
 20
212.109435217815
 30
19.75423415266414
 41
1.0
 10
322.0769770521856
 20
212.9220692433313
 30
19.87173164911837
 41
1.0
 10
322.3427300530966
 20
214.2684301293559
 30
19.97620034401007
 41
1.0
 10
322.3916611576387
 20
214.7910230917916
 30
19.99595689415582
 41
1.0
 10
322.3916611576387
 20
215.2978159641899
 30
19.99595689415582
 41
1.0
 10
322.3916611576387
 20
215.8046088365882
 30
19.99595689415582
 41
1.0
 10
322.3427300530966
 20
216.3272017990239
 30
19.97620034401007
 41
1.0
 10
322.0769770521856
 20
217.6735626850484
 30
19.87173164911837
 41
1.0
 10
321.7756698492794
 20
218.4861967105648
 30
19.75423415266414
 41
1.0
 10
320.998648432218
 20
219.8562834679237
 30
19.4804499952188
 41
1.0
 10
320.5502493913627
 20
220.4326720041553
 30
19.33218595727521
 41
1.0
 10
319.3581142821859
 20
221.6134915571943
 30
18.98638472557104
 41
1.0
 10
318.4688204669273
 20
222.2167448288483
 30
18.76604489069359
 41
1.0
 10
316.4977303902524
 20
223.0232453956508
 30
18.44874855643684
 41
1.0
 10
315.4143224618274
 20
223.2255228839144
 30
18.35764153895252
 41
1.0
 10
314.3916611576387
 20
223.2255228839144
 30
18.35764153895252
 41
1.0
1001
ACAD_VIEW_EDGE_ID
1071
        5
1071
       -1
1071
        2
1071
        0
  0
SPLINE
  5
4B7
330
70
100
AcDbEntity
  8
表示
100
AcDbSpline
 70
     4
 71
     3
 72
    27
 73
    23
 74
     0
 42
0.000000001
 43
0.0000000001
 40
0.0
 40
0.0
 40
0.0
 40
0.0
 40
0.2662128248078441
 40
0.2662128248078441
 40
0.5324256496156883
 40
0.5324256496156883
 40
0.7186615039062789
 40
0.7186615039062789
 40
0.93151451031357
 40
0.93151451031357
 40
1.064547639318127
 40
1.064547639318127
 40
1.064547639318127
 40
1.197580768322684
 40
1.197580768322684
 40
1.410433774729977
 40
1.410433774729977
 40
1.596669629020567
 40
1.596669629020567
 40
1.862882453828411
 40
1.862882453828411
 40
2.129095278636254
 40
2.129095278636254
 40
2.129095278636254
 40
2.129095278636254
 10
314.3916611576387
 20
222.2978159641899
 30
17.73095088935042
 41
1.0
 10
315.3264018716163
 20
222.2978159641899
 30
17.73095088935042
 41
1.0
 10
316.3159950769277
 20
222.0970356708701
 30
17.80479317321078
 41
1.0
 10
318.0849679757484
 20
221.3220947093958
 30
18.05813602266971
 41
1.0
 10
318.8648605995113
 20
220.7522270503959
 30
18.23223318253622
 41
1.0
 10
319.8856848159812
 20
219.678193529803
 30
18.4998680299268
 41
1.0
 10
320.2612421254635
 20
219.1639359844693
 30
18.61296770416811
 41
1.0
 10
320.9011214628262
 20
217.9713813049273
 30
18.81882562370265
 41
1.0
 10
321.1418460436489
 20
217.2811058443009
 30
18.90521667276516
 41
1.0
 10
321.3531644286195
 20
216.1534872094341
 30
18.98162826002772
 41
1.0
 10
321.3916611576387
 20
215.719087539371
 30
18.99595689415582
 41
1.0
 10
321.3916611576387
 20
215.2978159641899
 30
18.99595689415582
 41
1.0
 10
321.3916611576387
 20
214.8765443890088
 30
18.99595689415582
 41
1.0
 10
321.3531644286195
 20
214.4421447189457
 30
18.98162826002772
 41
1.0
 10
321.1418460436489
 20
213.3145260840788
 30
18.90521667276516
 41
1.0
 10
320.9011214628262
 20
212.6242506234525
 30
18.81882562370265
 41
1.0
 10
320.2612421254635
 20
211.4316959439105
 30
18.61296770416811
 41
1.0
 10
319.8856848159812
 20
210.9174383985768
 30
18.4998680299268
 41
1.0
 10
318.8648605995113
 20
209.8434048779838
 30
18.23223318253622
 41
1.0
 10
318.0849679757484
 20
209.273537218984
 30
18.05813602266971
 41
1.0
 10
316.3159950769277
 20
208.4985962575097
 30
17.80479317321078
 41
1.0
 10
315.3264018716163
 20
208.2978159641899
 30
17.73095088935042
 41
1.0
 10
314.3916611576387
 20
208.2978159641899
 30
17.73095088935042
 41
1.0
1001
ACAD_VIEW_EDGE_ID
1071
        6
1071
       -1
1071
        2
1071
        0
  0
LINE
  5
4B8
330
70
100
AcDbEntity
  8
表示
100
AcDbLine
 10
250.391661
 20
207.370109
 30
18.357642
 11
314.391661
 21
207.370109
 31
18.357642
210
-0.0000000000000001
220
-1.0
230
0.0
  0
LINE
  5
4B9
330
70
100
AcDbEntity
  8
表示
100
AcDbLine
 10
314.391661
 20
208.297816
 30
17.730951
 11
250.391661
 21
208.297816
 31
17.730951
210
-0.0000000000000001
220
-1.0
230
0.0
  0
SPLINE
  5
4BA
330
70
100
AcDbEntity
  8
表示
100
AcDbSpline
 70
     4
 71
     3
 72
    27
 73
    23
 74
     0
 42
0.000000001
 43
0.0000000001
 40
0.0
 40
0.0
 40
0.0
 40
0.0
 40
0.2662128248078441
 40
0.2662128248078441
 40
0.5324256496156883
 40
0.5324256496156883
 40
0.7186615039062786
 40
0.7186615039062786
 40
0.9315145103135703
 40
0.9315145103135703
 40
1.064547639318127
 40
1.064547639318127
 40
1.064547639318127
 40
1.197580768322685
 40
1.197580768322685
 40
1.410433774729977
 40
1.410433774729977
 40
1.596669629020567
 40
1.596669629020567
 40
1.862882453828411
 40
1.862882453828411
 40
2.129095278636255
 40
2.129095278636255
 40
2.129095278636255
 40
2.129095278636255
 10
250.3916611576388
 20
223.2255228839145
 30
18.35764153895252
 41
1.0
 10
249.3689998534501
 20
223.2255228839145
 30
18.35764153895252
 41
1.0
 10
248.2855919250251
 20
223.0232453956508
 30
18.44874855643684
 41
1.0
 10
246.3145018483501
 20
222.2167448288483
 30
18.76604489069359
 41
1.0
 10
245.4252080330916
 20
221.6134915571942
 30
18.98638472557104
 41
1.0
 10
244.2330729239147
 20
220.4326720041552
 30
19.33218595727521
 41
1.0
 10
243.7846738830594
 20
219.8562834679238
 30
19.4804499952188
 41
1.0
 10
243.007652465998
 20
218.4861967105648
 30
19.75423415266414
 41
1.0
 10
242.7063452630918
 20
217.6735626850484
 30
19.87173164911837
 41
1.0
 10
242.4405922621809
 20
216.3272017990239
 30
19.97620034401007
 41
1.0
 10
242.3916611576387
 20
215.8046088365882
 30
19.99595689415582
 41
1.0
 10
242.3916611576387
 20
215.2978159641899
 30
19.99595689415582
 41
1.0
 10
242.3916611576387
 20
214.7910230917916
 30
19.99595689415582
 41
1.0
 10
242.4405922621809
 20
214.2684301293559
 30
19.97620034401007
 41
1.0
 10
242.7063452630918
 20
212.9220692433314
 30
19.87173164911837
 41
1.0
 10
243.007652465998
 20
212.109435217815
 30
19.75423415266414
 41
1.0
 10
243.7846738830594
 20
210.739348460456
 30
19.4804499952188
 41
1.0
 10
244.2330729239147
 20
210.1629599242246
 30
19.33218595727521
 41
1.0
 10
245.4252080330916
 20
208.9821403711855
 30
18.98638472557104
 41
1.0
 10
246.3145018483501
 20
208.3788870995315
 30
18.76604489069359
 41
1.0
 10
248.2855919250251
 20
207.572386532729
 30
18.44874855643684
 41
1.0
 10
249.3689998534501
 20
207.3701090444653
 30
18.35764153895252
 41
1.0
 10
250.3916611576388
 20
207.3701090444653
 30
18.35764153895252
 41
1.0
1001
ACAD_VIEW_EDGE_ID
1071
       10
1071
       -1
1071
        2
1071
        0
  0
SPLINE
  5
4BB
330
70
100
AcDbEntity
  8
表示
100
AcDbSpline
 70
     4
 71
     3
 72
    27
 73
    23
 74
     0
 42
0.000000001
 43
0.0000000001
 40
-2.129095278636255
 40
-2.129095278636255
 40
-2.129095278636255
 40
-2.129095278636255
 40
-1.862882453828411
 40
-1.862882453828411
 40
-1.596669629020567
 40
-1.596669629020567
 40
-1.410433774729977
 40
-1.410433774729977
 40
-1.197580768322685
 40
-1.197580768322685
 40
-1.064547639318127
 40
-1.064547639318127
 40
-1.064547639318127
 40
-0.9315145103135703
 40
-0.9315145103135703
 40
-0.7186615039062786
 40
-0.7186615039062786
 40
-0.5324256496156883
 40
-0.5324256496156883
 40
-0.2662128248078441
 40
-0.2662128248078441
 40
0.0
 40
0.0
 40
0.0
 40
0.0
 10
250.3916611576388
 20
208.2978159641899
 30
17.73095088935042
 41
1.0
 10
249.4569204436611
 20
208.2978159641899
 30
17.73095088935042
 41
1.0
 10
248.4673272383497
 20
208.4985962575097
 30
17.80479317321078
 41
1.0
 10
246.698354339529
 20
209.273537218984
 30
18.05813602266971
 41
1.0
 10
245.9184617157662
 20
209.8434048779838
 30
18.23223318253622
 41
1.0
 10
244.8976374992962
 20
210.9174383985768
 30
18.4998680299268
 41
1.0
 10
244.522080189814
 20
211.4316959439105
 30
18.61296770416811
 41
1.0
 10
243.8822008524512
 20
212.6242506234525
 30
18.81882562370265
 41
1.0
 10
243.6414762716286
 20
213.3145260840788
 30
18.90521667276516
 41
1.0
 10
243.430157886658
 20
214.4421447189457
 30
18.98162826002772
 41
1.0
 10
243.3916611576387
 20
214.8765443890088
 30
18.99595689415582
 41
1.0
 10
243.3916611576387
 20
215.2978159641899
 30
18.99595689415582
 41
1.0
 10
243.3916611576387
 20
215.719087539371
 30
18.99595689415582
 41
1.0
 10
243.430157886658
 20
216.1534872094341
 30
18.98162826002772
 41
1.0
 10
243.6414762716286
 20
217.281105844301
 30
18.90521667276516
 41
1.0
 10
243.8822008524512
 20
217.9713813049273
 30
18.81882562370265
 41
1.0
 10
244.522080189814
 20
219.1639359844693
 30
18.61296770416811
 41
1.0
 10
244.8976374992962
 20
219.678193529803
 30
18.4998680299268
 41
1.0
 10
245.9184617157662
 20
220.7522270503959
 30
18.23223318253622
 41
1.0
 10
246.698354339529
 20
221.3220947093958
 30
18.05813602266971
 41
1.0
 10
248.4673272383497
 20
222.0970356708701
 30
17.80479317321078
 41
1.0
 10
249.4569204436611
 20
222.2978159641899
 30
17.73095088935042
 41
1.0
 10
250.3916611576388
 20
222.2978159641899
 30
17.73095088935042
 41
1.0
1001
ACAD_VIEW_EDGE_ID
1071
       11
1071
       -1
1071
        2
1071
        0
  0
ARC
  5
4BC
330
70
100
AcDbEntity
  8
表示
100
AcDbCircle
 10
215.297816
 20
-0.004043
 30
240.391661
 40
20.0
210
1.0
220
-0.0000000000000001
230
0.0
100
AcDbArc
 50
0.0
 51
180.0
  0
SPLINE
  5
4BD
330
70
100
AcDbEntity
  8
表示
100
AcDbSpline
 70
     3
 71
     3
 72
    40
 73
    36
 74
     0
 42
0.000000001
 43
0.0000000001
 40
-2.139424351833925
 40
-2.139424351833925
 40
-2.139424351833925
 40
-2.139424351833925
 40
-2.06254970388277
 40
-2.06254970388277
 40
-1.982768075385631
 40
-1.982768075385631
 40
-1.851128304663836
 40
-1.851128304663836
 40
-1.721929901447406
 40
-1.721929901447406
 40
-1.588556431701332
 40
-1.588556431701332
 40
-1.456845687395933
 40
-1.456845687395933
 40
-1.321923297318586
 40
-1.321923297318586
 40
-1.190023756260921
 40
-1.190023756260921
 40
-1.055649316390331
 40
-1.055649316390331
 40
-0.9263207406258704
 40
-0.9263207406258704
 40
-0.7929149796213525
 40
-0.7929149796213525
 40
-0.6642287470600917
 40
-0.6642287470600917
 40
-0.5305610481199114
 40
-0.5305610481199114
 40
-0.3997508095741845
 40
-0.3997508095741845
 40
-0.2649325409502911
 40
-0.2649325409502911
 40
-0.1335344167602119
 40
-0.1335344167602119
 40
0.0
 40
0.0
 40
0.0
 40
0.0
 10
235.2980491981816
 20
215.2978159641899
 30
21.98570689415646
 10
235.2980491981816
 20
215.041567137686
 30
21.98570689415646
 10
235.2690011542145
 20
214.7862754546353
 30
21.98116807377482
 10
235.1518234345167
 20
214.2777199520788
 30
21.96365296453223
 10
235.0619441862018
 20
214.0268388783463
 30
21.95044557549772
 10
234.7488846290707
 20
213.3969498925921
 30
21.90795630784669
 10
234.4798814149581
 20
213.0464055746708
 30
21.87425701550819
 10
233.8299212212441
 20
212.4725343433812
 30
21.81087318330174
 10
233.4566119816773
 20
212.2517985621565
 30
21.78190033769352
 10
232.6335022602616
 20
211.9568983240359
 30
21.74196230444068
 10
232.1899584723142
 20
211.8906560964546
 30
21.73214348711917
 10
231.3073249208082
 20
211.9329976202425
 30
21.73817920470901
 10
230.8775184506139
 20
212.0389740527276
 30
21.75362863396913
 10
230.0727453664422
 20
212.412891882276
 30
21.80263762281175
 10
229.7074333394412
 20
212.6810075634241
 30
21.8359973776387
 10
229.1094662930464
 20
213.3358981818893
 30
21.90159287666393
 10
228.8792223903674
 20
213.7141815163487
 30
21.93295152611063
 10
228.5728481794868
 20
214.5459689468215
 30
21.97680165343263
 10
228.5027607319644
 20
214.9922671935658
 30
21.98813612768026
 10
228.5395837571777
 20
215.8705485203632
 30
21.98246994295005
 10
228.6395802242077
 20
216.2933450418692
 30
21.96665436082731
 10
228.997596874302
 20
217.0909347194521
 30
21.91703030081044
 10
229.2570600727941
 20
217.4560412764469
 30
21.88347656934275
 10
229.8899774905167
 20
218.0545746734217
 30
21.81923695737169
 10
230.2538109646266
 20
218.2872304908688
 30
21.78927913359439
 10
231.0649623322224
 20
218.6110013003474
 30
21.74594650361178
 10
231.5068127464528
 20
218.6930674468513
 30
21.73384001994236
 10
232.3883228805389
 20
218.6816162496405
 30
21.7354738615195
 10
232.8186856120501
 20
218.5919306874741
 30
21.74863135200576
 10
233.6339657225235
 20
218.249741838469
 30
21.79414061820716
 10
234.0088247668282
 20
217.9957690846237
 30
21.82648728541608
 10
234.6296913547139
 20
217.3654539822513
 30
21.89200319523298
 10
234.8733599606203
 20
216.9978261770449
 30
21.92426635972515
 10
235.2104353201339
 20
216.1831324242578
 30
21.97167069204079
 10
235.2980491981816
 20
215.742930686724
 30
21.98570689415646
 10
235.2980491981816
 20
215.2978159641899
 30
21.98570689415646
1001
ACAD_VIEW_EDGE_ID
1071
       24
1071
       -1
1071
        2
1071
        0
  0
SPLINE
  5
4BE
330
70
100
AcDbEntity
  8
表示
100
AcDbSpline
 70
     5
 71
     3
 72
    42
 73
    38
 74
     0
 42
0.000000001
 43
0.0000000001
 40
-2.565512101571685
 40
-2.565512101571685
 40
-2.565512101571685
 40
-2.565512101571685
 40
-2.437237550730735
 40
-2.437237550730735
 40
-2.308962999889785
 40
-2.308962999889785
 40
-2.180686340573566
 40
-2.180686340573566
 40
-2.052409681257348
 40
-2.052409681257348
 40
-1.924133021941129
 40
-1.924133021941129
 40
-1.79585636262491
 40
-1.79585636262491
 40
-1.66758181178396
 40
-1.66758181178396
 40
-1.539307260943011
 40
-1.539307260943011
 40
-1.411032710102061
 40
-1.411032710102061
 40
-1.282758159261111
 40
-1.282758159261111
 40
-1.154481499944892
 40
-1.154481499944892
 40
-1.026204840628674
 40
-1.026204840628674
 40
-0.8979281813124554
 40
-0.8979281813124554
 40
-0.8064173725415127
 40
-0.8064173725415127
 40
-0.769651521996237
 40
-0.769651521996237
 40
-0.6798661318621173
 40
-0.6798661318621173
 40
-0.5772423093711757
 40
-0.5772423093711757
 40
-0.5131024203143371
 40
-0.5131024203143371
 40
-0.5131024203143371
 40
-0.5131024203143371
 10
236.308299198181
 20
215.2978159641899
 30
22.99595689415582
 41
1.0
 10
236.308299198181
 20
215.851157163896
 30
22.99595689415582
 41
1.0
 10
236.1974987525264
 20
216.440728218086
 30
22.97393947011551
 41
1.0
 10
235.7487323698788
 20
217.522128609099
 30
22.89456744018935
 41
1.0
 10
235.4109441745714
 20
218.0140679120182
 30
22.83835920920865
 41
1.0
 10
234.6319835406212
 20
218.7901524005894
 30
22.73264441507127
 41
1.0
 10
234.1384571034832
 20
219.1264681213196
 30
22.67618842332376
 41
1.0
 10
233.0540424495557
 20
219.5731526971359
 30
22.59624395819264
 41
1.0
 10
232.4630164857972
 20
219.6833819981739
 30
22.57397298418437
 41
1.0
 10
231.3535819105655
 20
219.6833819981739
 30
22.57397298418437
 41
1.0
 10
230.762555946807
 20
219.5731526971359
 30
22.59624395819264
 41
1.0
 10
229.6781412928794
 20
219.1264681213196
 30
22.67618842332376
 41
1.0
 10
229.1846148557415
 20
218.7901524005894
 30
22.73264441507127
 41
1.0
 10
228.4056542217913
 20
218.0140679120182
 30
22.83835920920865
 41
1.0
 10
228.0678660264839
 20
217.5221286090989
 30
22.89456744018935
 41
1.0
 10
227.6190996438363
 20
216.440728218086
 30
22.97393947011551
 41
1.0
 10
227.5082991981817
 20
215.851157163896
 30
22.99595689415582
 41
1.0
 10
227.5082991981817
 20
214.7444747644838
 30
22.99595689415582
 41
1.0
 10
227.6190996438363
 20
214.1549037102938
 30
22.97393947011551
 41
1.0
 10
228.0678660264839
 20
213.0735033192809
 30
22.89456744018935
 41
1.0
 10
228.4056542217913
 20
212.5815640163616
 30
22.83835920920865
 41
1.0
 10
229.1846148557415
 20
211.8054795277904
 30
22.73264441507127
 41
1.0
 10
229.6781412928794
 20
211.4691638070602
 30
22.67618842332376
 41
1.0
 10
230.762555946807
 20
211.0224792312439
 30
22.59624395819264
 41
1.0
 10
231.3535819105655
 20
210.9122499302058
 30
22.57397298418437
 41
1.0
 10
232.4630164857972
 20
210.9122499302058
 30
22.57397298418437
 41
1.0
 10
233.0540424495557
 20
211.0224792312439
 30
22.59624395819264
 41
1.0
 10
233.9830530443669
 20
211.4051508430382
 30
22.66473183304151
 41
1.0
 10
234.346026756195
 20
211.6207309815028
 30
22.7015589123439
 41
1.0
 10
234.7899810382678
 20
211.9749898024185
 30
22.75489732318783
 41
1.0
 10
234.9098357385101
 20
212.082305815923
 30
22.77035246682681
 41
1.0
 10
235.2940804068803
 20
212.4651317431153
 30
22.82249932026752
 41
1.0
 10
235.5426629066715
 20
212.7867745759124
 30
22.86125323533088
 41
1.0
 10
235.9717087084409
 20
213.5474263713205
 30
22.93287452588993
 41
1.0
 10
236.1367755301872
 20
213.9961900786975
 30
22.96360535497661
 41
1.0
 10
236.2817913450144
 20
214.7352078481583
 30
22.99083399314259
 41
1.0
 10
236.308299198181
 20
215.0211340898271
 30
22.99595689415582
 41
1.0
 10
236.308299198181
 20
215.2978159641899
 30
22.99595689415582
 41
1.0
1001
ACAD_VIEW_EDGE_ID
1071
       25
1071
       -1
1071
        2
1071
        0
  0
LINE
  5
4BF
330
70
100
AcDbEntity
  8
隠線
100
AcDbLine
 10
225.391661
 20
223.513809
 30
-21.486535
 11
238.891661
 21
223.513809
 31
-21.486535
210
-0.0000000000000001
220
-1.0
230
0.0
  0
ARC
  5
4C0
330
70
100
AcDbEntity
  8
表示
100
AcDbCircle
 10
215.297816
 20
-0.004043
 30
238.891661
 40
23.0
210
1.0
220
-0.0000000000000001
230
0.0
100
AcDbArc
 50
0.0
 51
180.0
  0
LINE
  5
4C1
330
70
100
AcDbEntity
  8
隠線
100
AcDbLine
 10
238.891661
 20
236.780308
 30
-8.220036
 11
225.391661
 21
236.780308
 31
-8.220036
210
-0.0000000000000001
220
-1.0
230
0.0
  0
ARC
  5
4C2
330
70
100
AcDbEntity
  8
表示
100
AcDbCircle
 10
-215.297816
 20
-0.004043
 30
-225.391661
 40
23.0
210
-1.0
220
0.0000000000000001
230
0.0
100
AcDbArc
 50
0.0
 51
180.0
  0
ARC
  5
4C3
330
70
100
AcDbEntity
  8
表示
100
AcDbCircle
 10
215.297816
 20
-0.004043
 30
319.391661
 40
12.501
210
1.0
220
-0.0000000000000001
230
0.0
100
AcDbArc
 50
246.928034
 51
293.071966
  0
SPLINE
  5
4C4
330
70
100
AcDbEntity
  8
隠線
100
AcDbSpline
210
0.0000000000019258
220
-0.7071067811861007
230
0.7071067811869946
 70
    12
 71
     2
 72
     6
 73
     3
 74
     0
 42
0.000000001
 43
0.0000000001
 40
0.0
 40
0.0
 40
0.0
 40
0.2996146208657667
 40
0.2996146208657667
 40
0.2996146208657667
 10
224.3916611576387
 20
225.5102491213596
 30
-19.49009475851017
 41
1.0
 10
224.8030884020154
 20
224.5342116252443
 30
-20.46613225462534
 41
1.001974113797337
 10
225.3916611576388
 20
223.5138087883966
 30
-21.48653509147334
 41
1.0
1001
ACAD_VIEW_EDGE_ID
1071
       36
1071
       -1
1071
        2
1071
        0
  0
SPLINE
  5
4C5
330
70
100
AcDbEntity
  8
隠線
100
AcDbSpline
210
-0.000000000001793
220
-0.7071067811861386
230
0.7071067811869565
 70
    12
 71
     2
 72
     6
 73
     3
 74
     0
 42
0.000000001
 43
0.0000000001
 40
0.0
 40
0.0
 40
0.0
 40
0.2996146208657656
 40
0.2996146208657656
 40
0.2996146208657656
 10
225.3916611576388
 20
236.7803079498182
 30
-8.220035930051381
 41
1.0
 10
224.8030884020154
 20
235.7599051129705
 30
-9.240438766899387
 41
1.001974113797535
 10
224.3916611576387
 20
234.7838676168553
 30
-10.21647626301455
 41
1.0
1001
ACAD_VIEW_EDGE_ID
1071
       38
1071
       -1
1071
        2
1071
        0
  0
SPLINE
  5
4C6
330
70
100
AcDbEntity
  8
隠線
100
AcDbSpline
210
-0.0000000000242174
220
0.7071067811796278
230
-0.7071067811934674
 70
    12
 71
     2
 72
     6
 73
     3
 74
     0
 42
0.000000001
 43
0.0000000001
 40
0.0
 40
0.0
 40
0.0
 40
0.1395797097236624
 40
0.1395797097236624
 40
0.1395797097236624
 10
239.3916611576387
 20
235.8588881985053
 30
-9.141455681363368
 41
1.0
 10
239.1603208138604
 20
236.3145353282755
 30
-8.685808551594163
 41
1.000410354783636
 10
238.8916611576387
 20
236.7803079498182
 30
-8.220035930051381
 41
1.0
1001
ACAD_VIEW_EDGE_ID
1071
       39
1071
       -1
1071
        2
1071
        0
  0
SPLINE
  5
4C7
330
70
100
AcDbEntity
  8
隠線
100
AcDbSpline
210
-0.000000000019805
220
0.7071067811922811
230
-0.707106781180814
 70
    12
 71
     2
 72
     6
 73
     3
 74
     0
 42
0.000000001
 43
0.0000000001
 40
0.0
 40
0.0
 40
0.0
 40
0.1395797097236626
 40
0.1395797097236626
 40
0.1395797097236626
 10
238.8916611576387
 20
223.5138087883966
 30
-21.48653509147334
 41
1.0
 10
239.1603208138604
 20
223.9795814099394
 30
-21.02076246993056
 41
1.000410354782748
 10
239.3916611576387
 20
224.4352285397095
 30
-20.56511534015954
 41
1.0
1001
ACAD_VIEW_EDGE_ID
1071
       41
1071
       -1
1071
        2
1071
        0
  0
ARC
  5
4C8
330
70
100
AcDbEntity
  8
表示
100
AcDbCircle
 10
215.297816
 20
-0.004043
 30
224.391661
 40
22.0
210
1.0
220
-0.0000000000000001
230
0.0
100
AcDbArc
 50
0.0
 51
180.0
  0
ARC
  5
4C9
330
70
100
AcDbEntity
  8
表示
100
AcDbCircle
 10
-215.297816
 20
-0.004043
 30
-239.391661
 40
22.5
210
-1.0
220
0.0000000000000001
230
0.0
100
AcDbArc
 50
0.0
 51
180.0
  0
ARC
  5
4CA
330
70
100
AcDbEntity
  8
隠線
100
AcDbCircle
 10
-215.297816
 20
-0.004043
 30
-323.891661
 40
12.51000000000001
210
-1.0
220
0.0000000000000001
230
0.0
100
AcDbArc
 50
0.0
 51
180.0
  0
ARC
  5
4CB
330
70
100
AcDbEntity
  8
表示
100
AcDbCircle
 10
-215.297816
 20
-0.004043
 30
-324.391661
 40
18.99999999999999
210
-1.0
220
0.0000000000000001
230
0.0
100
AcDbArc
 50
0.0
 51
180.0
  0
ARC
  5
4CC
330
70
100
AcDbEntity
  8
隠線
100
AcDbCircle
 10
215.297816
 20
-0.004043
 30
319.391661
 40
12.51000000000001
210
1.0
220
-0.0000000000000001
230
0.0
100
AcDbArc
 50
113.054409
 51
180.0
  0
ARC
  5
4CD
330
70
100
AcDbEntity
  8
隠線
100
AcDbCircle
 10
215.297816
 20
-0.004043
 30
319.391661
 40
12.51000000000001
210
1.0
220
-0.0000000000000001
230
0.0
100
AcDbArc
 50
0.0
 51
66.945591
  0
LINE
  5
4CE
330
70
100
AcDbEntity
  8
表示
100
AcDbLine
 10
240.391661
 20
235.297816
 30
-0.004043
 11
323.391661
 21
235.297816
 31
-0.004043
210
-0.0000000000000001
220
-1.0
230
0.0
  0
LINE
  5
4CF
330
70
100
AcDbEntity
  8
表示
100
AcDbLine
 10
240.391661
 20
195.297816
 30
-0.004043
 11
323.391661
 21
195.297816
 31
-0.004043
210
-0.0000000000000001
220
-1.0
230
0.0
  0
LINE
  5
4D0
330
70
100
AcDbEntity
  8
表示
100
AcDbLine
 10
225.391661
 20
238.297816
 30
-0.004043
 11
238.891661
 21
238.297816
 31
-0.004043
210
-0.0000000000000001
220
-1.0
230
0.0
  0
LINE
  5
4D1
330
70
100
AcDbEntity
  8
表示
100
AcDbLine
 10
225.391661
 20
192.297816
 30
-0.004043
 11
238.891661
 21
192.297816
 31
-0.004043
210
-0.0000000000000001
220
-1.0
230
0.0
  0
LINE
  5
4D2
330
70
100
AcDbEntity
  8
隠線
100
AcDbLine
 10
224.391661
 20
227.798816
 30
-0.004043
 11
319.391661
 21
227.798816
 31
-0.004043
210
-0.0000000000000001
220
-1.0
230
0.0
  0
LINE
  5
4D3
330
70
100
AcDbEntity
  8
隠線
100
AcDbLine
 10
224.391661
 20
202.796816
 30
-0.004043
 11
319.391661
 21
202.796816
 31
-0.004043
210
-0.0000000000000001
220
-1.0
230
0.0
  0
LINE
  5
4D4
330
70
100
AcDbEntity
  8
表示
100
AcDbLine
 10
224.391661
 20
237.297816
 30
-0.004043
 11
225.391661
 21
238.297816
 31
-0.004043
210
-0.0000000000000001
220
-1.0
230
0.0
  0
LINE
  5
4D5
330
70
100
AcDbEntity
  8
表示
100
AcDbLine
 10
224.391661
 20
193.297816
 30
-0.004043
 11
225.391661
 21
192.297816
 31
-0.004043
210
-0.0000000000000001
220
-1.0
230
0.0
  0
LINE
  5
4D6
330
70
100
AcDbEntity
  8
表示
100
AcDbLine
 10
239.391661
 20
192.797816
 30
-0.004043
 11
238.891661
 21
192.297816
 31
-0.004043
210
-0.0000000000000001
220
-1.0
230
0.0
  0
LINE
  5
4D7
330
70
100
AcDbEntity
  8
表示
100
AcDbLine
 10
239.391661
 20
237.797816
 30
-0.004043
 11
238.891661
 21
238.297816
 31
-0.004043
210
-0.0000000000000001
220
-1.0
230
0.0
  0
LINE
  5
4D8
330
70
100
AcDbEntity
  8
隠線
100
AcDbLine
 10
323.891661
 20
227.807816
 30
-0.004043
 11
324.391661
 21
228.307816
 31
-0.004043
210
-0.0000000000000001
220
-1.0
230
0.0
  0
LINE
  5
4D9
330
70
100
AcDbEntity
  8
隠線
100
AcDbLine
 10
323.891661
 20
202.787816
 30
-0.004043
 11
324.391661
 21
202.287816
 31
-0.004043
210
-0.0000000000000001
220
-1.0
230
0.0
  0
LINE
  5
4DA
330
70
100
AcDbEntity
  8
隠線
100
AcDbLine
 10
319.391661
 20
227.807816
 30
-0.004043
 11
323.891661
 21
227.807816
 31
-0.004043
210
-0.0000000000000001
220
-1.0
230
0.0
  0
LINE
  5
4DB
330
70
100
AcDbEntity
  8
隠線
100
AcDbLine
 10
319.391661
 20
202.787816
 30
-0.004043
 11
323.891661
 21
202.787816
 31
-0.004043
210
-0.0000000000000001
220
-1.0
230
0.0
  0
ARC
  5
4DC
330
70
100
AcDbEntity
  8
表示
100
AcDbCircle
 10
-323.391661
 20
196.297816
 30
0.004043
 40
1.0
210
0.0
220
0.0
230
-1.0
100
AcDbArc
 50
180.0
 51
270.0
  0
ARC
  5
4DD
330
70
100
AcDbEntity
  8
表示
100
AcDbCircle
 10
-323.391661
 20
234.297816
 30
0.004043
 40
1.0
210
0.0
220
0.0
230
-1.0
100
AcDbArc
 50
90.0
 51
180.0
  0
LINE
  5
4DE
330
70
100
AcDbEntity
  8
表示
100
AcDbLine
 10
239.391661
 20
234.597816
 30
-0.004043
 11
240.391661
 21
234.597816
 31
-0.004043
210
-0.0000000000000001
220
-1.0
230
0.0
  0
LINE
  5
4DF
330
70
100
AcDbEntity
  8
表示
100
AcDbLine
 10
239.391661
 20
195.997816
 30
-0.004043
 11
240.391661
 21
195.997816
 31
-0.004043
210
-0.0000000000000001
220
-1.0
230
0.0
  0
ARC
  5
4E0
330
70
100
AcDbEntity
  8
狭い隠線
100
AcDbCircle
 10
-231.908299
 20
215.297816
 30
-21.985707
 40
4.084999999999993
210
-0.0000000000000001
220
0.0000000000000004
230
-1.0
100
AcDbArc
 50
170.0
 51
80.0
  0
SPLINE
  5
4E1
330
70
100
AcDbEntity
  8
表示
100
AcDbSpline
 70
     4
 71
     3
 72
    16
 73
    12
 74
     0
 42
0.000000001
 43
0.0000000001
 40
-2.129095278636254
 40
-2.129095278636254
 40
-2.129095278636254
 40
-2.129095278636254
 40
-1.862882453828411
 40
-1.862882453828411
 40
-1.596669629020567
 40
-1.596669629020567
 40
-1.410433774729977
 40
-1.410433774729977
 40
-1.197580768322684
 40
-1.197580768322684
 40
-1.0645476393264
 40
-1.064547639318127
 40
-1.064547639318127
 40
-1.064547639318127
 10
314.3916611576387
 20
154.473776365905
 30
7.927706919724553
 41
1.0
 10
315.4143224618274
 20
154.473776365905
 30
7.927706919724553
 41
1.0
 10
316.4977303902524
 20
154.5648833833893
 30
7.725429431460844
 41
1.0
 10
318.4688204669273
 20
154.882179717646
 30
6.918928864658367
 41
1.0
 10
319.3581142821859
 20
155.1025195525235
 30
6.315675593004373
 41
1.0
 10
320.5502493913627
 20
155.4483207842277
 30
5.134856039965413
 41
1.0
 10
320.998648432218
 20
155.5965848221713
 30
4.558467503733857
 41
1.0
 10
321.7756698492794
 20
155.8703689796166
 30
3.18838074637493
 41
1.0
 10
322.0769770521856
 20
155.9878664760708
 30
2.375746720858538
 41
1.0
 10
322.3427300530911
 20
156.0923351709589
 30
1.029385834866156
 41
1.0
 10
322.3916611576351
 20
156.1120917211065
 30
0.5067928724308083
 41
1.0
 10
322.3916611576387
 20
156.1120917211083
 30
0.000000000031512
 41
1.0
1001
ACAD_VIEW_EDGE_ID
1071
        5
1071
       -1
1071
        2
1071
        0
  0
SPLINE
  5
4E2
330
70
100
AcDbEntity
  8
隠線
100
AcDbSpline
 70
     4
 71
     3
 72
    16
 73
    12
 74
     0
 42
0.000000001
 43
0.0000000001
 40
1.064547639269442
 40
1.064547639318127
 40
1.064547639318127
 40
1.064547639318127
 40
1.197580768322684
 40
1.197580768322684
 40
1.410433774729977
 40
1.410433774729977
 40
1.596669629020567
 40
1.596669629020567
 40
1.862882453828411
 40
1.862882453828411
 40
2.129095278636254
 40
2.129095278636254
 40
2.129095278636254
 40
2.129095278636254
 10
321.3916611576387
 20
155.1120917211083
 30
-0.0000000000000073
 41
1.0
 10
321.3916611576387
 20
155.1120917211083
 30
0.4212715751810908
 41
1.0
 10
321.3531644286195
 20
155.0977630869802
 30
0.8556712452442125
 41
1.0
 10
321.1418460436489
 20
155.0213514997176
 30
1.983289880111056
 41
1.0
 10
320.9011214628262
 20
154.9349604506551
 30
2.673565340737396
 41
1.0
 10
320.2612421254635
 20
154.7291025311206
 30
3.866120020279422
 41
1.0
 10
319.8856848159812
 20
154.6160028568793
 30
4.380377565613096
 41
1.0
 10
318.8648605995113
 20
154.3483680094887
 30
5.454411086206047
 41
1.0
 10
318.0849679757484
 20
154.1742708496222
 30
6.024278745205908
 41
1.0
 10
316.3159950769277
 20
153.9209280001632
 30
6.799219706680203
 41
1.0
 10
315.3264018716163
 20
153.8470857163029
 30
7.000000000000001
 41
1.0
 10
314.3916611576387
 20
153.8470857163029
 30
7.0
 41
1.0
1001
ACAD_VIEW_EDGE_ID
1071
        6
1071
       -1
1071
        2
1071
        0
  0
LINE
  5
4E3
330
70
100
AcDbEntity
  8
表示
100
AcDbLine
 10
250.391661
 20
154.473776
 30
7.927707
 11
314.391661
 21
154.473776
 31
7.927707
  0
LINE
  5
4E4
330
70
100
AcDbEntity
  8
隠線
100
AcDbLine
 10
314.391661
 20
153.847086
 30
7.0
 11
250.391661
 21
153.847086
 31
7.0
  0
SPLINE
  5
4E5
330
70
100
AcDbEntity
  8
表示
100
AcDbSpline
 70
     4
 71
     3
 72
    16
 73
    12
 74
     0
 42
0.000000001
 43
0.0000000001
 40
1.064547639309854
 40
1.064547639318127
 40
1.064547639318127
 40
1.064547639318127
 40
1.197580768322685
 40
1.197580768322685
 40
1.410433774729977
 40
1.410433774729977
 40
1.596669629020567
 40
1.596669629020567
 40
1.862882453828411
 40
1.862882453828411
 40
2.129095278636255
 40
2.129095278636255
 40
2.129095278636255
 40
2.129095278636255
 10
242.3916611576387
 20
156.1120917211083
 30
-0.0000000000000012
 41
1.0
 10
242.3916611576387
 20
156.1120917211083
 30
0.5067928723983187
 41
1.0
 10
242.4405922621809
 20
156.0923351709625
 30
1.029385834833986
 41
1.0
 10
242.7063452630918
 20
155.9878664760708
 30
2.375746720858484
 41
1.0
 10
243.007652465998
 20
155.8703689796166
 30
3.18838074637493
 41
1.0
 10
243.7846738830594
 20
155.5965848221713
 30
4.558467503733858
 41
1.0
 10
244.2330729239147
 20
155.4483207842277
 30
5.134856039965326
 41
1.0
 10
245.4252080330916
 20
155.1025195525235
 30
6.315675593004398
 41
1.0
 10
246.3145018483501
 20
154.882179717646
 30
6.918928864658409
 41
1.0
 10
248.2855919250251
 20
154.5648833833893
 30
7.725429431460858
 41
1.0
 10
249.3689998534501
 20
154.473776365905
 30
7.927706919724553
 41
1.0
 10
250.3916611576388
 20
154.473776365905
 30
7.927706919724553
 41
1.0
1001
ACAD_VIEW_EDGE_ID
1071
       10
1071
       -1
1071
        2
1071
        0
  0
SPLINE
  5
4E6
330
70
100
AcDbEntity
  8
隠線
100
AcDbSpline
 70
     4
 71
     3
 72
    16
 73
    12
 74
     0
 42
0.000000001
 43
0.0000000001
 40
-2.129095278636255
 40
-2.129095278636255
 40
-2.129095278636255
 40
-2.129095278636255
 40
-1.862882453828411
 40
-1.862882453828411
 40
-1.596669629020567
 40
-1.596669629020567
 40
-1.410433774729977
 40
-1.410433774729977
 40
-1.197580768322685
 40
-1.197580768322685
 40
-1.064547639366812
 40
-1.064547639318127
 40
-1.064547639318127
 40
-1.064547639318127
 10
250.3916611576388
 20
153.8470857163029
 30
7.000000000000001
 41
1.0
 10
249.4569204436611
 20
153.8470857163029
 30
7.000000000000001
 41
1.0
 10
248.4673272383497
 20
153.9209280001632
 30
6.799219706680209
 41
1.0
 10
246.698354339529
 20
154.1742708496222
 30
6.024278745205915
 41
1.0
 10
245.9184617157662
 20
154.3483680094887
 30
5.454411086206031
 41
1.0
 10
244.8976374992962
 20
154.6160028568793
 30
4.380377565613081
 41
1.0
 10
244.522080189814
 20
154.7291025311206
 30
3.866120020279417
 41
1.0
 10
243.8822008524512
 20
154.9349604506551
 30
2.673565340737398
 41
1.0
 10
243.6414762716286
 20
155.0213514997176
 30
1.983289880111067
 41
1.0
 10
243.4301578866871
 20
155.0977630869692
 30
0.8556712454029183
 41
1.0
 10
243.3916611576533
 20
155.1120917211028
 30
0.4212715753400693
 41
1.0
 10
243.3916611576387
 20
155.1120917211083
 30
0.0000000001541696
 41
1.0
1001
ACAD_VIEW_EDGE_ID
1071
       11
1071
       -1
1071
        2
1071
        0
  0
SPLINE
  5
4E7
330
70
100
AcDbEntity
  8
隠線
100
AcDbSpline
 70
     0
 71
     3
 72
    10
 73
     6
 74
     0
 42
0.000000001
 43
0.0000000001
 40
2.7158118982387
 40
2.7158118982387
 40
2.7158118982387
 40
2.7158118982387
 40
2.978446020513369
 40
2.978446020513369
 40
3.248532316440724
 40
3.248532316440724
 40
3.248532316443129
 40
3.248532316443129
 10
319.3916611576387
 20
147.6229604980508
 30
4.898979485566357
 10
319.9801471773881
 20
147.8785823938233
 30
4.298358456755206
 10
320.4963880553951
 20
148.1403583700739
 30
3.543202222428816
 10
321.2075790828312
 20
148.5162500696115
 30
1.847307885883865
 10
321.3916611576387
 20
148.6220917211085
 30
0.9002876530911828
 10
321.3916611576387
 20
148.6220917211085
 30
-0.0000000000080153
1001
ACAD_VIEW_EDGE_ID
1071
       15
1071
       -1
1071
        2
1071
        0
  0
SPLINE
  5
4E8
330
70
100
AcDbEntity
  8
隠線
100
AcDbSpline
 70
     0
 71
     3
 72
    12
 73
     8
 74
     0
 42
0.000000001
 43
0.0000000001
 40
2.165785998597347
 40
2.165785998597347
 40
2.165785998597347
 40
2.165785998597347
 40
2.437136155407766
 40
2.437136155407766
 40
2.708486312218184
 40
2.708486312218184
 40
2.715939022352569
 40
2.715939022352569
 40
2.715939022352569
 40
2.715939022352569
 10
314.3916611576387
 20
146.4694562990298
 30
7.0
 10
315.2961616803405
 20
146.4694562990298
 30
7.0
 10
316.2411978707059
 20
146.6005214686156
 30
6.815005644455373
 10
317.9566593754025
 20
147.0343413770588
 30
6.09556411380932
 10
318.7296340918274
 20
147.3276312592461
 30
5.56152200242373
 10
319.3582111895539
 20
147.5986660748604
 30
4.932944904695874
 10
319.3749630137481
 20
147.6059192933153
 30
4.916021957309581
 10
319.3916611576387
 20
147.6131786697406
 30
4.898979485566358
1001
ACAD_VIEW_EDGE_ID
1071
       17
1071
       -1
1071
        2
1071
        0
  0
ARC
  5
4E9
330
70
100
AcDbEntity
  8
表示
100
AcDbCircle
 10
136.112092
 20
0.0
 30
240.391661
 40
20.0
210
1.0
220
0.0
230
0.0
100
AcDbArc
 50
0.0
 51
180.0
  0
SPLINE
  5
4EA
330
70
100
AcDbEntity
  8
隠線
100
AcDbSpline
 70
     0
 71
     3
 72
    24
 73
    20
 74
     0
 42
0.000000001
 43
0.0000000001
 40
-2.139424351833925
 40
-2.139424351833925
 40
-2.139424351833925
 40
-2.139424351833925
 40
-2.06254970388277
 40
-2.06254970388277
 40
-1.982768075385631
 40
-1.982768075385631
 40
-1.851128304663836
 40
-1.851128304663836
 40
-1.721929901447406
 40
-1.721929901447406
 40
-1.588556431701332
 40
-1.588556431701332
 40
-1.456845687395933
 40
-1.456845687395933
 40
-1.321923297318586
 40
-1.321923297318586
 40
-1.190023756260921
 40
-1.190023756260921
 40
-1.069867752081331
 40
-1.069867752081331
 40
-1.069867752081331
 40
-1.069867752081331
 10
235.2980491981816
 20
158.1018417211089
 30
0.0000000000000001
 10
235.2980491981816
 20
158.1018417211089
 30
0.2562488265038496
 10
235.2690011542145
 20
158.0973029007273
 30
0.5115405095546068
 10
235.1518234345167
 20
158.0797877914847
 30
1.0200960121111
 10
235.0619441862018
 20
158.0665804024502
 30
1.270977085843617
 10
234.7488846290707
 20
158.0240911347991
 30
1.900866071597862
 10
234.4798814149581
 20
157.9903918424606
 30
2.251410389519072
 10
233.8299212212441
 20
157.9270080102542
 30
2.825281620808693
 10
233.4566119816773
 20
157.898035164646
 30
3.046017402033434
 10
232.6335022602616
 20
157.8580971313931
 30
3.340917640154016
 10
232.1899584723142
 20
157.8482783140716
 30
3.407159867735265
 10
231.3073249208082
 20
157.8543140316615
 30
3.364818343947389
 10
230.8775184506139
 20
157.8697634609216
 30
3.258841911462318
 10
230.0727453664422
 20
157.9187724497642
 30
2.884924081913875
 10
229.7074333394412
 20
157.9521322045912
 30
2.616808400765819
 10
229.1094662930464
 20
158.0177277036164
 30
1.961917782300609
 10
228.8792223903674
 20
158.0490863530631
 30
1.58363444784125
 10
228.589207877867
 20
158.0905949815533
 30
0.7962626078347862
 10
228.518539266599
 20
158.1017514507311
 30
0.3996991048126457
 10
228.5185474902064
 20
158.1018265575349
 30
-0.0000000028836443
1001
ACAD_VIEW_EDGE_ID
1071
       24
1071
       -1
1071
        2
1071
        0
  0
SPLINE
  5
4EB
330
70
100
AcDbEntity
  8
表示
100
AcDbSpline
 70
     4
 71
     3
 72
    26
 73
    22
 74
     0
 42
0.000000001
 43
0.0000000001
 40
-1.539307260943011
 40
-1.539307260943011
 40
-1.539307260913225
 40
-1.539307260913225
 40
-1.411032710102061
 40
-1.411032710102061
 40
-1.282758159261111
 40
-1.282758159261111
 40
-1.154481499944892
 40
-1.154481499944892
 40
-1.026204840628674
 40
-1.026204840628674
 40
-0.8979281813124554
 40
-0.8979281813124554
 40
-0.8064173725415127
 40
-0.8064173725415127
 40
-0.769651521996237
 40
-0.769651521996237
 40
-0.6798661318621173
 40
-0.6798661318621173
 40
-0.5772423093711757
 40
-0.5772423093711757
 40
-0.5131024203143371
 40
-0.5131024203143371
 40
-0.5131024203143371
 40
-0.5131024203143371
 10
227.5082991981817
 20
159.1120917211083
 30
0.0000000002569918
 41
1.0
 10
227.5082991982326
 20
159.1120917210974
 30
0.5533411999798873
 41
1.0
 10
227.6190996438872
 20
159.0900742970589
 30
1.142912254021639
 41
1.0
 10
228.0678660264839
 20
159.0107022671418
 30
2.224312644909009
 41
1.0
 10
228.4056542217913
 20
158.9544940361611
 30
2.7162519478283
 41
1.0
 10
229.1846148557415
 20
158.8487792420237
 30
3.492336436399479
 41
1.0
 10
229.6781412928794
 20
158.7923232502762
 30
3.828652157129748
 41
1.0
 10
230.762555946807
 20
158.7123787851451
 30
4.275336732946033
 41
1.0
 10
231.3535819105655
 20
158.6901078111368
 30
4.38556603398403
 41
1.0
 10
232.4630164857972
 20
158.6901078111368
 30
4.38556603398403
 41
1.0
 10
233.0540424495557
 20
158.7123787851451
 30
4.27533673294603
 41
1.0
 10
233.9830530443669
 20
158.780866659994
 30
3.89266512115174
 41
1.0
 10
234.346026756195
 20
158.8176937392963
 30
3.677084982687142
 41
1.0
 10
234.7899810382678
 20
158.8710321501403
 30
3.322826161771357
 41
1.0
 10
234.9098357385101
 20
158.8864872937793
 30
3.2155101482669
 41
1.0
 10
235.2940804068803
 20
158.93863414722
 30
2.832684221074621
 41
1.0
 10
235.5426629066715
 20
158.9773880622833
 30
2.511041388277485
 41
1.0
 10
235.9717087084409
 20
159.0490093528424
 30
1.750389592869429
 41
1.0
 10
236.1367755301872
 20
159.0797401819291
 30
1.301625885492412
 41
1.0
 10
236.2817913450144
 20
159.106968820095
 30
0.5626081160316373
 41
1.0
 10
236.308299198181
 20
159.1120917211083
 30
0.2766818743628233
 41
1.0
 10
236.308299198181
 20
159.1120917211083
 30
-0.0000000000000014
 41
1.0
1001
ACAD_VIEW_EDGE_ID
1071
       25
1071
       -1
1071
        2
1071
        0
  0
SPLINE
  5
4EC
330
70
100
AcDbEntity
  8
隠線
100
AcDbSpline
 70
     0
 71
     3
 72
    22
 73
    18
 74
     0
 42
0.000000001
 43
0.0000000001
 40
0.5135327547451985
 40
0.5135327547451985
 40
0.5135327547515188
 40
0.5135327547515188
 40
0.641903385654265
 40
0.641903385654265
 40
0.7702740165633316
 40
0.7702740165633316
 40
0.8986697630268642
 40
0.8986697630268642
 40
1.027065509490396
 40
1.027065509490396
 40
1.155461255953929
 40
1.155461255953929
 40
1.283857002417462
 40
1.283857002417462
 40
1.412227633326528
 40
1.412227633326528
 40
1.540598264235595
 40
1.540598264235595
 40
1.540598264252093
 40
1.540598264252093
 10
228.5185491981811
 20
148.6130917211085
 30
0.0000000000421347
 10
228.5185491981902
 20
148.6130917211067
 30
0.4279021030750233
 10
228.6045023670431
 20
148.5889318036697
 30
0.882886690667359
 10
228.951114431231
 20
148.5016601914849
 30
1.717445918517833
 10
229.2116578702935
 20
148.4397055763547
 30
2.097189095165661
 10
229.8111687440578
 20
148.3225835719822
 30
2.696699968930862
 10
230.190887733941
 20
148.2596025735711
 30
2.957197806401565
 10
231.025360349342
 20
148.1699564183182
 30
3.303776438815265
 10
231.4803133766363
 20
148.1447388088236
 30
3.38975
 10
232.3362850197264
 20
148.1447388088236
 30
3.38975
 10
232.7912380470207
 20
148.1699564183182
 30
3.303776438815265
 10
233.6257106624216
 20
148.2596025735711
 30
2.957197806401565
 10
234.0054296523049
 20
148.3225835719822
 30
2.696699968930864
 10
234.6049405260692
 20
148.4397055763547
 30
2.097189095165662
 10
234.8654839651317
 20
148.5016601914849
 30
1.717445918517833
 10
235.2120960293287
 20
148.5889318036716
 30
0.8828866906468157
 10
235.2980491981816
 20
148.6130917211085
 30
0.4279021030302224
 10
235.2980491981816
 20
148.6130917211085
 30
-0.0000000000549922
1001
ACAD_VIEW_EDGE_ID
1071
       26
1071
       -1
1071
        2
1071
        0
  0
LINE
  5
4ED
330
70
100
AcDbEntity
  8
隠線
100
AcDbLine
 10
225.391661
 20
114.6296
 30
-8.215993
 11
238.891661
 21
114.6296
 31
-8.215993
  0
ARC
  5
4EE
330
70
100
AcDbEntity
  8
表示
100
AcDbCircle
 10
136.112092
 20
0.0
 30
238.891661
 40
23.0
210
1.0
220
0.0
230
0.0
100
AcDbArc
 50
0.0
 51
180.0
  0
LINE
  5
4EF
330
70
100
AcDbEntity
  8
隠線
100
AcDbLine
 10
238.891661
 20
127.896099
 30
-21.482492
 11
225.391661
 21
127.896099
 31
-21.482492
  0
ARC
  5
4F0
330
70
100
AcDbEntity
  8
表示
100
AcDbCircle
 10
-136.112092
 20
0.0
 30
-225.391661
 40
23.0
210
-1.0
220
0.0
230
0.0
100
AcDbArc
 50
0.0
 51
180.0
  0
LINE
  5
4F1
330
70
100
AcDbEntity
  8
隠線
100
AcDbLine
 10
250.391661
 20
146.469456
 30
7.0
 11
314.391661
 21
146.469456
 31
7.0
  0
SPLINE
  5
4F2
330
70
100
AcDbEntity
  8
隠線
100
AcDbSpline
 70
     0
 71
     3
 72
    14
 73
    10
 74
     0
 42
0.000000001
 43
0.0000000001
 40
1.082892999290753
 40
1.082892999290753
 40
1.082892999298674
 40
1.082892999298674
 40
1.352989342137593
 40
1.352989342137593
 40
1.623085684976512
 40
1.623085684976512
 40
1.894435841786931
 40
1.894435841786931
 40
2.165785998597349
 40
2.165785998597349
 40
2.165785998597349
 40
2.165785998597349
 10
243.3916611576387
 20
148.6130917211085
 30
-0.0000000000264039
 10
243.3916611576387
 20
148.6130917211085
 30
0.9003211427963949
 10
243.5757565772383
 20
148.5071679686443
 30
1.84735668670573
 10
244.2969078283586
 20
148.1257248139027
 30
3.566968048588904
 10
244.8329659509218
 20
147.8539918874776
 30
4.340799729894637
 10
246.0536882234501
 20
147.3276312592461
 30
5.561522002423733
 10
246.8266629398749
 20
147.0343413770588
 30
6.095564113809332
 10
248.5421244445715
 20
146.6005214686156
 30
6.815005644455384
 10
249.487160634937
 20
146.4694562990298
 30
7.000000000000001
 10
250.3916611576388
 20
146.4694562990298
 30
7.000000000000001
1001
ACAD_VIEW_EDGE_ID
1071
       33
1071
       -1
1071
        2
1071
        0
  0
SPLINE
  5
4F3
330
70
100
AcDbEntity
  8
隠線
100
AcDbSpline
210
0.0000000000020232
220
0.7071067811870187
230
0.7071067811860765
 70
    12
 71
     2
 72
     6
 73
     3
 74
     0
 42
0.000000001
 43
0.0000000001
 40
0.0
 40
0.0
 40
0.0
 40
0.2996146208657667
 40
0.2996146208657667
 40
0.2996146208657667
 10
224.3916611576387
 20
116.6260400684423
 30
-10.21243315716967
 41
1.0
 10
224.8030884020154
 20
115.6500025723271
 30
-9.236395661054379
 41
1.001974113797337
 10
225.3916611576388
 20
114.6295997354791
 30
-8.215992824206697
 41
1.0
1001
ACAD_VIEW_EDGE_ID
1071
       36
1071
       -1
1071
        2
1071
        0
  0
SPLINE
  5
4F4
330
70
100
AcDbEntity
  8
隠線
100
AcDbSpline
210
-0.0000000000018597
220
0.7071067811869756
230
0.7071067811861195
 70
    12
 71
     2
 72
     6
 73
     3
 74
     0
 42
0.000000001
 43
0.0000000001
 40
0.0
 40
0.0
 40
0.0
 40
0.2996146208657656
 40
0.2996146208657656
 40
0.2996146208657656
 10
225.3916611576388
 20
127.8960988969011
 30
-21.4824919856283
 41
1.0
 10
224.8030884020154
 20
126.8756960600531
 30
-20.46208914878061
 41
1.001974113797535
 10
224.3916611576387
 20
125.8996585639379
 30
-19.48605165266534
 41
1.0
1001
ACAD_VIEW_EDGE_ID
1071
       38
1071
       -1
1071
        2
1071
        0
  0
SPLINE
  5
4F5
330
70
100
AcDbEntity
  8
隠線
100
AcDbSpline
210
0.0000000000239748
220
0.7071067811933923
230
0.7071067811797028
 70
    12
 71
     2
 72
     6
 73
     3
 74
     0
 42
0.000000001
 43
0.0000000001
 40
0.0
 40
0.0
 40
0.0
 40
0.1395797097236624
 40
0.1395797097236624
 40
0.1395797097236624
 10
239.3916611576387
 20
126.9746791455891
 30
-20.56107223431543
 41
1.0
 10
239.1603208138604
 20
127.4303262753583
 30
-21.01671936408561
 41
1.000410354783636
 10
238.8916611576387
 20
127.8960988969011
 30
-21.4824919856283
 41
1.0
1001
ACAD_VIEW_EDGE_ID
1071
       39
1071
       -1
1071
        2
1071
        0
  0
SPLINE
  5
4F6
330
70
100
AcDbEntity
  8
隠線
100
AcDbSpline
210
-0.0000000000202
220
-0.7071067811807087
230
-0.7071067811923865
 70
    12
 71
     2
 72
     6
 73
     3
 74
     0
 42
0.000000001
 43
0.0000000001
 40
0.0
 40
0.0
 40
0.0
 40
0.1395797097236626
 40
0.1395797097236626
 40
0.1395797097236626
 10
238.8916611576387
 20
114.6295997354791
 30
-8.215992824206693
 41
1.0
 10
239.1603208138604
 20
115.0953723570219
 30
-8.681765445749459
 41
1.000410354782748
 10
239.3916611576387
 20
115.5510194867929
 30
-9.137412575519565
 41
1.0
1001
ACAD_VIEW_EDGE_ID
1071
       41
1071
       -1
1071
        2
1071
        0
  0
ARC
  5
4F7
330
70
100
AcDbEntity
  8
表示
100
AcDbCircle
 10
136.112092
 20
0.0
 30
224.391661
 40
22.0
210
1.0
220
0.0
230
0.0
100
AcDbArc
 50
0.0
 51
180.0
  0
ARC
  5
4F8
330
70
100
AcDbEntity
  8
表示
100
AcDbCircle
 10
-136.112092
 20
0.0
 30
-239.391661
 40
22.5
210
-1.0
220
0.0
230
0.0
100
AcDbArc
 50
0.0
 51
180.0
  0
ARC
  5
4F9
330
70
100
AcDbEntity
  8
隠線
100
AcDbCircle
 10
-136.112092
 20
0.0
 30
-323.891661
 40
12.51000000000001
210
-1.0
220
0.0
230
0.0
100
AcDbArc
 50
0.0
 51
180.0
  0
ARC
  5
4FA
330
70
100
AcDbEntity
  8
表示
100
AcDbCircle
 10
-136.112092
 20
0.0
 30
-324.391661
 40
18.99999999999999
210
-1.0
220
0.0
230
0.0
100
AcDbArc
 50
0.0
 51
180.0
  0
ARC
  5
4FB
330
70
100
AcDbEntity
  8
隠線
100
AcDbCircle
 10
136.112092
 20
0.0
 30
319.391661
 40
12.51000000000001
210
1.0
220
0.0
230
0.0
100
AcDbArc
 50
23.054409
 51
180.0
  0
LINE
  5
4FC
330
70
100
AcDbEntity
  8
隠線
100
AcDbLine
 10
322.391661
 20
156.112092
 30
0.0
 11
321.391661
 21
155.112092
 31
0.0
  0
LINE
  5
4FD
330
70
100
AcDbEntity
  8
隠線
100
AcDbLine
 10
243.391661
 20
155.112092
 30
0.0
 11
242.391661
 21
156.112092
 31
0.0
  0
LINE
  5
4FE
330
70
100
AcDbEntity
  8
隠線
100
AcDbLine
 10
321.391661
 20
155.112092
 30
0.0
 11
321.391661
 21
148.622092
 31
0.0
  0
LINE
  5
4FF
330
70
100
AcDbEntity
  8
表示
100
AcDbLine
 10
240.391661
 20
156.112092
 30
0.0
 11
242.391661
 21
156.112092
 31
0.0
  0
LINE
  5
500
330
70
100
AcDbEntity
  8
表示
100
AcDbLine
 10
322.391661
 20
156.112092
 30
0.0
 11
323.391661
 21
156.112092
 31
0.0
  0
LINE
  5
501
330
70
100
AcDbEntity
  8
表示
100
AcDbLine
 10
240.391661
 20
116.112092
 30
0.0
 11
323.391661
 21
116.112092
 31
0.0
  0
LINE
  5
502
330
70
100
AcDbEntity
  8
隠線
100
AcDbLine
 10
228.518549
 20
158.101842
 30
0.0
 11
227.508299
 21
159.112092
 31
0.0
  0
LINE
  5
503
330
70
100
AcDbEntity
  8
隠線
100
AcDbLine
 10
236.308299
 20
159.112092
 30
0.0
 11
235.298049
 21
158.101842
 31
0.0
  0
LINE
  5
504
330
70
100
AcDbEntity
  8
隠線
100
AcDbLine
 10
235.298049
 20
158.101842
 30
0.0
 11
235.298049
 21
148.613092
 31
0.0
  0
LINE
  5
505
330
70
100
AcDbEntity
  8
隠線
100
AcDbLine
 10
228.518549
 20
158.101842
 30
0.0
 11
228.518549
 21
148.613092
 31
0.0
  0
LINE
  5
506
330
70
100
AcDbEntity
  8
表示
100
AcDbLine
 10
225.391661
 20
159.112092
 30
0.0
 11
227.508299
 21
159.112092
 31
0.0
  0
LINE
  5
507
330
70
100
AcDbEntity
  8
表示
100
AcDbLine
 10
236.308299
 20
159.112092
 30
0.0
 11
238.891661
 21
159.112092
 31
0.0
  0
LINE
  5
508
330
70
100
AcDbEntity
  8
表示
100
AcDbLine
 10
225.391661
 20
113.112092
 30
0.0
 11
238.891661
 21
113.112092
 31
0.0
  0
LINE
  5
509
330
70
100
AcDbEntity
  8
隠線
100
AcDbLine
 10
243.391661
 20
155.112092
 30
0.0
 11
243.391661
 21
148.613092
 31
0.0
  0
LINE
  5
50A
330
70
100
AcDbEntity
  8
隠線
100
AcDbLine
 10
224.391661
 20
148.613092
 30
0.0
 11
228.518549
 21
148.613092
 31
0.0
  0
LINE
  5
50B
330
70
100
AcDbEntity
  8
隠線
100
AcDbLine
 10
235.298049
 20
148.613092
 30
0.0
 11
243.391661
 21
148.613092
 31
0.0
  0
LINE
  5
50C
330
70
100
AcDbEntity
  8
隠線
100
AcDbLine
 10
224.391661
 20
123.611092
 30
0.0
 11
319.391661
 21
123.611092
 31
0.0
  0
LINE
  5
50D
330
70
100
AcDbEntity
  8
表示
100
AcDbLine
 10
224.391661
 20
158.112092
 30
0.0
 11
225.391661
 21
159.112092
 31
0.0
  0
LINE
  5
50E
330
70
100
AcDbEntity
  8
表示
100
AcDbLine
 10
224.391661
 20
114.112092
 30
0.0
 11
225.391661
 21
113.112092
 31
0.0
  0
LINE
  5
50F
330
70
100
AcDbEntity
  8
表示
100
AcDbLine
 10
239.391661
 20
113.612092
 30
0.0
 11
238.891661
 21
113.112092
 31
0.0
  0
LINE
  5
510
330
70
100
AcDbEntity
  8
表示
100
AcDbLine
 10
239.391661
 20
158.612092
 30
0.0
 11
238.891661
 21
159.112092
 31
0.0
  0
LINE
  5
511
330
70
100
AcDbEntity
  8
隠線
100
AcDbLine
 10
323.891661
 20
148.622092
 30
0.0
 11
324.391661
 21
149.122092
 31
0.0
  0
LINE
  5
512
330
70
100
AcDbEntity
  8
隠線
100
AcDbLine
 10
323.891661
 20
123.602092
 30
0.0
 11
324.391661
 21
123.102092
 31
0.0
  0
LINE
  5
513
330
70
100
AcDbEntity
  8
隠線
100
AcDbLine
 10
321.391661
 20
148.622092
 30
0.0
 11
323.891661
 21
148.622092
 31
0.0
  0
LINE
  5
514
330
70
100
AcDbEntity
  8
隠線
100
AcDbLine
 10
319.391661
 20
123.602092
 30
0.0
 11
323.891661
 21
123.602092
 31
0.0
  0
ARC
  5
515
330
70
100
AcDbEntity
  8
表示
100
AcDbCircle
 10
-323.391661
 20
117.112092
 30
0.0
 40
1.0
210
0.0
220
0.0
230
-1.0
100
AcDbArc
 50
180.0
 51
270.0
  0
ARC
  5
516
330
70
100
AcDbEntity
  8
表示
100
AcDbCircle
 10
-323.391661
 20
155.112092
 30
0.0
 40
1.0
210
0.0
220
0.0
230
-1.0
100
AcDbArc
 50
90.0
 51
180.0
  0
LINE
  5
517
330
70
100
AcDbEntity
  8
表示
100
AcDbLine
 10
239.391661
 20
155.412092
 30
0.0
 11
240.391661
 21
155.412092
 31
0.0
  0
LINE
  5
518
330
70
100
AcDbEntity
  8
表示
100
AcDbLine
 10
239.391661
 20
116.812092
 30
0.0
 11
240.391661
 21
116.812092
 31
0.0
  0
LINE
  5
519
330
70
100
AcDbEntity
  8
狭い隠線
100
AcDbLine
 10
235.993299
 20
148.613092
 30
0.0
 11
235.993299
 21
158.101842
 31
0.0
  0
LINE
  5
51A
330
70
100
AcDbEntity
  8
狭い隠線
100
AcDbLine
 10
227.823299
 20
158.101842
 30
0.0
 11
227.823299
 21
148.613092
 31
0.0
  0
LINE
  5
51B
330
70
100
AcDbEntity
  8
隠線
100
AcDbLine
 10
131.676283
 20
223.225523
 30
24.0
 11
131.049593
 21
222.297816
 31
24.0
210
-0.0000000000000001
220
-1.0
230
0.0
  0
LINE
  5
51C
330
70
100
AcDbEntity
  8
隠線
100
AcDbLine
 10
131.049593
 20
208.297816
 30
24.0
 11
131.676283
 21
207.370109
 31
24.0
210
-0.0000000000000001
220
-1.0
230
0.0
  0
SPLINE
  5
51D
330
70
100
AcDbEntity
  8
隠線
100
AcDbSpline
 70
     4
 71
     3
 72
    27
 73
    23
 74
     0
 42
0.000000001
 43
0.0000000001
 40
-2.129095278636255
 40
-2.129095278636255
 40
-2.129095278636255
 40
-2.129095278636255
 40
-1.862882453828411
 40
-1.862882453828411
 40
-1.596669629020567
 40
-1.596669629020567
 40
-1.410433774729977
 40
-1.410433774729977
 40
-1.197580768322685
 40
-1.197580768322685
 40
-1.064547639318127
 40
-1.064547639318127
 40
-1.064547639318127
 40
-0.9315145103135703
 40
-0.9315145103135703
 40
-0.7186615039062786
 40
-0.7186615039062786
 40
-0.5324256496156883
 40
-0.5324256496156883
 40
-0.2662128248078441
 40
-0.2662128248078441
 40
0.0
 40
0.0
 40
0.0
 40
0.0
 10
131.0495927242828
 20
208.2978159641899
 30
24.00000000001091
 41
1.0
 10
131.0495927242828
 20
208.2978159641899
 30
24.9347407139885
 41
1.0
 10
131.1234350081413
 20
208.4985962575097
 30
25.9243339192999
 41
1.0
 10
131.3767778576002
 20
209.273537218984
 30
27.69330681812062
 41
1.0
 10
131.5508750174667
 20
209.8434048779839
 30
28.47319944188348
 41
1.0
 10
131.8185098648573
 20
210.9174383985768
 30
29.4940236583534
 41
1.0
 10
131.9316095390986
 20
211.4316959439105
 30
29.86958096783565
 41
1.0
 10
132.1374674586332
 20
212.6242506234525
 30
30.50946030519845
 41
1.0
 10
132.2238585076957
 20
213.3145260840788
 30
30.75018488602109
 41
1.0
 10
132.3002700949582
 20
214.4421447189457
 30
30.96150327099167
 41
1.0
 10
132.3145987290863
 20
214.8765443890088
 30
31.00000000001092
 41
1.0
 10
132.3145987290863
 20
215.2978159641899
 30
31.00000000001092
 41
1.0
 10
132.3145987290863
 20
215.719087539371
 30
31.00000000001092
 41
1.0
 10
132.3002700949582
 20
216.1534872094341
 30
30.96150327099167
 41
1.0
 10
132.2238585076957
 20
217.281105844301
 30
30.75018488602109
 41
1.0
 10
132.1374674586332
 20
217.9713813049273
 30
30.50946030519845
 41
1.0
 10
131.9316095390986
 20
219.1639359844693
 30
29.86958096783565
 41
1.0
 10
131.8185098648573
 20
219.678193529803
 30
29.4940236583534
 41
1.0
 10
131.5508750174667
 20
220.752227050396
 30
28.47319944188348
 41
1.0
 10
131.3767778576002
 20
221.3220947093958
 30
27.69330681812062
 41
1.0
 10
131.1234350081413
 20
222.0970356708701
 30
25.9243339192999
 41
1.0
 10
131.0495927242828
 20
222.2978159641899
 30
24.9347407139885
 41
1.0
 10
131.0495927242828
 20
222.2978159641899
 30
24.00000000001091
 41
1.0
1001
ACAD_VIEW_EDGE_ID
1071
       11
1071
       -1
1071
        2
1071
        0
  0
LINE
  5
51E
330
70
100
AcDbEntity
  8
隠線
100
AcDbLine
 10
124.825468
 20
220.196795
 30
-45.0
 11
124.815686
 21
220.196795
 31
-45.0
210
-0.0000000000000001
220
-1.0
230
0.0
  0
SPLINE
  5
51F
330
70
100
AcDbEntity
  8
隠線
100
AcDbSpline
 70
     0
 71
     3
 72
    14
 73
    10
 74
     0
 42
0.000000001
 43
0.0000000001
 40
2.7158118982387
 40
2.7158118982387
 40
2.7158118982387
 40
2.7158118982387
 40
2.978446020513369
 40
2.978446020513369
 40
3.248532316440724
 40
3.248532316440724
 40
3.518618612368078
 40
3.518618612368078
 40
3.781252734642747
 40
3.781252734642747
 40
3.781252734642747
 40
3.781252734642747
 10
124.8254675060507
 20
210.3988364786236
 30
-44.9999999999909
 10
125.0810894018232
 20
210.9994575074347
 30
-45.58848601974022
 10
125.3428653780738
 20
211.7546137417611
 30
-46.10472689774724
 10
125.7187570776113
 20
213.4505080783061
 30
-46.81591792518339
 10
125.8245987291084
 20
214.3975283110987
 30
-46.9999999999909
 10
125.8245987291084
 20
216.1981036172811
 30
-46.9999999999909
 10
125.7187570776113
 20
217.1451238500738
 30
-46.81591792518339
 10
125.3428653780738
 20
218.8410181866187
 30
-46.10472689774724
 10
125.0810894018232
 20
219.5961744209451
 30
-45.58848601974022
 10
124.8254675060507
 20
220.1967954497563
 30
-44.9999999999909
1001
ACAD_VIEW_EDGE_ID
1071
       15
1071
       -1
1071
        2
1071
        0
  0
LINE
  5
520
330
70
100
AcDbEntity
  8
隠線
100
AcDbLine
 10
124.815686
 20
210.398836
 30
-45.0
 11
124.825468
 21
210.398836
 31
-45.0
210
-0.0000000000000001
220
-1.0
230
0.0
  0
LINE
  5
521
330
70
100
AcDbEntity
  8
隠線
100
AcDbLine
 10
131.049593
 20
222.297816
 30
24.0
 11
123.671963
 21
222.297816
 31
24.0
210
-0.0000000000000001
220
-1.0
230
0.0
  0
CIRCLE
  5
522
330
70
100
AcDbEntity
  8
隠線
100
AcDbCircle
 10
-113.314599
 20
215.297816
 30
-34.0
 40
20.0
210
0.0000000000002963
220
0.0
230
-1.0
  0
SPLINE
  5
523
330
70
100
AcDbEntity
  8
隠線
100
AcDbSpline
 70
     0
 71
     3
 72
    24
 73
    20
 74
     0
 42
0.000000001
 43
0.0000000001
 40
-1.604823980074894
 40
-1.604823980074894
 40
-1.604823980074894
 40
-1.604823980074894
 40
-1.588556431701332
 40
-1.588556431701332
 40
-1.456845687395933
 40
-1.456845687395933
 40
-1.321923297318586
 40
-1.321923297318586
 40
-1.190023756260921
 40
-1.190023756260921
 40
-1.055649316390331
 40
-1.055649316390331
 40
-0.9263207406258704
 40
-0.9263207406258704
 40
-0.7929149796213525
 40
-0.7929149796213525
 40
-0.6642287470600917
 40
-0.6642287470600917
 40
-0.5349658064812206
 40
-0.5349658064812206
 40
-0.5349658064812206
 40
-0.5349658064812206
 10
135.0532803324004
 20
211.9080643932276
 30
42.48336196125274
 10
135.0532725651301
 20
211.9080652545498
 30
42.5374656637432
 10
135.0534517134492
 20
211.9093612584094
 30
42.59162260438279
 10
135.0568210396359
 20
211.9329976202425
 30
43.08433623684322
 10
135.0722704688942
 20
212.0389740527276
 30
43.51414270703753
 10
135.1212794577368
 20
212.412891882276
 30
44.31891579120929
 10
135.1546392125638
 20
212.6810075634241
 30
44.68422781821027
 10
135.220234711589
 20
213.3358981818893
 30
45.28219486460511
 10
135.2515933610357
 20
213.7141815163487
 30
45.51243876728404
 10
135.2954434883577
 20
214.5459689468215
 30
45.81881297816472
 10
135.3067779626053
 20
214.9922671935658
 30
45.88890042568709
 10
135.3011117778751
 20
215.8705485203632
 30
45.85207740047372
 10
135.2852961957524
 20
216.2933450418692
 30
45.75208093344372
 10
135.2356721357355
 20
217.0909347194521
 30
45.39406428334951
 10
135.2021184042678
 20
217.4560412764469
 30
45.13460108485742
 10
135.1378787922967
 20
218.0545746734217
 30
44.50168366713478
 10
135.1079209685194
 20
218.2872304908688
 30
44.13785019302486
 10
135.0653158662844
 20
218.6055653910319
 30
43.34031754937313
 10
135.0532905737764
 20
218.6875687733242
 30
42.91393802032871
 10
135.0532679926637
 20
218.6875661071525
 30
42.48336195945557
1001
ACAD_VIEW_EDGE_ID
1071
       24
1071
       -1
1071
        2
1071
        0
  0
ARC
  5
524
330
70
100
AcDbEntity
  8
表示
100
AcDbCircle
 10
113.314599
 20
215.297816
 30
49.0
 40
23.00000000000001
100
AcDbArc
 50
159.070615
 51
110.929385
  0
LINE
  5
525
330
70
100
AcDbEntity
  8
隠線
100
AcDbLine
 10
131.049593
 20
208.297816
 30
24.0
 11
123.671963
 21
208.297816
 31
24.0
210
-0.0000000000000001
220
-1.0
230
0.0
  0
CIRCLE
  5
526
330
70
100
AcDbEntity
  8
表示
100
AcDbCircle
 10
-113.314599
 20
215.297816
 30
-50.0
 40
12.501
210
0.0000000000002963
220
0.0
230
-1.0
  0
SPLINE
  5
527
330
70
100
AcDbEntity
  8
表示
100
AcDbSpline
210
0.7071067811852837
220
-0.7071067811878114
230
0.0000000000061921
 70
    12
 71
     2
 72
     6
 73
     3
 74
     0
 42
0.000000001
 43
0.0000000001
 40
0.0
 40
0.0
 40
0.0
 40
0.2996146208657667
 40
0.2996146208657667
 40
0.2996146208657667
 10
93.82854707641309
 20
225.5102491213596
 30
50.0
 41
1.0
 10
92.85250958029791
 20
224.5342116252443
 30
49.58857275562332
 41
1.001974113797337
 10
91.83210674345174
 20
223.5138087883966
 30
49.0
 41
1.0
1001
ACAD_VIEW_EDGE_ID
1071
       36
1071
       -1
1071
        2
1071
        0
  0
LINE
  5
528
330
70
100
AcDbEntity
  8
表示
100
AcDbLine
 10
103.102166
 20
234.783868
 30
50.0
 11
93.828547
 21
225.510249
 31
50.0
210
-0.0000000000000001
220
-1.0
230
0.0
  0
SPLINE
  5
529
330
70
100
AcDbEntity
  8
表示
100
AcDbSpline
210
0.7071067811887057
220
-0.7071067811843895
230
0.0000000000100436
 70
    12
 71
     2
 72
     6
 73
     3
 74
     0
 42
0.000000001
 43
0.0000000001
 40
0.0
 40
0.0
 40
0.0
 40
0.2996146208657656
 40
0.2996146208657656
 40
0.2996146208657656
 10
105.0986059048737
 20
236.7803079498182
 30
49.00000000000364
 41
1.0
 10
104.0782030680238
 20
235.7599051129705
 30
49.58857275562696
 41
1.001974113797535
 10
103.1021655719087
 20
234.7838676168553
 30
50.00000000000182
 41
1.0
1001
ACAD_VIEW_EDGE_ID
1071
       38
1071
       -1
1071
        2
1071
        0
  0
ARC
  5
52A
330
70
100
AcDbEntity
  8
表示
100
AcDbCircle
 10
-113.314599
 20
215.297816
 30
-50.0
 40
22.0
210
0.0000000000002963
220
0.0
230
-1.0
100
AcDbArc
 50
62.341443
 51
27.658557
  0
ARC
  5
52B
330
70
100
AcDbEntity
  8
隠線
100
AcDbCircle
 10
113.314599
 20
215.297816
 30
35.0
 40
22.50000000000001
100
AcDbArc
 50
156.03947
 51
113.96053
  0
CIRCLE
  5
52C
330
70
100
AcDbEntity
  8
隠線
100
AcDbCircle
 10
-113.314599
 20
215.297816
 30
-35.0
 40
19.3
210
0.0000000000002963
220
0.0
230
-1.0
  0
CIRCLE
  5
52D
330
70
100
AcDbEntity
  8
隠線
100
AcDbCircle
 10
-113.314599
 20
215.297816
 30
50.0
 40
13.01000000000001
210
0.0000000000002963
220
0.0
230
-1.0
  0
ARC
  5
52E
330
70
100
AcDbEntity
  8
隠線
100
AcDbCircle
 10
-113.314599
 20
215.297816
 30
45.0
 40
12.51000000000001
210
0.0000000000002963
220
0.0
230
-1.0
100
AcDbArc
 50
203.054409
 51
156.945591
  0
LINE
  5
52F
330
70
100
AcDbEntity
  8
隠線
100
AcDbLine
 10
135.053267
 20
218.687566
 30
42.483362
 11
135.892615
 21
219.683382
 31
42.483362
210
-0.0000000000000001
220
-1.0
230
0.0
  0
LINE
  5
530
330
70
100
AcDbEntity
  8
隠線
100
AcDbLine
 10
135.892615
 20
210.91225
 30
42.483362
 11
135.053267
 21
211.908066
 31
42.483362
210
-0.0000000000000001
220
-1.0
230
0.0
  0
LINE
  5
531
330
70
100
AcDbEntity
  8
隠線
100
AcDbLine
 10
135.053267
 20
211.908066
 30
42.483362
 11
125.347246
 21
211.908066
 31
42.483362
210
-0.0000000000000001
220
-1.0
230
0.0
  0
LINE
  5
532
330
70
100
AcDbEntity
  8
隠線
100
AcDbLine
 10
135.053267
 20
218.687566
 30
42.483362
 11
125.347246
 21
218.687566
 31
42.483362
210
-0.0000000000000001
220
-1.0
230
0.0
  0
LINE
  5
533
330
70
100
AcDbEntity
  8
狭い隠線
100
AcDbLine
 10
125.129326
 20
211.212816
 30
42.483362
 11
135.304349
 21
211.212816
 31
42.483362
210
-0.0000000000000001
220
-1.0
230
0.0
  0
LINE
  5
534
330
70
100
AcDbEntity
  8
狭い隠線
100
AcDbLine
 10
135.304349
 20
219.382816
 30
42.483362
 11
125.129326
 21
219.382816
 31
42.483362
210
-0.0000000000000001
220
-1.0
230
0.0
  0
LINE
  5
535
330
70
100
AcDbEntity
  8
細線
100
AcDbLine
 10
148.133205
 20
92.992628
 30
-16.904616
 11
148.576342
 21
94.006258
 31
-17.076561
210
0.0000000000000002
220
-0.8175471248425395
230
0.5758617009853119
  0
LINE
  5
536
330
70
100
AcDbEntity
  8
表示
100
AcDbLine
 10
148.576342
 20
94.006258
 30
-17.076561
 11
103.321508
 21
120.066783
 31
19.921398
210
0.0000000000000002
220
-0.8175471248425395
230
0.5758617009853119
  0
LINE
  5
537
330
70
100
AcDbEntity
  8
細線
100
AcDbLine
 10
103.321508
 20
120.066783
 30
19.921398
 11
102.878371
 21
119.053153
 31
20.093344
210
0.0000000000000002
220
-0.8175471248425395
230
0.5758617009853119
  0
LINE
  5
538
330
70
100
AcDbEntity
  8
表示
100
AcDbLine
 10
102.878371
 20
119.053153
 30
20.093344
 11
148.133205
 21
92.992628
 31
-16.904616
210
0.0000000000000002
220
-0.8175471248425395
230
0.5758617009853119
  0
LINE
  5
539
330
70
100
AcDbEntity
  8
細線
100
AcDbLine
 10
148.133205
 20
81.546968
 30
-8.842552
 11
148.576342
 21
81.04371
 31
-7.946036
210
0.0000000000000002
220
-0.8175471248425395
230
0.5758617009853119
  0
SPLINE
  5
53A
330
70
100
AcDbEntity
  8
表示
100
AcDbSpline
 70
     4
 71
     3
 72
    27
 73
    23
 74
     0
 42
0.000000001
 43
0.0000000001
 40
-2.129095278636254
 40
-2.129095278636254
 40
-2.129095278636254
 40
-2.129095278636254
 40
-1.862882453828411
 40
-1.862882453828411
 40
-1.596669629020567
 40
-1.596669629020567
 40
-1.410433774729977
 40
-1.410433774729977
 40
-1.197580768322684
 40
-1.197580768322684
 40
-1.064547639318127
 40
-1.064547639318127
 40
-1.064547639318127
 40
-0.93151451031357
 40
-0.93151451031357
 40
-0.7186615039062789
 40
-0.7186615039062789
 40
-0.5324256496156883
 40
-0.5324256496156883
 40
-0.2662128248078441
 40
-0.2662128248078441
 40
0.0
 40
0.0
 40
0.0
 40
0.0
 10
148.576341954491
 20
81.04370952424108
 30
-7.946035646800339
 41
1.0
 10
149.2994726975394
 20
80.62728622451425
 30
-8.53722910666562
 41
1.0
 10
150.1299801803961
 20
80.38859692573751
 30
-9.227355290659374
 41
1.0
 10
151.7481137295417
 20
80.37453142190187
 30
-10.64783485654027
 41
1.0
 10
152.5327432081867
 20
80.59532420615903
 30
-11.38194300260242
 41
1.0
 10
153.620228423857
 20
81.21607630935981
 30
-12.55119154730573
 41
1.0
 10
154.0421329329601
 20
81.56508741320312
 30
-13.05661760923652
 41
1.0
 10
154.7851646804029
 20
82.48028184733076
 30
-14.13651609528345
 41
1.0
 10
155.081304323312
 20
83.06980193382027
 30
-14.71074003343373
 41
1.0
 10
155.3430905949572
 20
84.10484112707717
 30
-15.57929505041495
 41
1.0
 10
155.3916601013697
 20
84.52020574747743
 30
-15.89710193174338
 41
1.0
 10
155.3916601013697
 20
84.93453280319736
 30
-16.1889445372899
 41
1.0
 10
155.3916601013697
 20
85.3488598589173
 30
-16.48078714283643
 41
1.0
 10
155.3430905949572
 20
85.78798398632146
 30
-16.76486280605031
 41
1.0
 10
155.081304323312
 20
86.95437173580421
 30
-17.44694312900145
 41
1.0
 10
154.7851646804029
 20
87.69358487153501
 30
-17.80864881527602
 41
1.0
 10
154.0421329329601
 20
89.01861141593462
 30
-18.30671131040941
 41
1.0
 10
153.620228423857
 20
89.61204989326793
 30
-18.46512541428409
 41
1.0
 10
152.5327432081867
 20
90.92204905115691
 30
-18.65585438232027
 41
1.0
 10
151.7481137295417
 20
91.6876322224849
 30
-18.61652714653734
 41
1.0
 10
150.1299801803961
 20
93.02040216546703
 30
-18.12491315714546
 41
1.0
 10
149.2994726975394
 20
93.58983422214448
 30
-17.66775469007683
 41
1.0
 10
148.576341954491
 20
94.0062575218713
 30
-17.07656123021155
 41
1.0
1001
ACAD_VIEW_EDGE_ID
1071
        5
1071
       -1
1071
        2
1071
        0
  0
SPLINE
  5
53B
330
70
100
AcDbEntity
  8
表示
100
AcDbSpline
 70
     4
 71
     3
 72
    27
 73
    23
 74
     0
 42
0.000000001
 43
0.0000000001
 40
0.0
 40
0.0
 40
0.0
 40
0.0
 40
0.2662128248078441
 40
0.2662128248078441
 40
0.5324256496156883
 40
0.5324256496156883
 40
0.7186615039062789
 40
0.7186615039062789
 40
0.93151451031357
 40
0.93151451031357
 40
1.064547639318127
 40
1.064547639318127
 40
1.064547639318127
 40
1.197580768322684
 40
1.197580768322684
 40
1.410433774729977
 40
1.410433774729977
 40
1.596669629020567
 40
1.596669629020567
 40
1.862882453828411
 40
1.862882453828411
 40
2.129095278636254
 40
2.129095278636254
 40
2.129095278636254
 40
2.129095278636254
 10
148.1332047464511
 20
92.9926276505626
 30
-16.90461589574671
 41
1.0
 10
148.794166243957
 20
92.612005238324
 30
-17.44498306766355
 41
1.0
 10
149.5461286897025
 20
92.07496803667863
 30
-17.85875069001223
 41
1.0
 10
150.9761218690128
 20
90.82425922190831
 30
-18.28866716758608
 41
1.0
 10
151.6506945142009
 20
90.11168823941849
 30
-18.31070839546842
 41
1.0
 10
152.5617726555374
 20
88.92691973991048
 30
-18.12762721462992
 41
1.0
 10
152.9073053224019
 20
88.39961833817232
 30
-17.98321094198256
 41
1.0
 10
153.5053318718564
 20
87.24791702766125
 30
-17.5473691695091
 41
1.0
 10
153.7366375519796
 20
86.62074035684966
 30
-17.2390851208706
 41
1.0
 10
153.9400933664965
 20
85.64392551420738
 30
-16.66772142677842
 41
1.0
 10
153.9774465389964
 20
85.27894216826457
 30
-16.43153870314954
 41
1.0
 10
153.9774465389964
 20
84.93453280319736
 30
-16.188944537289
 41
1.0
 10
153.9774465389964
 20
84.59012343813018
 30
-15.94635037142844
 41
1.0
 10
153.9400933664965
 20
84.24482238148769
 30
-15.68222482923733
 41
1.0
 10
153.7366375519796
 20
83.37787447842144
 30
-14.95488375305518
 41
1.0
 10
153.5053318718564
 20
82.87638571286422
 30
-14.46816139988427
 41
1.0
 10
152.9073053224019
 20
82.07814772442107
 30
-13.53051003979961
 41
1.0
 10
152.5617726555374
 20
81.764589570927
 30
-13.08264386284621
 41
1.0
 10
151.6506945142009
 20
81.19321203694445
 30
-12.02873550351691
 41
1.0
 10
150.9761218690128
 20
80.97399568712209
 30
-11.35036435673822
 41
1.0
 10
149.5461286897025
 20
80.95760299194035
 30
-10.02793023868879
 41
1.0
 10
148.794166243957
 20
81.16634549052845
 30
-9.382919253869189
 41
1.0
 10
148.1332047464511
 20
81.54696790276705
 30
-8.842552081952348
 41
1.0
1001
ACAD_VIEW_EDGE_ID
1071
        6
1071
       -1
1071
        2
1071
        0
  0
LINE
  5
53C
330
70
100
AcDbEntity
  8
細線
100
AcDbLine
 10
102.878371
 20
107.607494
 30
28.155407
 11
103.321508
 21
107.104235
 31
29.051924
210
0.0000000000000002
220
-0.8175471248425395
230
0.5758617009853119
  0
LINE
  5
53D
330
70
100
AcDbEntity
  8
表示
100
AcDbLine
 10
103.321508
 20
107.104235
 30
29.051924
 11
148.576342
 21
81.04371
 31
-7.946036
210
0.0000000000000002
220
-0.8175471248425395
230
0.5758617009853119
  0
LINE
  5
53E
330
70
100
AcDbEntity
  8
表示
100
AcDbLine
 10
148.133205
 20
81.546968
 30
-8.842552
 11
102.878371
 21
107.607494
 31
28.155407
210
0.0000000000000002
220
-0.8175471248425395
230
0.5758617009853119
  0
SPLINE
  5
53F
330
70
100
AcDbEntity
  8
表示
100
AcDbSpline
 70
     4
 71
     3
 72
    27
 73
    23
 74
     0
 42
0.000000001
 43
0.0000000001
 40
0.0
 40
0.0
 40
0.0
 40
0.0
 40
0.2662128248078441
 40
0.2662128248078441
 40
0.5324256496156883
 40
0.5324256496156883
 40
0.7186615039062786
 40
0.7186615039062786
 40
0.9315145103135703
 40
0.9315145103135703
 40
1.064547639318127
 40
1.064547639318127
 40
1.064547639318127
 40
1.197580768322685
 40
1.197580768322685
 40
1.410433774729977
 40
1.410433774729977
 40
1.596669629020567
 40
1.596669629020567
 40
1.862882453828411
 40
1.862882453828411
 40
2.129095278636255
 40
2.129095278636255
 40
2.129095278636255
 40
2.129095278636255
 10
103.3215079585443
 20
120.066783204577
 30
19.9213981883891
 41
1.0
 10
102.5983772154959
 20
120.4832065043038
 30
20.51259164825347
 41
1.0
 10
101.8967145123915
 20
120.7960925771129
 30
21.30805451148658
 41
1.0
 10
100.7273057424445
 20
121.0685614955715
 30
23.09538773044516
 41
1.0
 10
100.2542838466161
 20
121.0272115839942
 30
24.08424975991696
 41
1.0
 10
99.65583542270724
 20
120.688077039541
 30
25.65330892766684
 41
1.0
 10
99.44360792687621
 20
120.4598108972177
 30
26.33015582894444
 41
1.0
 10
99.08776544805551
 20
119.7675839339224
 30
27.72659978832211
 41
1.0
 10
98.95779235817464
 20
119.2737528013081
 30
28.43667271414899
 41
1.0
 10
98.84374713169018
 20
118.3237920176222
 30
29.42601299782046
 41
1.0
 10
98.82311760643824
 20
117.9245169622989
 30
29.76666213041531
 41
1.0
 10
98.82311760643824
 20
117.510189906579
 30
30.05850473596183
 41
1.0
 10
98.82311760643824
 20
117.0958628508591
 30
30.35034734150836
 41
1.0
 10
98.84374713169018
 20
116.6406491583779
 30
30.61158075345583
 41
1.0
 10
98.95779235817464
 20
115.3891829993242
 30
31.17287580971668
 41
1.0
 10
99.08776544805551
 20
114.5542809097182
 30
31.39873250831467
 41
1.0
 10
99.44360792687621
 20
113.0062868944862
 30
31.58024953011733
 41
1.0
 10
99.65583542270724
 20
112.292103455633
 30
31.56724279464511
 41
1.0
 10
100.2542838466161
 20
110.7004867389963
 30
31.35816113963481
 41
1.0
 10
100.7273057424445
 20
109.7554606949884
 30
31.06408002044227
 41
1.0
 10
101.8967145123915
 20
108.1642873373834
 30
30.20561237797268
 41
1.0
 10
102.5983772154959
 20
107.5206585066736
 30
29.64311723166469
 41
1.0
 10
103.3215079585443
 20
107.1042352069468
 30
29.05192377180032
 41
1.0
1001
ACAD_VIEW_EDGE_ID
1071
       10
1071
       -1
1071
        2
1071
        0
  0
SPLINE
  5
540
330
70
100
AcDbEntity
  8
表示
100
AcDbSpline
 70
     4
 71
     3
 72
     8
 73
     4
 74
     0
 42
0.000000001
 43
0.0000000001
 40
-2.129095278636255
 40
-2.129095278636255
 40
-2.129095278636255
 40
-2.129095278636255
 40
-1.909157202908984
 40
-1.909157202908984
 40
-1.909157202908984
 40
-1.909157202908984
 10
102.8783707505063
 20
107.6074935854727
 30
28.15540733664831
 41
1.0
 10
102.3323016420927
 20
107.9219538710982
 30
28.60184456619619
 41
1.0
 10
101.7953978638907
 20
108.3842241218488
 30
29.02014372849517
 41
1.0
 10
101.3230640024649
 20
108.946252777684
 30
29.3558841528888
 41
1.0
1001
ACAD_VIEW_EDGE_ID
1071
       11
1071
       -1
1071
        2
1071
        0
  0
SPLINE
  5
541
330
70
100
AcDbEntity
  8
隠線
100
AcDbSpline
 70
     4
 71
     3
 72
    19
 73
    15
 74
     0
 42
0.000000001
 43
0.0000000001
 40
-1.909157202908984
 40
-1.909157202908984
 40
-1.909157202908984
 40
-1.909157202908984
 40
-1.862882453828411
 40
-1.862882453828411
 40
-1.596669629020567
 40
-1.596669629020567
 40
-1.410433774729977
 40
-1.410433774729977
 40
-1.197580768322685
 40
-1.197580768322685
 40
-1.064547639318127
 40
-1.064547639318127
 40
-1.064547639318127
 40
-1.015078317171078
 40
-1.015078317171078
 40
-1.015078317171078
 40
-1.015078317171078
 10
101.3230640024649
 20
108.946252777684
 30
29.3558841528888
 41
1.0
 10
101.2236854348957
 20
109.0645030394408
 30
29.42652359921392
 41
1.0
 10
101.1271652313007
 20
109.187169379852
 30
29.49350835719324
 41
1.0
 10
100.4981632808903
 20
110.0423187819355
 30
29.9177455548898
 41
1.0
 10
100.0698012003577
 20
110.8966729989867
 30
30.14107552201235
 41
1.0
 10
99.53721588996451
 20
112.2994010239331
 30
30.26743006688526
 41
1.0
 10
99.35163031631056
 20
112.9188098308361
 30
30.25377808041905
 41
1.0
 10
99.04473082858386
 20
114.2381600663165
 30
30.0559464002266
 41
1.0
 10
98.93560054171212
 20
114.9356928669041
 30
29.84754649306565
 41
1.0
 10
98.84020703022361
 20
115.9747366511815
 30
29.36452882411964
 41
1.0
 10
98.82311760643824
 20
116.3513891139275
 30
29.14491266999111
 41
1.0
 10
98.82311760643824
 20
116.6957984789947
 30
28.90231850413056
 41
1.0
 10
98.82311760643824
 20
116.823869568944
 30
28.81210812546962
 41
1.0
 10
98.82548069352379
 20
116.9504503807724
 30
28.7166296485471
 41
1.0
 10
98.83033598041402
 20
117.074854606046
 30
28.6161434748971
 41
1.0
1001
ACAD_VIEW_EDGE_ID
1071
       11
1071
       -1
1071
        2
1071
        0
  0
SPLINE
  5
542
330
70
100
AcDbEntity
  8
表示
100
AcDbSpline
 70
     4
 71
     3
 72
    16
 73
    12
 74
     0
 42
0.000000001
 43
0.0000000001
 40
-1.015078317171078
 40
-1.015078317171078
 40
-1.015078317171078
 40
-1.015078317171078
 40
-0.9315145103135703
 40
-0.9315145103135703
 40
-0.7186615039062786
 40
-0.7186615039062786
 40
-0.5324256496156883
 40
-0.5324256496156883
 40
-0.2662128248078441
 40
-0.2662128248078441
 40
0.0
 40
0.0
 40
0.0
 40
0.0
 10
98.83033598041402
 20
117.074854606046
 30
28.6161434748971
 41
1.0
 10
98.83853755339806
 20
117.2849987964622
 30
28.44640176746647
 41
1.0
 10
98.85385039972426
 20
117.4889322882412
 30
28.26237103708495
 41
1.0
 10
98.93560054171212
 20
118.1785587453323
 30
27.56334512525022
 41
1.0
 10
99.04473082858386
 20
118.6096913811136
 30
26.97673863060177
 41
1.0
 10
99.35163031631056
 20
119.2402804445873
 30
25.8010771782361
 41
1.0
 10
99.53721588996451
 20
119.4617311929166
 30
25.22244671510156
 41
1.0
 10
100.0698012003577
 20
119.8151492014608
 30
23.85910263006085
 41
1.0
 10
100.4981632808903
 20
119.8925823167217
 30
22.97944274404193
 41
1.0
 10
101.5698755665635
 20
119.7026547670636
 30
21.36409711151635
 41
1.0
 10
102.2174092530022
 20
119.4337757455069
 30
20.63371069476987
 41
1.0
 10
102.8783707505063
 20
119.0531533332683
 30
20.09334352285394
 41
1.0
1001
ACAD_VIEW_EDGE_ID
1071
       11
1071
       -1
1071
        2
1071
        0
  0
LINE
  5
543
330
70
100
AcDbEntity
  8
細線
100
AcDbLine
 10
148.133205
 20
92.992628
 30
-16.904616
 11
142.916433
 21
89.988489
 31
-21.169573
210
0.0000000000000002
220
-0.8175471248425395
230
0.5758617009853119
  0
SPLINE
  5
544
330
70
100
AcDbEntity
  8
表示
100
AcDbSpline
 70
     0
 71
     3
 72
    12
 73
     8
 74
     0
 42
0.000000001
 43
0.0000000001
 40
-0.5501530237473406
 40
-0.5501530237473406
 40
-0.5501530237473406
 40
-0.5501530237473406
 40
-0.5427003136208377
 40
-0.5427003136208377
 40
-0.2713501568104188
 40
-0.2713501568104188
 40
0.0
 40
0.0
 40
0.0
 40
0.0
 10
147.2607007064744
 20
86.70054557125066
 30
-22.18896297695527
 10
147.2437601813817
 20
86.71832202069778
 30
-22.19332059723289
 10
147.2267860529427
 20
86.73602511922158
 30
-22.1975747959122
 10
146.5906643685994
 20
87.39550620296784
 30
-22.35285554066704
 10
145.8367014403811
 20
88.02743640414899
 30
-22.38308743884564
 10
144.3169299784731
 20
89.1374927236329
 30
-22.05647807857792
 10
143.5560114096061
 20
89.62017983793344
 30
-21.69245819916661
 10
142.9164329564173
 20
89.98848857390028
 30
-21.16957267365025
1001
ACAD_VIEW_EDGE_ID
1071
       13
1071
       -1
1071
        2
1071
        0
  0
LINE
  5
545
330
70
100
AcDbEntity
  8
表示
100
AcDbLine
 10
147.267618
 20
86.704529
 30
-22.183308
 11
147.260701
 21
86.700546
 31
-22.188963
210
0.0000000000000002
220
-0.8175471248425395
230
0.5758617009853119
  0
SPLINE
  5
546
330
70
100
AcDbEntity
  8
隠線
100
AcDbSpline
 70
     0
 71
     3
 72
    10
 73
     6
 74
     0
 42
0.000000001
 43
0.0000000001
 40
2.7158118982387
 40
2.7158118982387
 40
2.7158118982387
 40
2.7158118982387
 40
2.978446020513369
 40
2.978446020513369
 40
3.101046606386396
 40
3.101046606386396
 40
3.101046606386396
 40
3.101046606386396
 10
147.2676175036049
 20
78.69423550363682
 30
-16.54103885004725
 10
147.8644919347243
 20
79.04973065430252
 30
-17.07933995595193
 10
148.4146329282466
 20
79.56348944517737
 30
-17.66130991750795
 10
148.970503474673
 20
80.46737950541984
 30
-18.50770533422484
 10
149.109348353033
 20
80.77743171492242
 30
-18.77648860112959
 10
149.2082344818609
 20
81.09911677535563
 30
-19.03820673299516
1001
ACAD_VIEW_EDGE_ID
1071
       15
1071
       -1
1071
        2
1071
        0
  0
SPLINE
  5
547
330
70
100
AcDbEntity
  8
表示
100
AcDbSpline
 70
     0
 71
     3
 72
    12
 73
     8
 74
     0
 42
0.000000001
 43
0.0000000001
 40
3.101046606386396
 40
3.101046606386396
 40
3.101046606386396
 40
3.101046606386396
 40
3.248532316440724
 40
3.248532316440724
 40
3.518618612368078
 40
3.518618612368078
 40
3.781252734642747
 40
3.781252734642747
 40
3.781252734642747
 40
3.781252734642747
 10
149.2082344818609
 20
81.09911677535563
 30
-19.03820673299516
 10
149.3271922406729
 20
81.48609657005996
 30
-19.35304767961342
 10
149.3883235290977
 20
81.88991089331706
 30
-19.65766428670655
 10
149.3883235290977
 20
83.02786020300056
 30
-20.45921003886809
 10
149.183316496199
 20
83.833953036505
 30
-20.95933247088902
 10
148.4146329282466
 20
85.35695902454211
 30
-21.74209883499354
 10
147.8644919347243
 20
86.07795185002819
 30
-22.02985998065524
 10
147.2676175036049
 20
86.70452868981154
 30
-22.18330816934803
1001
ACAD_VIEW_EDGE_ID
1071
       15
1071
       -1
1071
        2
1071
        0
  0
LINE
  5
548
330
70
100
AcDbEntity
  8
隠線
100
AcDbLine
 10
147.260701
 20
78.690252
 30
-16.546694
 11
147.267618
 21
78.694236
 31
-16.541039
210
0.0000000000000002
220
-0.8175471248425395
230
0.5758617009853119
  0
SPLINE
  5
549
330
70
100
AcDbEntity
  8
隠線
100
AcDbSpline
 70
     0
 71
     3
 72
    12
 73
     8
 74
     0
 42
0.000000001
 43
0.0000000001
 40
2.165785998597347
 40
2.165785998597347
 40
2.165785998597347
 40
2.165785998597347
 40
2.437136155407766
 40
2.437136155407766
 40
2.708486312218184
 40
2.708486312218184
 40
2.715939022352569
 40
2.715939022352569
 40
2.715939022352569
 40
2.715939022352569
 10
142.9164329564173
 20
78.54282882610471
 30
-13.10750885985588
 10
143.5560114096061
 20
78.17452009013789
 30
-13.63039438537224
 10
144.3169299784731
 20
77.99431618281255
 30
-14.20747659329676
 10
145.8367014403811
 20
78.06061457307262
 30
-15.3626836007591
 10
146.5906643685994
 20
78.30189355730775
 30
-15.94752049990111
 10
147.2267860529591
 20
78.67019527152189
 30
-16.51618670853652
 10
147.2437601813981
 20
78.68016278695691
 30
-16.5314230643925
 10
147.2607007064744
 20
78.69025238507593
 30
-16.54669365765449
1001
ACAD_VIEW_EDGE_ID
1071
       17
1071
       -1
1071
        2
1071
        0
  0
LINE
  5
54A
330
70
100
AcDbEntity
  8
狭い隠線
100
AcDbLine
 10
148.133205
 20
81.546968
 30
-8.842552
 11
142.916433
 21
78.542829
 31
-13.107509
210
0.0000000000000002
220
-0.8175471248425395
230
0.5758617009853119
  0
LINE
  5
54B
330
70
100
AcDbEntity
  8
細線
100
AcDbLine
 10
102.878371
 20
119.053153
 30
20.093344
 11
98.84552
 21
116.730789
 31
16.796298
210
0.0000000000000002
220
-0.8175471248425395
230
0.5758617009853119
  0
LINE
  5
54C
330
70
100
AcDbEntity
  8
狭い隠線
100
AcDbLine
 10
98.84552
 20
116.730789
 30
16.796298
 11
97.661599
 21
116.049014
 31
15.828387
210
0.0000000000000002
220
-0.8175471248425395
230
0.5758617009853119
  0
LINE
  5
54D
330
70
100
AcDbEntity
  8
表示
100
AcDbLine
 10
142.916433
 20
89.988489
 30
-21.169573
 11
98.989547
 21
115.2843
 31
14.742726
210
0.0000000000000002
220
-0.8175471248425395
230
0.5758617009853119
  0
LINE
  5
54E
330
70
100
AcDbEntity
  8
隠線
100
AcDbLine
 10
98.989547
 20
115.2843
 30
14.742726
 11
97.661599
 21
116.049014
 31
15.828387
210
0.0000000000000002
220
-0.8175471248425395
230
0.5758617009853119
  0
ARC
  5
54F
330
70
100
AcDbEntity
  8
細線
100
AcDbCircle
 10
137.033541
 20
25.964248
 30
85.652236
 40
19.99999999999999
210
0.7071067811866526
220
-0.4071957137922736
230
-0.5780931159156392
100
AcDbArc
 50
0.0
 51
180.0
  0
ARC
  5
550
330
70
100
AcDbEntity
  8
狭い隠線
100
AcDbCircle
 10
137.033541
 20
25.964248
 30
85.652236
 40
19.99999999999999
210
0.7071067811866526
220
-0.4071957137922736
230
-0.5780931159156392
100
AcDbArc
 50
180.0
 51
0.0
  0
CIRCLE
  5
551
330
70
100
AcDbEntity
  8
隠線
100
AcDbCircle
 10
137.033541
 20
25.964248
 30
2.652236
 40
20.0
210
0.7071067811866526
220
-0.4071957137922736
230
-0.5780931159156392
  0
LINE
  5
552
330
70
100
AcDbEntity
  8
細線
100
AcDbLine
 10
96.642851
 20
121.208896
 30
35.309534
 11
95.214142
 21
121.208896
 31
35.309534
210
0.0000000000000002
220
-0.8175471248425395
230
0.5758617009853119
  0
SPLINE
  5
553
330
70
100
AcDbEntity
  8
表示
100
AcDbSpline
 70
     0
 71
     3
 72
    18
 73
    14
 74
     0
 42
0.000000001
 43
0.0000000001
 40
-2.139424351833925
 40
-2.139424351833925
 40
-2.139424351833925
 40
-2.139424351833925
 40
-2.06254970388277
 40
-2.06254970388277
 40
-1.982768075385631
 40
-1.982768075385631
 40
-1.851128304663836
 40
-1.851128304663836
 40
-1.721929901447406
 40
-1.721929901447406
 40
-1.588556431701332
 40
-1.588556431701332
 40
-1.579402780390708
 40
-1.579402780390708
 40
-1.579402780390708
 40
-1.579402780390708
 10
95.2141422046643
 20
121.2088959632943
 30
35.30953375409536
 10
95.2141422046643
 20
120.9994004719418
 30
35.45709763920135
 10
95.19039270512621
 20
120.8006675412598
 30
35.6182789554815
 10
95.09515049240508
 20
120.4254816401249
 30
35.96875086124703
 10
95.02225723208539
 20
120.251594992085
 30
36.15754713714674
 10
94.7708462470382
 20
119.8468061249672
 30
36.6766909016345
 10
94.55680325204411
 20
119.6560343741057
 30
37.01458352614832
 10
94.05239285399693
 20
119.4257189791529
 30
37.68414974609145
 10
93.76793646362058
 20
119.3854693795856
 30
38.01032152744296
 10
93.15766954380706
 20
119.4632786923781
 30
38.63288944169514
 10
92.83709377128435
 20
119.585733498679
 30
38.92176922326606
 10
92.50382160673508
 20
119.7989070388834
 30
39.1848771199543
 10
92.48248993956076
 20
119.8129405743206
 30
39.20154904802116
 10
92.46123535988772
 20
119.827311379902
 30
39.21799100086356
1001
ACAD_VIEW_EDGE_ID
1071
       24
1071
       -1
1071
        2
1071
        0
  0
SPLINE
  5
554
330
70
100
AcDbEntity
  8
隠線
100
AcDbSpline
 70
     0
 71
     3
 72
    16
 73
    12
 74
     0
 42
0.000000001
 43
0.0000000001
 40
-1.579402780390708
 40
-1.579402780390708
 40
-1.579402780390708
 40
-1.579402780390708
 40
-1.456845687395933
 40
-1.456845687395933
 40
-1.321923297318586
 40
-1.321923297318586
 40
-1.190023756260921
 40
-1.190023756260921
 40
-1.055649316390331
 40
-1.055649316390331
 40
-1.023239819532745
 40
-1.023239819532745
 40
-1.023239819532745
 40
-1.023239819532745
 10
92.46123535988772
 20
119.827311379902
 30
39.21799100086356
 10
92.17666044994075
 20
120.0197202991845
 30
39.43813025188963
 10
91.90590439775224
 20
120.2725889302371
 30
39.61704369065138
 10
91.38984490828624
 20
120.9035108756647
 30
39.88573213131498
 10
91.15511920560129
 20
121.2850455206829
 30
39.9618039916924
 10
90.77867567434623
 20
122.0906492872233
 30
39.96827850567184
 10
90.63804256310868
 20
122.506437177629
 30
39.90167025572413
 10
90.45241000339775
 20
123.3290724492743
 30
39.62513801009515
 10
90.41086537758202
 20
123.7270969552759
 30
39.41520139503836
 10
90.42479943312173
 20
124.1702899660765
 30
39.07978338121278
 10
90.43056669274847
 20
124.2535749832436
 30
39.01144413092905
 10
90.43937932113477
 20
124.3338022887254
 30
38.94023792337256
1001
ACAD_VIEW_EDGE_ID
1071
       24
1071
       -1
1071
        2
1071
        0
  0
SPLINE
  5
555
330
70
100
AcDbEntity
  8
表示
100
AcDbSpline
 70
     0
 71
     3
 72
    22
 73
    18
 74
     0
 42
0.000000001
 43
0.0000000001
 40
-1.023239819532745
 40
-1.023239819532745
 40
-1.023239819532745
 40
-1.023239819532745
 40
-0.9263207406258704
 40
-0.9263207406258704
 40
-0.7929149796213525
 40
-0.7929149796213525
 40
-0.6642287470600917
 40
-0.6642287470600917
 40
-0.5305610481199114
 40
-0.5305610481199114
 40
-0.3997508095741845
 40
-0.3997508095741845
 40
-0.2649325409502911
 40
-0.2649325409502911
 40
-0.1335344167602119
 40
-0.1335344167602119
 40
0.0
 40
0.0
 40
0.0
 40
0.0
 10
90.43937932113477
 20
124.3338022887254
 30
38.94023792337256
 10
90.46573307262042
 20
124.5737182795406
 30
38.72729910240736
 10
90.51932097669487
 20
124.7862897373077
 30
38.48872162875625
 10
90.71048795704337
 20
125.2124074129483
 30
37.87949198737265
 10
90.87023007311108
 20
125.3915839909327
 30
37.49985003436383
 10
91.27234600586779
 20
125.5970338944202
 30
36.75215589470724
 10
91.50843174228976
 20
125.6268908604233
 30
36.39053028151187
 10
92.05136157838024
 20
125.5436465335023
 30
35.71011175577569
 10
92.35523642585212
 20
125.4258901725524
 30
35.40042364745934
 10
92.97971351980777
 20
125.0582464242192
 30
34.89836752580659
 10
93.29332967637673
 20
124.8150400648136
 30
34.70883052842916
 10
93.90199968179695
 20
124.2218371667666
 30
34.46088475516852
 10
94.18993760174634
 20
123.8747329001979
 30
34.40913388988729
 10
94.67528332035909
 20
123.1332841847469
 30
34.45106381298569
 10
94.87039654635191
 20
122.7466477399723
 30
34.54055455587225
 10
95.14226474367205
 20
121.962644404069
 30
34.84224865943168
 10
95.2141422046643
 20
121.5727982249271
 30
35.0532092328433
 10
95.2141422046643
 20
121.2088959632943
 30
35.30953375409536
1001
ACAD_VIEW_EDGE_ID
1071
       24
1071
       -1
1071
        2
1071
        0
  0
SPLINE
  5
556
330
70
100
AcDbEntity
  8
表示
100
AcDbSpline
 70
     5
 71
     3
 72
    42
 73
    38
 74
     0
 42
0.000000001
 43
0.0000000001
 40
-2.565512101571685
 40
-2.565512101571685
 40
-2.565512101571685
 40
-2.565512101571685
 40
-2.437237550730735
 40
-2.437237550730735
 40
-2.308962999889785
 40
-2.308962999889785
 40
-2.180686340573566
 40
-2.180686340573566
 40
-2.052409681257348
 40
-2.052409681257348
 40
-1.924133021941129
 40
-1.924133021941129
 40
-1.79585636262491
 40
-1.79585636262491
 40
-1.66758181178396
 40
-1.66758181178396
 40
-1.539307260943011
 40
-1.539307260943011
 40
-1.411032710102061
 40
-1.411032710102061
 40
-1.282758159261111
 40
-1.282758159261111
 40
-1.154481499944892
 40
-1.154481499944892
 40
-1.026204840628674
 40
-1.026204840628674
 40
-0.8979281813124554
 40
-0.8979281813124554
 40
-0.8064173725415127
 40
-0.8064173725415127
 40
-0.769651521996237
 40
-0.769651521996237
 40
-0.6798661318621173
 40
-0.6798661318621173
 40
-0.5772423093711757
 40
-0.5772423093711757
 40
-0.5131024203143371
 40
-0.5131024203143371
 40
-0.5131024203143371
 40
-0.5131024203143371
 10
96.64285145605209
 20
121.2088959632948
 30
35.30953375409445
 41
1.0
 10
96.64285145605209
 20
121.6612784701714
 30
34.99088574960643
 41
1.0
 10
96.54893503972743
 20
122.1794326562737
 30
34.70269921309518
 41
1.0
 10
96.17548478679237
 20
123.2139442338771
 30
34.29350647684708
 41
1.0
 10
95.89688724200096
 20
123.7307859511394
 30
34.17299691204343
 41
1.0
 10
95.27132724765033
 20
124.6394144137055
 30
34.11527836366047
 41
1.0
 10
94.8824309426509
 20
125.0923415762164
 30
34.17427443630238
 41
1.0
 10
94.05910471382957
 20
125.8665432223968
 30
34.49772319795441
 41
1.0
 10
93.62543829025344
 20
126.1882554645579
 30
34.7630397093782
 41
1.0
 10
92.84094957882372
 20
126.6400124683253
 30
35.40439619987879
 41
1.0
 10
92.43877906873786
 20
126.799626704529
 30
35.8224157704078
 41
1.0
 10
91.72851138674014
 20
126.9085630564542
 30
36.75275230122276
 41
1.0
 10
91.41945591094737
 20
126.8575595936348
 30
37.26436470024391
 41
1.0
 10
90.94339921221218
 20
126.5833099937832
 30
38.22270680873778
 41
1.0
 10
90.74429210998824
 20
126.3415600871185
 30
38.73376243423169
 41
1.0
 10
90.48309085824802
 20
125.6725200045318
 30
39.66181268340567
 41
1.0
 10
90.42031178160868
 20
125.2446007515431
 30
40.07810516966387
 41
1.0
 10
90.42031178160868
 20
124.3398357377898
 30
40.71540117863985
 41
1.0
 10
90.48309085824802
 20
123.8037507502917
 30
40.97813147261679
 41
1.0
 10
90.74429210998824
 20
122.704599271926
 30
41.29555536067258
 41
1.0
 10
90.94339921221218
 20
122.1419820531933
 30
41.35107774269992
 41
1.0
 10
91.41945591094737
 20
121.1472603685123
 30
41.28657030159986
 41
1.0
 10
91.72851138674014
 20
120.648355930287
 30
41.1623005885944
 41
1.0
 10
92.43877906873786
 20
119.8090481970215
 30
40.74642113704637
 41
1.0
 10
92.84094957882372
 20
119.4691986645438
 30
40.45535523210569
 41
1.0
 10
93.62543829025344
 20
119.0174416607764
 30
39.81399874160511
 41
1.0
 10
94.05910471382957
 20
118.8759647148894
 30
39.42172856459298
 41
1.0
 10
94.76444264595011
 20
118.8384156276808
 30
38.70390037880768
 41
1.0
 10
95.04714449648053
 20
118.8818570392232
 30
38.39121291053162
 41
1.0
 10
95.3987835318785
 20
119.0124232112095
 30
37.96139647720483
 41
1.0
 10
95.49446204004743
 20
119.0576480575292
 30
37.83924463014772
 41
1.0
 10
95.8030374443715
 20
119.2353974868213
 30
37.42680637991201
 41
1.0
 10
96.00621497179782
 20
119.4129143596682
 30
37.12028413075445
 41
1.0
 10
96.36024006789922
 20
119.8892413190414
 30
36.47562924460273
 41
1.0
 10
96.49868991454424
 20
120.2014257573223
 30
36.13954470015651
 41
1.0
 10
96.62048513527771
 20
120.7576451764763
 30
35.64588071440466
 41
1.0
 10
96.64285145605209
 20
120.9826954924134
 30
35.46886424889683
 41
1.0
 10
96.64285145605209
 20
121.2088959632948
 30
35.30953375409445
 41
1.0
1001
ACAD_VIEW_EDGE_ID
1071
       25
1071
       -1
1071
        2
1071
        0
  0
SPLINE
  5
557
330
70
100
AcDbEntity
  8
隠線
100
AcDbSpline
 70
     1
 71
     3
 72
    38
 73
    34
 74
     0
 42
0.000000001
 43
0.0000000001
 40
0.0
 40
0.0
 40
0.0
 40
0.0
 40
0.1283957464635327
 40
0.1283957464635327
 40
0.2567914929270653
 40
0.2567914929270653
 40
0.3851621238361319
 40
0.3851621238361319
 40
0.5135327547451985
 40
0.5135327547451985
 40
0.641903385654265
 40
0.641903385654265
 40
0.7702740165633316
 40
0.7702740165633316
 40
0.8986697630268642
 40
0.8986697630268642
 40
1.027065509490396
 40
1.027065509490396
 40
1.155461255953929
 40
1.155461255953929
 40
1.283857002417462
 40
1.283857002417462
 40
1.412227633326528
 40
1.412227633326528
 40
1.540598264235595
 40
1.540598264235595
 40
1.668968895144661
 40
1.668968895144661
 40
1.797339526053728
 40
1.797339526053728
 40
1.925735272517261
 40
1.925735272517261
 40
2.054131018980794
 40
2.054131018980794
 40
2.054131018980794
 40
2.054131018980794
 10
85.77649200288943
 20
121.3059783728847
 30
29.5609650447977
 10
85.47386032622307
 20
121.4802523649816
 30
29.80838070194201
 10
85.16999149818184
 20
121.6054883524121
 30
30.13547292271825
 10
84.64331965740347
 20
121.6984411903951
 30
30.86928098310826
 10
84.41935207577444
 20
121.6657374700733
 30
31.27521352654648
 10
84.07825163505732
 20
121.467418915254
 30
32.03472941156256
 10
83.93782813098733
 20
121.2882807983808
 30
32.43984286822893
 10
83.75444673873426
 20
120.7826648744319
 30
33.1712587311895
 10
83.71075231162649
 20
120.4555311097479
 30
33.49692254689224
 10
83.71075231162649
 20
119.7558708416551
 30
33.9897474127046
 10
83.75444673873426
 20
119.3390619234318
 30
34.18809999409584
 10
83.93782813098733
 20
118.4800948528672
 30
34.41786552420485
 10
84.07825163505732
 20
118.0383170852464
 30
34.45011117082245
 10
84.41935207577444
 20
117.2563788577485
 30
34.38106598885762
 10
84.64331965740347
 20
116.8631440619666
 30
34.27515490099715
 10
85.16999149818184
 20
116.2035024950602
 30
33.94050956218097
 10
85.47386032622307
 20
115.9376916321116
 30
33.71243510377193
 10
86.07912367955577
 20
115.5891436479173
 30
33.21760378948242
 10
86.41865559295728
 20
115.4844446654839
 30
32.91966782160442
 10
87.0721062423072
 20
115.464498887854
 30
32.28950741165401
 10
87.38514240606127
 20
115.5484937933837
 30
31.95639263144577
 10
87.8918783738136
 20
115.8421955045445
 30
31.33229159533144
 10
88.11991893485355
 20
116.0717889288793
 30
30.99880921167546
 10
88.42672102466895
 20
116.6484781056642
 30
30.36829558515544
 10
88.50458273468211
 20
116.9952875
 30
30.07056513335457
 10
88.50458273468211
 20
117.6949477680928
 30
29.57774026754222
 10
88.42672102466895
 20
118.0920810566642
 30
29.3514543222491
 10
88.11991893485355
 20
118.8799748743929
 30
29.02078655569954
 10
87.8918783738136
 20
119.2712973345522
 30
28.91690983607155
 10
87.38514240606127
 20
119.9578524057085
 30
28.85054016913463
 10
87.0721062423072
 20
120.2997960162826
 30
28.88363349376513
 10
86.41865559295728
 20
120.8864305228358
 30
29.11463118214171
 10
86.07912367955577
 20
121.1317043807873
 30
29.31354938765249
 10
85.77649200288943
 20
121.3059783728847
 30
29.5609650447977
1001
ACAD_VIEW_EDGE_ID
1071
       26
1071
       -1
1071
        2
1071
        0
  0
LINE
  5
558
330
70
100
AcDbEntity
  8
隠線
100
AcDbLine
 10
57.469751
 20
114.257985
 30
11.174069
 11
67.015692
 21
108.760843
 31
3.369812
210
0.0000000000000002
220
-0.8175471248425395
230
0.5758617009853119
  0
ARC
  5
559
330
70
100
AcDbEntity
  8
隠線
100
AcDbCircle
 10
137.033541
 20
25.964248
 30
1.152236
 40
23.0
210
0.7071067811866526
220
-0.4071957137922736
230
-0.5780931159156392
100
AcDbArc
 50
294.181408
 51
0.0
  0
ARC
  5
55A
330
70
100
AcDbEntity
  8
表示
100
AcDbCircle
 10
137.033541
 20
25.964248
 30
1.152236
 40
23.0
210
0.7071067811866526
220
-0.4071957137922736
230
-0.5780931159156392
100
AcDbArc
 50
0.0
 51
180.0
  0
ARC
  5
55B
330
70
100
AcDbEntity
  8
隠線
100
AcDbCircle
 10
137.033541
 20
25.964248
 30
1.152236
 40
23.0
210
0.7071067811866526
220
-0.4071957137922736
230
-0.5780931159156392
100
AcDbArc
 50
180.0
 51
246.040179
  0
LINE
  5
55C
330
70
100
AcDbEntity
  8
隠線
100
AcDbLine
 10
76.396524
 20
125.008893
 30
3.399415
 11
66.850582
 21
130.506035
 31
11.203672
210
0.0000000000000002
220
-0.8175471248425395
230
0.5758617009853119
  0
ARC
  5
55D
330
70
100
AcDbEntity
  8
隠線
100
AcDbCircle
 10
-137.033541
 20
25.964248
 30
12.347764
 40
23.0
210
-0.7071067811866526
220
0.4071957137922736
230
0.5780931159156392
100
AcDbArc
 50
293.959821
 51
314.889207
  0
ARC
  5
55E
330
70
100
AcDbEntity
  8
表示
100
AcDbCircle
 10
-137.033541
 20
25.964248
 30
12.347764
 40
23.0
210
-0.7071067811866526
220
0.4071957137922736
230
0.5780931159156392
100
AcDbArc
 50
314.889207
 51
225.110793
  0
ARC
  5
55F
330
70
100
AcDbEntity
  8
隠線
100
AcDbCircle
 10
-137.033541
 20
25.964248
 30
12.347764
 40
23.0
210
-0.7071067811866526
220
0.4071957137922736
230
0.5780931159156392
100
AcDbArc
 50
225.110793
 51
245.818592
  0
LINE
  5
560
330
70
100
AcDbEntity
  8
隠線
100
AcDbLine
 10
97.661599
 20
104.603355
 30
23.890451
 11
142.916433
 21
78.542829
 31
-13.107509
210
0.0000000000000002
220
-0.8175471248425395
230
0.5758617009853119
  0
LINE
  5
561
330
70
100
AcDbEntity
  8
狭い隠線
100
AcDbLine
 10
102.878371
 20
107.607494
 30
28.155407
 11
97.661599
 21
104.603355
 31
23.890451
210
0.0000000000000002
220
-0.8175471248425395
230
0.5758617009853119
  0
SPLINE
  5
562
330
70
100
AcDbEntity
  8
隠線
100
AcDbSpline
 70
     0
 71
     3
 72
    22
 73
    18
 74
     0
 42
0.000000001
 43
0.0000000001
 40
0.0
 40
0.0
 40
0.0
 40
0.0
 40
0.2713501568104186
 40
0.2713501568104186
 40
0.5427003136208373
 40
0.5427003136208373
 40
0.812796656459756
 40
0.812796656459756
 40
1.082892999298674
 40
1.082892999298674
 40
1.352989342137593
 40
1.352989342137593
 40
1.623085684976512
 40
1.623085684976512
 40
1.894435841786931
 40
1.894435841786931
 40
2.165785998597349
 40
2.165785998597349
 40
2.165785998597349
 40
2.165785998597349
 10
97.66159896047065
 20
116.0490142566059
 30
15.82838674495041
 10
97.02202050728192
 20
116.4173229925728
 30
16.35127227046585
 10
96.4464560787983
 20
116.7042652504633
 30
17.07989022293817
 10
95.5401986150373
 20
116.9912660747551
 30
18.73667383563706
 10
95.20101021591655
 20
116.9888398563704
 30
19.66060845849952
 10
94.71002238863547
 20
116.7022465410624
 30
21.37355226065176
 10
94.52311625000948
 20
116.3985317276866
 30
22.28615073344436
 10
94.28290635143639
 20
115.4416401190506
 30
23.91381129300791
 10
94.22763063550702
 20
114.7854884967859
 30
24.62683087906959
 10
94.22763063550702
 20
113.3133785733296
 30
25.66375180851713
 10
94.28290635143639
 20
112.4210378235008
 30
26.04145522087382
 10
94.52311625000948
 20
110.5662027826284
 30
26.39431130908569
 10
94.71002238863547
 20
109.6046298636771
 30
26.37295289283918
 10
95.20101021591655
 20
107.8952272107103
 30
26.06594349926545
 10
95.5401986150373
 20
107.0244442436788
 30
25.7570776737236
 10
96.4464560787983
 20
105.5610887096429
 30
24.92889170821933
 10
97.02202050728192
 20
104.9716632447772
 30
24.41333608426023
 10
97.66159896047065
 20
104.6033545088104
 30
23.89045055874477
1001
ACAD_VIEW_EDGE_ID
1071
       33
1071
       -1
1071
        2
1071
        0
  0
CIRCLE
  5
563
330
70
100
AcDbEntity
  8
表示
100
AcDbCircle
 10
137.033541
 20
25.964248
 30
-13.347764
 40
12.50099999999999
210
0.7071067811866526
220
-0.4071957137922736
230
-0.5780931159156392
  0
ARC
  5
564
330
70
100
AcDbEntity
  8
隠線
100
AcDbCircle
 10
137.033541
 20
25.964248
 30
81.652236
 40
12.501
210
0.7071067811866526
220
-0.4071957137922736
230
-0.5780931159156392
100
AcDbArc
 50
68.182759
 51
307.193431
  0
ARC
  5
565
330
70
100
AcDbEntity
  8
表示
100
AcDbCircle
 10
137.033541
 20
25.964248
 30
81.652236
 40
12.50099999999999
210
0.7071067811866526
220
-0.4071957137922736
230
-0.5780931159156392
100
AcDbArc
 50
307.193431
 51
348.190867
  0
ARC
  5
566
330
70
100
AcDbEntity
  8
隠線
100
AcDbCircle
 10
137.033541
 20
25.964248
 30
81.652236
 40
12.501
210
0.7071067811866526
220
-0.4071957137922736
230
-0.5780931159156392
100
AcDbArc
 50
348.190867
 51
22.038828
  0
SPLINE
  5
567
330
70
100
AcDbEntity
  8
隠線
100
AcDbSpline
210
0.4999999999985445
220
-0.2901622654232821
230
0.8159692762144199
 70
    12
 71
     2
 72
     6
 73
     3
 74
     0
 42
0.000000001
 43
0.0000000001
 40
0.0
 40
0.0
 40
0.0
 40
0.2996146208657667
 40
0.2996146208657667
 40
0.2996146208657667
 10
58.17434065920133
 20
117.1103071325804
 30
11.75661705825516
 41
1.0
 10
57.77510092146804
 20
115.7473807885263
 30
11.51659585593938
 41
1.001974113797337
 10
57.46975094271511
 20
114.2579854182294
 30
11.1740690555714
 41
1.0
1001
ACAD_VIEW_EDGE_ID
1071
       36
1071
       -1
1071
        2
1071
        0
  0
LINE
  5
568
330
70
100
AcDbEntity
  8
表示
100
AcDbLine
 10
64.731779
 20
128.468105
 30
11.77731
 11
58.174341
 21
117.110307
 31
11.756617
210
0.0000000000000002
220
-0.8175471248425395
230
0.5758617009853119
  0
SPLINE
  5
569
330
70
100
AcDbEntity
  8
隠線
100
AcDbSpline
210
0.4999999999987565
220
-0.2901622654213545
230
0.8159692762149754
 70
    12
 71
     2
 72
     6
 73
     3
 74
     0
 42
0.000000001
 43
0.0000000001
 40
0.0
 40
0.0
 40
0.0
 40
0.2996146208657656
 40
0.2996146208657656
 40
0.2996146208657656
 10
66.85058246235894
 20
130.506035259937
 30
11.20367211987653
 41
1.0
 10
65.71286491015962
 20
129.4959684963297
 30
11.54164503599217
 41
1.001974113797535
 10
64.73177918350121
 20
128.4681049731712
 30
11.77731034902495
 41
1.0
1001
ACAD_VIEW_EDGE_ID
1071
       38
1071
       -1
1071
        2
1071
        0
  0
SPLINE
  5
56A
330
70
100
AcDbEntity
  8
隠線
100
AcDbSpline
210
-0.5000000000020832
220
0.2901622654235822
230
-0.8159692762121451
 70
    12
 71
     2
 72
     6
 73
     3
 74
     0
 42
0.000000001
 43
0.0000000001
 40
0.0
 40
0.0
 40
0.0
 40
0.1395797097236624
 40
0.1395797097236624
 40
0.1395797097236624
 10
76.09853524450045
 20
123.6767930250483
 30
3.108312427267591
 41
1.0
 10
76.25714409394095
 20
124.3290443805919
 30
3.243065425248062
 41
1.000410354783636
 10
76.39652400837985
 20
125.0088931237414
 30
3.399415055016142
 41
1.0
1001
ACAD_VIEW_EDGE_ID
1071
       39
1071
       -1
1071
        2
1071
        0
  0
LINE
  5
56B
330
70
100
AcDbEntity
  8
隠線
100
AcDbLine
 10
68.020788
 20
109.685748
 30
3.082822
 11
76.098535
 21
123.676793
 31
3.108312
210
0.0000000000000002
220
-0.8175471248425395
230
0.5758617009853119
  0
SPLINE
  5
56C
330
70
100
AcDbEntity
  8
隠線
100
AcDbSpline
210
-0.4999999999757527
220
0.2901622653883342
230
-0.8159692762408138
 70
    12
 71
     2
 72
     6
 73
     3
 74
     0
 42
0.000000001
 43
0.0000000001
 40
0.0
 40
0.0
 40
0.0
 40
0.1395797097236626
 40
0.1395797097236626
 40
0.1395797097236626
 10
67.0156924887342
 20
108.7608432820337
 30
3.369811990711014
 41
1.0
 10
67.53501453266472
 20
109.2218979042179
 30
3.21554102490716
 41
1.000410354782748
 10
68.02078803380027
 20
109.6857476669351
 30
3.082821502543467
 41
1.0
1001
ACAD_VIEW_EDGE_ID
1071
       41
1071
       -1
1071
        2
1071
        0
  0
ARC
  5
56D
330
70
100
AcDbEntity
  8
表示
100
AcDbCircle
 10
137.033541
 20
25.964248
 30
-13.347764
 40
21.99999999999999
210
0.7071067811866526
220
-0.4071957137922736
230
-0.5780931159156392
100
AcDbArc
 50
287.452236
 51
252.769351
  0
ARC
  5
56E
330
70
100
AcDbEntity
  8
隠線
100
AcDbCircle
 10
-137.033541
 20
25.964248
 30
-1.652236
 40
22.5
210
-0.7071067811866526
220
0.4071957137922736
230
0.5780931159156392
100
AcDbArc
 50
290.928676
 51
45.110793
  0
ARC
  5
56F
330
70
100
AcDbEntity
  8
表示
100
AcDbCircle
 10
-137.033541
 20
25.964248
 30
-1.652236
 40
22.5
210
-0.7071067811866526
220
0.4071957137922736
230
0.5780931159156392
100
AcDbArc
 50
45.110793
 51
134.889207
  0
ARC
  5
570
330
70
100
AcDbEntity
  8
隠線
100
AcDbCircle
 10
-137.033541
 20
25.964248
 30
-1.652236
 40
22.5
210
-0.7071067811866526
220
0.4071957137922736
230
0.5780931159156392
100
AcDbArc
 50
134.889207
 51
248.849737
  0
CIRCLE
  5
571
330
70
100
AcDbEntity
  8
隠線
100
AcDbCircle
 10
137.033541
 20
25.964248
 30
1.652236
 40
19.29999999999999
210
0.7071067811866526
220
-0.4071957137922736
230
-0.5780931159156392
  0
ARC
  5
572
330
70
100
AcDbEntity
  8
表示
100
AcDbCircle
 10
137.033541
 20
25.964248
 30
86.652236
 40
13.01000000000001
210
0.7071067811866526
220
-0.4071957137922736
230
-0.5780931159156392
100
AcDbArc
 50
305.510854
 51
313.781646
  0
ARC
  5
573
330
70
100
AcDbEntity
  8
隠線
100
AcDbCircle
 10
137.033541
 20
25.964248
 30
86.652236
 40
13.01000000000001
210
0.7071067811866526
220
-0.4071957137922736
230
-0.5780931159156392
100
AcDbArc
 50
313.781646
 51
305.510854
  0
ARC
  5
574
330
70
100
AcDbEntity
  8
隠線
100
AcDbCircle
 10
-137.033541
 20
25.964248
 30
-86.152236
 40
12.51000000000001
210
-0.7071067811866526
220
0.4071957137922736
230
0.5780931159156392
100
AcDbArc
 50
232.837843
 51
198.01796
  0
ARC
  5
575
330
70
100
AcDbEntity
  8
表示
100
AcDbCircle
 10
-137.033541
 20
25.964248
 30
-86.152236
 40
12.51
210
-0.7071067811866526
220
0.4071957137922736
230
0.5780931159156392
100
AcDbArc
 50
198.01796
 51
232.837843
  0
CIRCLE
  5
576
330
70
100
AcDbEntity
  8
狭い隠線
100
AcDbCircle
 10
-137.033541
 20
25.964248
 30
-86.652236
 40
18.99999999999999
210
-0.7071067811866526
220
0.4071957137922736
230
0.5780931159156392
  0
ARC
  5
577
330
70
100
AcDbEntity
  8
隠線
100
AcDbCircle
 10
137.033541
 20
25.964248
 30
81.652236
 40
12.51000000000001
210
0.7071067811866526
220
-0.4071957137922736
230
-0.5780931159156392
100
AcDbArc
 50
68.165202
 51
22.056385
  0
CIRCLE
  5
578
330
70
100
AcDbEntity
  8
隠線
100
AcDbCircle
 10
137.033541
 20
25.964248
 30
2.652236
 40
19.29999999999999
210
0.7071067811866526
220
-0.4071957137922736
230
-0.5780931159156392
  0
LINE
  5
579
330
70
100
AcDbEntity
  8
隠線
100
AcDbLine
 10
101.468994
 20
108.753045
 30
30.518481
 11
101.177976
 21
109.124219
 31
29.457819
210
0.0000000000000002
220
-0.8175471248425395
230
0.5758617009853119
  0
LINE
  5
57A
330
70
100
AcDbEntity
  8
隠線
100
AcDbLine
 10
98.823118
 20
116.695798
 30
28.902319
 11
98.823118
 21
117.51019
 31
30.058505
210
0.0000000000000002
220
-0.8175471248425395
230
0.5758617009853119
  0
LINE
  5
57B
330
70
100
AcDbEntity
  8
隠線
100
AcDbLine
 10
152.067798
 20
81.457881
 30
-12.512745
 11
147.200089
 21
78.654753
 31
-16.492327
210
0.0000000000000002
220
-0.8175471248425395
230
0.5758617009853119
  0
LINE
  5
57C
330
70
100
AcDbEntity
  8
隠線
100
AcDbLine
 10
93.247413
 20
127.512336
 30
19.652829
 11
97.876632
 21
124.846546
 31
15.868224
210
0.0000000000000002
220
-0.8175471248425395
230
0.5758617009853119
  0
LINE
  5
57D
330
70
100
AcDbEntity
  8
表示
100
AcDbLine
 10
97.876632
 20
124.846546
 30
15.868224
 11
151.937275
 21
93.715092
 31
-28.3289
210
0.0000000000000002
220
-0.8175471248425395
230
0.5758617009853119
  0
LINE
  5
57E
330
70
100
AcDbEntity
  8
隠線
100
AcDbLine
 10
73.286124
 20
92.848998
 30
19.652829
 11
77.915343
 21
90.183208
 31
15.868224
210
0.0000000000000002
220
-0.8175471248425395
230
0.5758617009853119
  0
LINE
  5
57F
330
70
100
AcDbEntity
  8
表示
100
AcDbLine
 10
77.915343
 20
90.183208
 30
15.868224
 11
131.975987
 21
59.051754
 31
-28.3289
210
0.0000000000000002
220
-0.8175471248425395
230
0.5758617009853119
  0
LINE
  5
580
330
70
100
AcDbEntity
  8
隠線
100
AcDbLine
 10
90.420312
 20
123.969479
 30
39.228716
 11
90.420312
 21
124.792218
 31
40.396753
210
0.0000000000000002
220
-0.8175471248425395
230
0.5758617009853119
  0
LINE
  5
581
330
70
100
AcDbEntity
  8
隠線
100
AcDbLine
 10
92.716804
 20
119.601558
 30
40.534807
 11
92.224104
 21
120.004117
 31
39.394065
210
0.0000000000000002
220
-0.8175471248425395
230
0.5758617009853119
  0
LINE
  5
582
330
70
100
AcDbEntity
  8
隠線
100
AcDbLine
 10
94.418014
 20
119.599394
 30
37.194886
 11
87.634614
 21
115.693094
 31
31.649137
210
0.0000000000000002
220
-0.8175471248425395
230
0.5758617009853119
  0
LINE
  5
583
330
70
100
AcDbEntity
  8
隠線
100
AcDbLine
 10
91.034825
 20
125.474396
 30
37.194886
 11
84.251425
 21
121.568096
 31
31.649137
210
0.0000000000000002
220
-0.8175471248425395
230
0.5758617009853119
  0
LINE
  5
584
330
70
100
AcDbEntity
  8
表示
100
AcDbLine
 10
84.137908
 20
136.220022
 30
28.324225
 11
93.683849
 21
130.72288
 31
20.519968
210
0.0000000000000002
220
-0.8175471248425395
230
0.5758617009853119
  0
LINE
  5
585
330
70
100
AcDbEntity
  8
表示
100
AcDbLine
 10
61.182426
 20
96.357184
 30
28.324225
 11
70.728367
 21
90.860042
 31
20.519968
210
0.0000000000000002
220
-0.8175471248425395
230
0.5758617009853119
  0
LINE
  5
586
330
70
100
AcDbEntity
  8
隠線
100
AcDbLine
 10
99.826513
 20
119.650574
 30
24.485214
 11
94.958804
 21
116.847447
 31
20.505632
210
0.0000000000000002
220
-0.8175471248425395
230
0.5758617009853119
  0
LINE
  5
587
330
70
100
AcDbEntity
  8
隠線
100
AcDbLine
 10
78.191462
 20
127.528958
 30
28.902319
 11
145.366606
 21
88.845365
 31
-26.016528
210
0.0000000000000002
220
-0.8175471248425395
230
0.5758617009853119
  0
LINE
  5
588
330
70
100
AcDbEntity
  8
隠線
100
AcDbLine
 10
65.714658
 20
105.862639
 30
28.902319
 11
132.889802
 21
67.179046
 31
-26.016528
210
0.0000000000000002
220
-0.8175471248425395
230
0.5758617009853119
  0
LINE
  5
589
330
70
100
AcDbEntity
  8
表示
100
AcDbLine
 10
71.892897
 20
134.647055
 30
16.18427
 11
72.597269
 21
135.055826
 31
15.028084
210
0.0000000000000002
220
-0.8175471248425395
230
0.5758617009853119
  0
LINE
  5
58A
330
70
100
AcDbEntity
  8
表示
100
AcDbLine
 10
56.396711
 20
107.737493
 30
16.18427
 11
56.396711
 21
106.923101
 31
15.028084
210
0.0000000000000002
220
-0.8175471248425395
230
0.5758617009853119
  0
LINE
  5
58B
330
70
100
AcDbEntity
  8
表示
100
AcDbLine
 10
82.621192
 20
92.228623
 30
33.238017
 11
82.269006
 21
92.024238
 31
33.81611
210
0.0000000000000002
220
-0.8175471248425395
230
0.5758617009853119
  0
LINE
  5
58C
330
70
100
AcDbEntity
  8
表示
100
AcDbLine
 10
98.469564
 20
119.749766
 30
33.238017
 11
98.469564
 21
120.156962
 31
33.81611
210
0.0000000000000002
220
-0.8175471248425395
230
0.5758617009853119
  0
LINE
  5
58D
330
70
100
AcDbEntity
  8
隠線
100
AcDbLine
 10
142.275974
 20
86.387562
 30
-35.849891
 11
142.62816
 21
86.591948
 31
-36.427985
210
0.0000000000000002
220
-0.8175471248425395
230
0.5758617009853119
  0
LINE
  5
58E
330
70
100
AcDbEntity
  8
隠線
100
AcDbLine
 10
133.464279
 20
71.085807
 30
-35.849891
 11
133.464279
 21
70.678611
 31
-36.427985
210
0.0000000000000002
220
-0.8175471248425395
230
0.5758617009853119
  0
LINE
  5
58F
330
70
100
AcDbEntity
  8
隠線
100
AcDbLine
 10
145.371097
 20
88.853164
 30
-26.016528
 11
148.553078
 21
87.020784
 31
-28.617947
210
0.0000000000000002
220
-0.8175471248425395
230
0.5758617009853119
  0
LINE
  5
590
330
70
100
AcDbEntity
  8
隠線
100
AcDbLine
 10
132.885311
 20
67.171247
 30
-26.016528
 11
136.067292
 21
65.338866
 31
-28.617947
210
0.0000000000000002
220
-0.8175471248425395
230
0.5758617009853119
  0
SPLINE
  5
591
330
70
100
AcDbEntity
  8
表示
100
AcDbSpline
 70
     0
 71
     3
 72
    26
 73
    22
 74
     0
 42
0.000000001
 43
0.0000000001
 40
5.495853435359104
 40
5.495853435359104
 40
5.495853435359104
 40
5.495853435359104
 40
5.787588271018921
 40
5.787588271018921
 40
6.095764646187882
 40
6.095764646187882
 40
6.421760045166071
 40
6.421760045166071
 40
6.750128463345557
 40
6.750128463345557
 40
7.077114849917125
 40
7.077114849917125
 40
7.403499849979174
 40
7.403499849979174
 40
7.730562570499271
 40
7.730562570499271
 40
8.058983732481005
 40
8.058983732481005
 40
8.384375678545445
 40
8.384375678545445
 40
8.637446088948898
 40
8.637446088948898
 40
8.637446088948898
 40
8.637446088948898
 10
151.9372754905107
 20
93.715091536463
 30
-28.32889997152096
 10
153.0086610031267
 20
93.09812165275781
 30
-26.82126828906692
 10
153.9184048313909
 20
92.20793935723795
 30
-25.31381788106834
 10
155.3560978315308
 20
89.96103956176449
 30
-22.34458371087789
 10
155.8638524674807
 20
88.5837487580159
 30
-20.89064056483163
 10
156.4328859369907
 20
85.44230023736862
 30
-18.18561834039948
 10
156.4675015700468
 20
83.65832470289683
 30
-16.95175354540147
 10
156.044101346708
 20
79.9045430624884
 30
-14.91902017372321
 10
155.5819543497946
 20
77.93361146089776
 30
-14.12380071940256
 10
154.2163551682388
 20
74.01528747061646
 30
-13.06963149270636
 10
153.3148157382766
 20
72.06858207391372
 30
-12.80862004718516
 10
151.1647370586252
 20
68.38660111043123
 30
-12.84395479723989
 10
149.9172501897283
 20
66.65162530153873
 30
-13.13926131276785
 10
147.1930604643894
 20
63.55953242399891
 30
-14.25537928350106
 10
145.7165193197234
 20
62.2035859523523
 30
-15.07707873304286
 10
142.6661321347146
 20
60.00948488225978
 30
-17.16441759493422
 10
141.0922279996357
 20
59.17306593722811
 30
-18.43150165115797
 10
138.0015280691605
 20
58.13624742590477
 30
-21.26057314811215
 10
136.481493492327
 20
57.93018043074477
 30
-22.81917772003546
 10
133.9518850901968
 20
58.18865484424652
 30
-25.71334693910234
 10
132.9053788523069
 20
58.51655293333029
 30
-27.02107888888359
 10
131.9759870271427
 20
59.0517540906507
 30
-28.32889997152098
1001
ACAD_VIEW_EDGE_ID
1071
   -43009
1071
       -1
1071
        2
1071
        0
  0
LINE
  5
592
330
70
100
AcDbEntity
  8
隠線
100
AcDbLine
 10
92.190983
 20
127.312923
 30
20.230922
 11
92.89809
 21
126.905727
 31
19.652829
210
0.0000000000000002
220
-0.8175471248425395
230
0.5758617009853119
  0
LINE
  5
593
330
70
100
AcDbEntity
  8
隠線
100
AcDbLine
 10
72.92834
 20
93.862802
 30
20.230922
 11
73.635447
 21
93.455607
 31
19.652829
210
0.0000000000000002
220
-0.8175471248425395
230
0.5758617009853119
  0
ENDSEC
  0
SECTION
  2
OBJECTS
  0
DICTIONARY
  5
C
330
0
100
AcDbDictionary
281
     1
  3
ACAD_COLOR
350
63
  3
ACAD_DETAILVIEWSTYLE
350
6A
  3
ACAD_GROUP
350
D
  3
ACAD_LAYOUT
350
62
  3
ACAD_MATERIAL
350
10
  3
ACAD_MLEADERSTYLE
350
66
  3
ACAD_MLINESTYLE
350
5F
  3
ACAD_PLOTSETTINGS
350
61
  3
ACAD_PLOTSTYLENAME
350
E
  3
ACAD_SCALELIST
350
42
  3
ACAD_SECTIONVIEWSTYLE
350
68
  3
ACAD_TABLESTYLE
350
64
  3
ACAD_VISUALSTYLE
350
29
  3
ACDB_RECOMPOSE_DATA
350
606
  3
AcDbVariableDictionary
350
5FD
  0
DICTIONARY
  5
AC
330
70
100
AcDbDictionary
280
     1
281
     1
  3
ACAD_SORTENTS
360
AD
  0
DICTIONARY
  5
1A9
330
1A8
100
AcDbDictionary
280
     1
281
     1
  0
DICTIONARY
  5
1EF
330
1EE
100
AcDbDictionary
280
     1
281
     1
  3
ACAD_SORTENTS
360
4B3
  0
DICTIONARY
  5
20A
330
209
100
AcDbDictionary
280
     1
281
     1
  0
DICTIONARY
  5
20C
330
20B
100
AcDbDictionary
280
     1
281
     1
  0
DICTIONARY
  5
20E
330
20D
100
AcDbDictionary
280
     1
281
     1
  0
DICTIONARY
  5
210
330
20F
100
AcDbDictionary
280
     1
281
     1
  0
DICTIONARY
  5
212
330
211
100
AcDbDictionary
280
     1
281
     1
  0
DICTIONARY
  5
214
330
213
100
AcDbDictionary
280
     1
281
     1
  0
DICTIONARY
  5
216
330
215
100
AcDbDictionary
280
     1
281
     1
  0
DICTIONARY
  5
218
330
217
100
AcDbDictionary
280
     1
281
     1
  0
DICTIONARY
  5
21A
330
219
100
AcDbDictionary
280
     1
281
     1
  0
DICTIONARY
  5
21C
330
21B
100
AcDbDictionary
280
     1
281
     1
  0
DICTIONARY
  5
21E
330
21D
100
AcDbDictionary
280
     1
281
     1
  0
DICTIONARY
  5
220
330
21F
100
AcDbDictionary
280
     1
281
     1
  0
DICTIONARY
  5
222
330
221
100
AcDbDictionary
280
     1
281
     1
  0
DICTIONARY
  5
224
330
223
100
AcDbDictionary
280
     1
281
     1
  0
DICTIONARY
  5
226
330
225
100
AcDbDictionary
280
     1
281
     1
  0
DICTIONARY
  5
63
102
{ACAD_REACTORS
330
C
102
}
330
C
100
AcDbDictionary
281
     1
  0
DICTIONARY
  5
6A
102
{ACAD_REACTORS
330
C
102
}
330
C
100
AcDbDictionary
281
     1
  3
Imperial24
350
6B
  0
DICTIONARY
  5
D
102
{ACAD_REACTORS
330
C
102
}
330
C
100
AcDbDictionary
281
     1
  0
DICTIONARY
  5
62
102
{ACAD_REACTORS
330
C
102
}
330
C
100
AcDbDictionary
281
     1
  3
Model
350
73
  3
シート1
350
6F
  3
シート2
350
77
  0
DICTIONARY
  5
10
102
{ACAD_REACTORS
330
C
102
}
330
C
100
AcDbDictionary
281
     1
  3
ByBlock
350
19
  3
ByLayer
350
11
  3
Global
350
21
  0
DICTIONARY
  5
66
102
{ACAD_REACTORS
330
C
102
}
330
C
100
AcDbDictionary
281
     1
  3
Standard
350
67
  0
DICTIONARY
  5
5F
102
{ACAD_REACTORS
330
C
102
}
330
C
100
AcDbDictionary
281
     1
  3
Standard
350
60
  0
DICTIONARY
  5
61
102
{ACAD_REACTORS
330
C
102
}
330
C
100
AcDbDictionary
281
     1
  0
ACDBDICTIONARYWDFLT
  5
E
102
{ACAD_REACTORS
330
C
102
}
330
C
100
AcDbDictionary
281
     1
  3
Normal
350
F
100
AcDbDictionaryWithDefault
340
F
  0
DICTIONARY
  5
42
102
{ACAD_REACTORS
330
C
102
}
330
C
100
AcDbDictionary
281
     1
  3
A0
350
43
  3
A1
350
44
  3
A2
350
45
  3
A3
350
46
  3
A4
350
47
  3
A5
350
48
  3
A6
350
49
  3
A7
350
4A
  3
A8
350
4B
  3
A9
350
4C
  3
B0
350
4D
  3
B1
350
4E
  3
B2
350
4F
  3
B3
350
50
  3
B4
350
51
  3
B5
350
52
  3
B6
350
53
  0
DICTIONARY
  5
68
102
{ACAD_REACTORS
330
C
102
}
330
C
100
AcDbDictionary
281
     1
  3
Imperial24
350
69
  0
DICTIONARY
  5
64
102
{ACAD_REACTORS
330
C
102
}
330
C
100
AcDbDictionary
281
     1
  3
Standard
350
65
  0
DICTIONARY
  5
29
102
{ACAD_REACTORS
330
C
102
}
330
C
100
AcDbDictionary
281
     1
  3
2dWireframe
350
2F
  3
Basic
350
2E
  3
Brighten
350
35
  3
ColorChange
350
39
  3
Conceptual
350
32
  3
Dim
350
34
  3
EdgeColorOff
350
41
  3
Facepattern
350
38
  3
Flat
350
2A
  3
FlatWithEdges
350
2B
  3
Gouraud
350
2C
  3
GouraudWithEdges
350
2D
  3
Hidden
350
31
  3
JitterOff
350
3F
  3
Linepattern
350
37
  3
OverhangOff
350
40
  3
Realistic
350
33
  3
Shaded
350
3E
  3
Shaded with edges
350
3D
  3
Shades of Gray
350
3A
  3
Sketchy
350
3B
  3
Thicken
350
36
  3
Wireframe
350
30
  3
X-Ray
350
3C
  0
XRECORD
  5
606
102
{ACAD_REACTORS
330
C
102
}
330
C
100
AcDbXrecord
280
     1
 90
        1
330
65
  0
DICTIONARY
  5
5FD
102
{ACAD_REACTORS
330
C
102
}
330
C
100
AcDbDictionary
281
     1
  3
ANNOALLVISIBLE
350
602
  3
CANNOSCALE
350
603
  3
CMLEADERSTYLE
350
5FF
  3
CTABLESTYLE
350
5FE
  3
CVIEWDETAILSTYLE
350
600
  3
CVIEWSECTIONSTYLE
350
601
  0
SORTENTSTABLE
  5
AD
102
{ACAD_REACTORS
330
AC
102
}
330
AC
100
AcDbSortentsTable
330
70
  0
SORTENTSTABLE
  5
4B3
102
{ACAD_REACTORS
330
1EF
102
}
330
1EF
100
AcDbSortentsTable
330
1EE
  0
ACDBDETAILVIEWSTYLE
  5
6B
102
{ACAD_XDICTIONARY
360
609
102
}
102
{ACAD_REACTORS
330
6A
102
}
330
6A
100
AcDbModelDocViewStyle
 70
     0
  3
Imperial24
290
     0
100
AcDbDetailViewStyle
 70
     0
 71
     0
 90
        3
 71
     1
340
55
 62
   256
 40
0.24
340
0
 62
   256
 40
0.24
300

 40
0.36
280
     3
 71
     2
340
5D
 90
       25
 62
   256
 71
     3
340
55
 62
   256
 40
0.24
 90
        1
 40
0.75
 90
        1
300
%<\AcVar ViewType \f "%tc1">% %<\AcVar ViewDetailId>%\PSCALE %<\AcVar ViewScale \f "%sn">%
 71
     4
340
5D
 90
       25
 62
   256
340
5D
 90
       25
 62
   256
280
     0
  0
LAYOUT
  5
73
102
{ACAD_REACTORS
330
62
102
}
330
62
100
AcDbPlotSettings
  1

  2
AutoCAD PDF (High Quality Print).pc3
  4
ISO_full_bleed_A3_(420.00_x_297.00_MM)
  6

 40
0.0
 41
0.0
 42
0.0
 43
0.0
 44
420.0
 45
297.0
 46
0.0
 47
0.0
 48
0.0
 49
0.0
140
0.0
141
0.0
142
1.0
143
3.126036
 70
 11952
 72
     1
 73
     0
 74
     0
  7

 75
     0
147
0.319894
 76
     0
 77
     2
 78
   300
148
437.109011
149
405.072182
100
AcDbLayout
  1
Model
 70
     1
 71
     0
 10
0.0
 20
0.0
 11
12.0
 21
9.0
 12
0.0
 22
0.0
 32
0.0
 14
0.0
 24
0.0
 34
0.0
 15
0.0
 25
0.0
 35
0.0
146
0.0
 13
0.0
 23
0.0
 33
0.0
 16
1.0
 26
0.0
 36
0.0
 17
0.0
 27
1.0
 37
0.0
 76
     0
330
70
1001
ACAD_PSEXT
1000
AutoCAD PDF (High Quality Print).pc3
1000
DWG To PDF
1000
ファイル
1000

1070
     0
  0
LAYOUT
  5
6F
102
{ACAD_REACTORS
330
62
102
}
330
62
100
AcDbPlotSettings
  1

  2
None
  4

  6

 40
0.0
 41
0.0
 42
0.0
 43
0.0
 44
0.0
 45
0.0
 46
0.0
 47
0.0
 48
0.0
 49
0.0
140
0.0
141
0.0
142
1.0
143
1.0
 70
   688
 72
     0
 73
     0
 74
     5
  7

 75
    16
147
1.0
 76
     0
 77
     2
 78
   300
148
0.0
149
0.0
100
AcDbLayout
  1
シート1
 70
     1
 71
     1
 10
0.0
 20
0.0
 11
12.0
 21
9.0
 12
0.0
 22
0.0
 32
0.0
 14
0.0
 24
0.0
 34
0.0
 15
0.0
 25
0.0
 35
0.0
146
0.0
 13
0.0
 23
0.0
 33
0.0
 16
1.0
 26
0.0
 36
0.0
 17
0.0
 27
1.0
 37
0.0
 76
     0
330
6C
  0
LAYOUT
  5
77
102
{ACAD_REACTORS
330
62
102
}
330
62
100
AcDbPlotSettings
  1

  2
None
  4

  6

 40
0.0
 41
0.0
 42
0.0
 43
0.0
 44
0.0
 45
0.0
 46
0.0
 47
0.0
 48
0.0
 49
0.0
140
0.0
141
0.0
142
1.0
143
1.0
 70
   688
 72
     0
 73
     0
 74
     5
  7

 75
    16
147
1.0
 76
     0
 77
     2
 78
   300
148
0.0
149
0.0
100
AcDbLayout
  1
シート2
 70
     1
 71
     2
 10
0.0
 20
0.0
 11
12.0
 21
9.0
 12
0.0
 22
0.0
 32
0.0
 14
0.0
 24
0.0
 34
0.0
 15
0.0
 25
0.0
 35
0.0
146
0.0
 13
0.0
 23
0.0
 33
0.0
 16
1.0
 26
0.0
 36
0.0
 17
0.0
 27
1.0
 37
0.0
 76
     0
330
74
  0
MATERIAL
  5
19
102
{ACAD_XDICTIONARY
360
1A
102
}
102
{ACAD_REACTORS
330
10
102
}
330
10
100
AcDbMaterial
  1
ByBlock
 72
     0
 43
0.020833
 43
0.0
 43
0.0
 43
0.0
 43
0.0
 43
0.020833
 43
0.0
 43
0.0
 43
0.0
 43
0.0
 43
1.0
 43
0.0
 43
0.0
 43
0.0
 43
0.0
 43
1.0
 77
     0
 47
0.020833
 47
0.0
 47
0.0
 47
0.0
 47
0.0
 47
0.020833
 47
0.0
 47
0.0
 47
0.0
 47
0.0
 47
1.0
 47
0.0
 47
0.0
 47
0.0
 47
0.0
 47
1.0
171
     0
 49
0.020833
 49
0.0
 49
0.0
 49
0.0
 49
0.0
 49
0.020833
 49
0.0
 49
0.0
 49
0.0
 49
0.0
 49
1.0
 49
0.0
 49
0.0
 49
0.0
 49
0.0
 49
1.0
175
     0
142
0.020833
142
0.0
142
0.0
142
0.0
142
0.0
142
0.020833
142
0.0
142
0.0
142
0.0
142
0.0
142
1.0
142
0.0
142
0.0
142
0.0
142
0.0
142
1.0
179
     0
144
0.020833
144
0.0
144
0.0
144
0.0
144
0.0
144
0.020833
144
0.0
144
0.0
144
0.0
144
0.0
144
1.0
144
0.0
144
0.0
144
0.0
144
0.0
144
1.0
147
0.020833
147
0.0
147
0.0
147
0.0
147
0.0
147
0.020833
147
0.0
147
0.0
147
0.0
147
0.0
147
1.0
147
0.0
147
0.0
147
0.0
147
0.0
147
1.0
  0
MATERIAL
  5
11
102
{ACAD_XDICTIONARY
360
12
102
}
102
{ACAD_REACTORS
330
10
102
}
330
10
100
AcDbMaterial
  1
ByLayer
 72
     0
 43
0.020833
 43
0.0
 43
0.0
 43
0.0
 43
0.0
 43
0.020833
 43
0.0
 43
0.0
 43
0.0
 43
0.0
 43
1.0
 43
0.0
 43
0.0
 43
0.0
 43
0.0
 43
1.0
 77
     0
 47
0.020833
 47
0.0
 47
0.0
 47
0.0
 47
0.0
 47
0.020833
 47
0.0
 47
0.0
 47
0.0
 47
0.0
 47
1.0
 47
0.0
 47
0.0
 47
0.0
 47
0.0
 47
1.0
171
     0
 49
0.020833
 49
0.0
 49
0.0
 49
0.0
 49
0.0
 49
0.020833
 49
0.0
 49
0.0
 49
0.0
 49
0.0
 49
1.0
 49
0.0
 49
0.0
 49
0.0
 49
0.0
 49
1.0
175
     0
142
0.020833
142
0.0
142
0.0
142
0.0
142
0.0
142
0.020833
142
0.0
142
0.0
142
0.0
142
0.0
142
1.0
142
0.0
142
0.0
142
0.0
142
0.0
142
1.0
179
     0
144
0.020833
144
0.0
144
0.0
144
0.0
144
0.0
144
0.020833
144
0.0
144
0.0
144
0.0
144
0.0
144
1.0
144
0.0
144
0.0
144
0.0
144
0.0
144
1.0
147
0.020833
147
0.0
147
0.0
147
0.0
147
0.0
147
0.020833
147
0.0
147
0.0
147
0.0
147
0.0
147
1.0
147
0.0
147
0.0
147
0.0
147
0.0
147
1.0
  0
MATERIAL
  5
21
102
{ACAD_XDICTIONARY
360
22
102
}
102
{ACAD_REACTORS
330
10
102
}
330
10
100
AcDbMaterial
  1
Global
 72
     0
 43
0.020833
 43
0.0
 43
0.0
 43
0.0
 43
0.0
 43
0.020833
 43
0.0
 43
0.0
 43
0.0
 43
0.0
 43
1.0
 43
0.0
 43
0.0
 43
0.0
 43
0.0
 43
1.0
 77
     0
 47
0.020833
 47
0.0
 47
0.0
 47
0.0
 47
0.0
 47
0.020833
 47
0.0
 47
0.0
 47
0.0
 47
0.0
 47
1.0
 47
0.0
 47
0.0
 47
0.0
 47
0.0
 47
1.0
171
     0
 49
0.020833
 49
0.0
 49
0.0
 49
0.0
 49
0.0
 49
0.020833
 49
0.0
 49
0.0
 49
0.0
 49
0.0
 49
1.0
 49
0.0
 49
0.0
 49
0.0
 49
0.0
 49
1.0
175
     0
142
0.020833
142
0.0
142
0.0
142
0.0
142
0.0
142
0.020833
142
0.0
142
0.0
142
0.0
142
0.0
142
1.0
142
0.0
142
0.0
142
0.0
142
0.0
142
1.0
179
     0
144
0.020833
144
0.0
144
0.0
144
0.0
144
0.0
144
0.020833
144
0.0
144
0.0
144
0.0
144
0.0
144
1.0
144
0.0
144
0.0
144
0.0
144
0.0
144
1.0
147
0.020833
147
0.0
147
0.0
147
0.0
147
0.0
147
0.020833
147
0.0
147
0.0
147
0.0
147
0.0
147
1.0
147
0.0
147
0.0
147
0.0
147
0.0
147
1.0
  0
MLEADERSTYLE
  5
67
102
{ACAD_REACTORS
330
66
102
}
330
66
100
AcDbMLeaderStyle
179
     2
170
     2
171
     1
172
     0
 90
        2
 40
0.0
 41
0.0
173
     1
 91
-1056964608
340
5B
 92
       -2
290
     1
 42
0.09
291
     1
 43
0.36
  3
Standard
 44
0.18
300

342
55
174
     1
178
     6
175
     1
176
     0
 93
-1056964608
 45
0.18
292
     0
297
     0
 46
0.18
 94
-1056964608
 47
1.0
 49
1.0
140
1.0
293
     1
141
0.0
294
     1
177
     0
142
1.0
295
     0
296
     0
143
0.125
271
     0
272
     9
273
     9
298
     1
  0
MLINESTYLE
  5
60
102
{ACAD_REACTORS
330
5F
102
}
330
5F
100
AcDbMlineStyle
  2
STANDARD
 70
     0
  3

 62
   256
 51
90.0
 52
90.0
 71
     0
  0
ACDBPLACEHOLDER
  5
F
102
{ACAD_REACTORS
330
E
102
}
330
E
  0
SCALE
  5
43
102
{ACAD_REACTORS
330
42
102
}
330
42
100
AcDbScale
 70
     0
300
1:1
140
1.0
141
1.0
290
     1
  0
SCALE
  5
44
102
{ACAD_REACTORS
330
42
102
}
330
42
100
AcDbScale
 70
     0
300
1:2
140
1.0
141
2.0
290
     0
  0
SCALE
  5
45
102
{ACAD_REACTORS
330
42
102
}
330
42
100
AcDbScale
 70
     0
300
1:4
140
1.0
141
4.0
290
     0
  0
SCALE
  5
46
102
{ACAD_REACTORS
330
42
102
}
330
42
100
AcDbScale
 70
     0
300
1:5
140
1.0
141
5.0
290
     0
  0
SCALE
  5
47
102
{ACAD_REACTORS
330
42
102
}
330
42
100
AcDbScale
 70
     0
300
1:8
140
1.0
141
8.0
290
     0
  0
SCALE
  5
48
102
{ACAD_REACTORS
330
42
102
}
330
42
100
AcDbScale
 70
     0
300
1:10
140
1.0
141
10.0
290
     0
  0
SCALE
  5
49
102
{ACAD_REACTORS
330
42
102
}
330
42
100
AcDbScale
 70
     0
300
1:16
140
1.0
141
16.0
290
     0
  0
SCALE
  5
4A
102
{ACAD_REACTORS
330
42
102
}
330
42
100
AcDbScale
 70
     0
300
1:20
140
1.0
141
20.0
290
     0
  0
SCALE
  5
4B
102
{ACAD_REACTORS
330
42
102
}
330
42
100
AcDbScale
 70
     0
300
1:30
140
1.0
141
30.0
290
     0
  0
SCALE
  5
4C
102
{ACAD_REACTORS
330
42
102
}
330
42
100
AcDbScale
 70
     0
300
1:40
140
1.0
141
40.0
290
     0
  0
SCALE
  5
4D
102
{ACAD_REACTORS
330
42
102
}
330
42
100
AcDbScale
 70
     0
300
1:50
140
1.0
141
50.0
290
     0
  0
SCALE
  5
4E
102
{ACAD_REACTORS
330
42
102
}
330
42
100
AcDbScale
 70
     0
300
1:100
140
1.0
141
100.0
290
     0
  0
SCALE
  5
4F
102
{ACAD_REACTORS
330
42
102
}
330
42
100
AcDbScale
 70
     0
300
2:1
140
2.0
141
1.0
290
     0
  0
SCALE
  5
50
102
{ACAD_REACTORS
330
42
102
}
330
42
100
AcDbScale
 70
     0
300
4:1
140
4.0
141
1.0
290
     0
  0
SCALE
  5
51
102
{ACAD_REACTORS
330
42
102
}
330
42
100
AcDbScale
 70
     0
300
8:1
140
8.0
141
1.0
290
     0
  0
SCALE
  5
52
102
{ACAD_REACTORS
330
42
102
}
330
42
100
AcDbScale
 70
     0
300
10:1
140
10.0
141
1.0
290
     0
  0
SCALE
  5
53
102
{ACAD_REACTORS
330
42
102
}
330
42
100
AcDbScale
 70
     0
300
100:1
140
100.0
141
1.0
290
     0
  0
ACDBSECTIONVIEWSTYLE
  5
69
102
{ACAD_XDICTIONARY
360
607
102
}
102
{ACAD_REACTORS
330
68
102
}
330
68
100
AcDbModelDocViewStyle
 70
     0
  3
Imperial24
290
     0
100
AcDbSectionViewStyle
 70
     0
 71
     0
 90
       78
 71
     1
340
55
 62
   256
 40
0.24
340
0
340
0
 62
   256
 40
0.24
300
I, O, Q, S, X, Z
 40
0.48
 90
        3
 40
0.18
 90
        1
 71
     2
340
5D
 90
       25
 62
   256
340
5D
 90
       50
 62
   256
 40
0.24
 40
0.0
 40
0.24
 71
     3
340
55
 62
   256
 40
0.24
 90
        1
 40
0.75
 90
        1
300
%<\AcVar ViewType \f "%tc1">% %<\AcVar ViewSectionStartId>%-%<\AcVar ViewSectionEndId>%\PSCALE %<\AcVar ViewScale \f "%sn">%
 71
     4
 62
   256
 62
   257
300
ANSI31
 40
1.0
 90
        0
290
     0
290
     0
 90
        6
 40
0.0
 40
1.570796
 40
0.261799
 40
1.308997
 40
-0.261799
 40
1.832596
  0
TABLESTYLE
  5
65
102
{ACAD_XDICTIONARY
360
604
102
}
102
{ACAD_REACTORS
330
64
102
}
330
64
100
AcDbTableStyle
280
     0
  3
Standard
 70
     0
 71
     0
 40
1.5
 41
1.5
280
     0
281
     0
  7
Standard
140
0.18
170
     2
 62
     0
 63
     7
283
     0
 90
      512
 91
        0
  1

274
    -2
284
     1
 64
     0
275
    -2
285
     1
 65
     0
276
    -2
286
     1
 66
     0
277
    -2
287
     1
 67
     0
278
    -2
288
     1
 68
     0
279
    -2
289
     1
 69
     0
  7
Standard
140
0.25
170
     5
 62
     0
 63
     7
283
     0
 90
      512
 91
        0
  1

274
    -2
284
     1
 64
     0
275
    -2
285
     1
 65
     0
276
    -2
286
     1
 66
     0
277
    -2
287
     1
 67
     0
278
    -2
288
     1
 68
     0
279
    -2
289
     1
 69
     0
  7
Standard
140
0.18
170
     5
 62
     0
 63
     7
283
     0
 90
      512
 91
        0
  1

274
    -2
284
     1
 64
     0
275
    -2
285
     1
 65
     0
276
    -2
286
     1
 66
     0
277
    -2
287
     1
 67
     0
278
    -2
288
     1
 68
     0
279
    -2
289
     1
 69
     0
  0
VISUALSTYLE
  5
2F
102
{ACAD_REACTORS
330
29
102
}
330
29
100
AcDbVisualStyle
  2
2dWireframe
 70
     4
177
     3
291
     0
 70
    58
 90
        0
176
     1
 90
        2
176
     1
 90
        0
176
     1
 90
        0
176
     1
 40
0.6
176
     1
 40
30.0
176
     1
 62
     7
420
 16777215
176
     1
 90
        1
176
     1
 90
        4
176
     1
 62
     7
176
     1
 62
   257
176
     1
 90
        1
176
     1
 90
        1
176
     1
 40
1.0
176
     1
 90
        0
176
     1
 62
   257
176
     1
 40
1.0
176
     1
 90
        1
176
     1
 90
        6
176
     1
 90
        2
176
     1
 62
     7
176
     1
 90
        5
176
     1
 90
        0
176
     1
 90
        0
176
     1
290
     0
176
     1
 90
        1
176
     1
 40
0.0
176
     1
 90
        0
176
     1
290
     1
176
     1
290
     1
176
     1
290
     0
176
     1
290
     0
176
     1
290
     0
176
     1
290
     0
176
     1
290
     0
176
     1
290
     0
176
     1
290
     0
176
     1
 90
       50
176
     1
 40
0.0
176
     1
 40
1.0
176
     1
 90
        0
176
     1
 62
    18
420
        0
176
     1
 90
       50
176
     1
 90
        3
176
     1
 62
     5
420
      255
176
     1
290
     0
176
     1
 90
       50
176
     1
 90
       50
176
     1
 90
       50
176
     1
290
     0
176
     1
 90
       50
176
     1
 62
   256
176
     0
 40
1.0
176
     0
 90
        2
176
     1
  1
strokes_ogs.tif
176
     1
290
     0
176
     1
 40
1.0
176
     1
 40
1.0
176
     1
1001
ACAD
1000
AcDbSavedByObjectVersion
1070
     0
  0
VISUALSTYLE
  5
2E
102
{ACAD_REACTORS
330
29
102
}
330
29
100
AcDbVisualStyle
  2
Basic
 70
     7
177
     3
291
     1
 70
    58
 90
        1
176
     1
 90
        0
176
     1
 90
        1
176
     1
 90
        0
176
     1
 40
0.6
176
     1
 40
30.0
176
     1
 62
     7
420
 16777215
176
     1
 90
        0
176
     1
 90
        4
176
     1
 62
     7
176
     1
 62
   257
176
     1
 90
        1
176
     1
 90
        1
176
     1
 40
1.0
176
     1
 90
        8
176
     1
 62
     7
176
     1
 40
1.0
176
     1
 90
        1
176
     1
 90
        6
176
     1
 90
        2
176
     1
 62
     7
176
     1
 90
        5
176
     1
 90
        0
176
     1
 90
        0
176
     1
290
     0
176
     1
 90
        1
176
     1
 40
0.0
176
     1
 90
        0
176
     1
290
     0
176
     1
290
     1
176
     1
290
     1
176
     1
290
     0
176
     1
290
     0
176
     1
290
     0
176
     1
290
     0
176
     1
290
     0
176
     1
290
     0
176
     1
 90
       50
176
     1
 40
0.0
176
     1
 40
1.0
176
     1
 90
        0
176
     1
 62
    18
420
        0
176
     1
 90
       50
176
     1
 90
        3
176
     1
 62
     5
420
      255
176
     1
290
     0
176
     1
 90
       50
176
     1
 90
       50
176
     1
 90
       50
176
     1
290
     0
176
     1
 90
       50
176
     1
 62
   256
176
     0
 40
1.0
176
     0
 90
        2
176
     1
  1
strokes_ogs.tif
176
     1
290
     0
176
     1
 40
1.0
176
     1
 40
1.0
176
     1
1001
ACAD
1000
AcDbSavedByObjectVersion
1070
     0
  0
VISUALSTYLE
  5
35
102
{ACAD_REACTORS
330
29
102
}
330
29
100
AcDbVisualStyle
  2
Brighten
 70
    12
177
     3
291
     1
 70
    58
 90
        2
176
     1
 90
        2
176
     1
 90
        0
176
     1
 90
        0
176
     1
 40
0.6
176
     1
 40
30.0
176
     1
 62
     7
420
 16777215
176
     1
 90
        1
176
     1
 90
        4
176
     1
 62
     7
176
     1
 62
   257
176
     1
 90
        1
176
     1
 90
        1
176
     1
 40
1.0
176
     1
 90
        8
176
     1
 62
     7
176
     1
 40
1.0
176
     1
 90
        1
176
     1
 90
        6
176
     1
 90
        2
176
     1
 62
     7
176
     1
 90
        5
176
     1
 90
        0
176
     1
 90
        0
176
     1
290
     0
176
     1
 90
        1
176
     1
 40
50.0
176
     1
 90
        0
176
     1
290
     0
176
     1
290
     1
176
     1
290
     1
176
     1
290
     0
176
     1
290
     0
176
     1
290
     0
176
     1
290
     0
176
     1
290
     0
176
     1
290
     0
176
     1
 90
       50
176
     1
 40
0.0
176
     1
 40
1.0
176
     1
 90
        0
176
     1
 62
    18
420
        0
176
     1
 90
       50
176
     1
 90
        3
176
     1
 62
     5
420
      255
176
     1
290
     0
176
     1
 90
       50
176
     1
 90
       50
176
     1
 90
       50
176
     1
290
     0
176
     1
 90
       50
176
     1
 62
   256
176
     0
 40
1.0
176
     0
 90
        2
176
     1
  1
strokes_ogs.tif
176
     1
290
     0
176
     1
 40
1.0
176
     1
 40
1.0
176
     1
1001
ACAD
1000
AcDbSavedByObjectVersion
1070
     0
  0
VISUALSTYLE
  5
39
102
{ACAD_REACTORS
330
29
102
}
330
29
100
AcDbVisualStyle
  2
ColorChange
 70
    16
177
     3
291
     1
 70
    58
 90
        2
176
     1
 90
        2
176
     1
 90
        3
176
     1
 90
        0
176
     1
 40
0.6
176
     1
 40
30.0
176
     1
 62
     8
420
  8421504
176
     1
 90
        1
176
     1
 90
        4
176
     1
 62
     7
176
     1
 62
   257
176
     1
 90
        1
176
     1
 90
        1
176
     1
 40
1.0
176
     1
 90
        8
176
     1
 62
     8
420
  8421504
176
     1
 40
1.0
176
     1
 90
        1
176
     1
 90
        6
176
     1
 90
        2
176
     1
 62
     7
176
     1
 90
        5
176
     1
 90
        0
176
     1
 90
        0
176
     1
290
     0
176
     1
 90
        1
176
     1
 40
0.0
176
     1
 90
        0
176
     1
290
     0
176
     1
290
     1
176
     1
290
     1
176
     1
290
     0
176
     1
290
     0
176
     1
290
     0
176
     1
290
     0
176
     1
290
     0
176
     1
290
     0
176
     1
 90
       50
176
     1
 40
0.0
176
     1
 40
1.0
176
     1
 90
        0
176
     1
 62
    18
420
        0
176
     1
 90
       50
176
     1
 90
        3
176
     1
 62
     5
420
      255
176
     1
290
     0
176
     1
 90
       50
176
     1
 90
       50
176
     1
 90
       50
176
     1
290
     0
176
     1
 90
       50
176
     1
 62
   256
176
     0
 40
1.0
176
     0
 90
        2
176
     1
  1
strokes_ogs.tif
176
     1
290
     0
176
     1
 40
1.0
176
     1
 40
1.0
176
     1
1001
ACAD
1000
AcDbSavedByObjectVersion
1070
     0
  0
VISUALSTYLE
  5
32
102
{ACAD_REACTORS
330
29
102
}
330
29
100
AcDbVisualStyle
  2
Conceptual
 70
     9
177
     3
291
     0
 70
    58
 90
        3
176
     1
 90
        2
176
     1
 90
        0
176
     1
 90
        0
176
     1
 40
0.6
176
     1
 40
30.0
176
     1
 62
     7
420
 16777215
176
     1
 90
        2
176
     1
 90
        2
176
     1
 62
     7
176
     1
 62
   257
176
     1
 90
        1
176
     1
 90
        1
176
     1
 40
179.0
176
     1
 90
        8
176
     1
 62
     7
176
     1
 40
1.0
176
     1
 90
        1
176
     1
 90
        6
176
     1
 90
        2
176
     1
 62
     7
176
     1
 90
        3
176
     1
 90
        0
176
     1
 90
        0
176
     1
290
     0
176
     1
 90
        1
176
     1
 40
0.0
176
     1
 90
        0
176
     1
290
     0
176
     1
290
     1
176
     1
290
     1
176
     1
290
     0
176
     1
290
     0
176
     1
290
     0
176
     1
290
     0
176
     1
290
     0
176
     1
290
     0
176
     1
 90
       50
176
     1
 40
0.0
176
     1
 40
1.0
176
     1
 90
        0
176
     1
 62
    18
420
        0
176
     1
 90
       50
176
     1
 90
        3
176
     1
 62
     5
420
      255
176
     1
290
     0
176
     1
 90
       50
176
     1
 90
       50
176
     1
 90
       50
176
     1
290
     0
176
     1
 90
       50
176
     1
 62
   256
176
     0
 40
1.0
176
     0
 90
        2
176
     1
  1
strokes_ogs.tif
176
     1
290
     0
176
     1
 40
1.0
176
     1
 40
1.0
176
     1
1001
ACAD
1000
AcDbSavedByObjectVersion
1070
     0
  0
VISUALSTYLE
  5
34
102
{ACAD_REACTORS
330
29
102
}
330
29
100
AcDbVisualStyle
  2
Dim
 70
    11
177
     3
291
     1
 70
    58
 90
        2
176
     1
 90
        2
176
     1
 90
        0
176
     1
 90
        0
176
     1
 40
0.6
176
     1
 40
30.0
176
     1
 62
     7
420
 16777215
176
     1
 90
        1
176
     1
 90
        4
176
     1
 62
     7
176
     1
 62
   257
176
     1
 90
        1
176
     1
 90
        1
176
     1
 40
1.0
176
     1
 90
        8
176
     1
 62
     7
176
     1
 40
1.0
176
     1
 90
        1
176
     1
 90
        6
176
     1
 90
        2
176
     1
 62
     7
176
     1
 90
        5
176
     1
 90
        0
176
     1
 90
        0
176
     1
290
     0
176
     1
 90
        1
176
     1
 40
-50.0
176
     1
 90
        0
176
     1
290
     0
176
     1
290
     1
176
     1
290
     1
176
     1
290
     0
176
     1
290
     0
176
     1
290
     0
176
     1
290
     0
176
     1
290
     0
176
     1
290
     0
176
     1
 90
       50
176
     1
 40
0.0
176
     1
 40
1.0
176
     1
 90
        0
176
     1
 62
    18
420
        0
176
     1
 90
       50
176
     1
 90
        3
176
     1
 62
     5
420
      255
176
     1
290
     0
176
     1
 90
       50
176
     1
 90
       50
176
     1
 90
       50
176
     1
290
     0
176
     1
 90
       50
176
     1
 62
   256
176
     0
 40
1.0
176
     0
 90
        2
176
     1
  1
strokes_ogs.tif
176
     1
290
     0
176
     1
 40
1.0
176
     1
 40
1.0
176
     1
1001
ACAD
1000
AcDbSavedByObjectVersion
1070
     0
  0
VISUALSTYLE
  5
41
102
{ACAD_REACTORS
330
29
102
}
330
29
100
AcDbVisualStyle
  2
EdgeColorOff
 70
    22
177
     3
291
     1
 70
    58
 90
        2
176
     0
 90
        2
176
     0
 90
        0
176
     0
 90
        0
176
     0
 40
0.6
176
     0
 40
30.0
176
     0
 62
     7
420
 16777215
176
     0
 90
        1
176
     0
 90
        4
176
     0
 62
     7
176
     0
 62
   257
176
     0
 90
        1
176
     0
 90
        1
176
     0
 40
1.0
176
     0
 90
        8
176
     2
 62
     7
176
     0
 40
1.0
176
     0
 90
        1
176
     0
 90
        6
176
     0
 90
        2
176
     0
 62
     7
176
     0
 90
        5
176
     0
 90
        0
176
     0
 90
        0
176
     0
290
     0
176
     0
 90
        1
176
     0
 40
0.0
176
     0
 90
        0
176
     0
290
     0
176
     0
290
     1
176
     0
290
     1
176
     0
290
     0
176
     0
290
     0
176
     0
290
     0
176
     0
290
     0
176
     0
290
     0
176
     0
290
     0
176
     0
 90
       50
176
     0
 40
0.0
176
     0
 40
1.0
176
     0
 90
        0
176
     0
 62
    18
420
        0
176
     0
 90
       50
176
     0
 90
        3
176
     0
 62
     5
420
      255
176
     0
290
     0
176
     0
 90
       50
176
     0
 90
       50
176
     0
 90
       50
176
     0
290
     0
176
     0
 90
       50
176
     0
 62
   256
176
     0
 40
1.0
176
     0
 90
        2
176
     0
  1
strokes_ogs.tif
176
     0
290
     0
176
     0
 40
1.0
176
     0
 40
1.0
176
     0
1001
ACAD
1000
AcDbSavedByObjectVersion
1070
     0
  0
VISUALSTYLE
  5
38
102
{ACAD_REACTORS
330
29
102
}
330
29
100
AcDbVisualStyle
  2
Facepattern
 70
    15
177
     3
291
     1
 70
    58
 90
        2
176
     1
 90
        2
176
     1
 90
        0
176
     1
 90
        0
176
     1
 40
0.6
176
     1
 40
30.0
176
     1
 62
     7
420
 16777215
176
     1
 90
        1
176
     1
 90
        4
176
     1
 62
     7
176
     1
 62
   257
176
     1
 90
        1
176
     1
 90
        1
176
     1
 40
1.0
176
     1
 90
        8
176
     1
 62
     7
176
     1
 40
1.0
176
     1
 90
        1
176
     1
 90
        6
176
     1
 90
        2
176
     1
 62
     7
176
     1
 90
        5
176
     1
 90
        0
176
     1
 90
        0
176
     1
290
     0
176
     1
 90
        1
176
     1
 40
0.0
176
     1
 90
        0
176
     1
290
     0
176
     1
290
     1
176
     1
290
     1
176
     1
290
     0
176
     1
290
     0
176
     1
290
     0
176
     1
290
     0
176
     1
290
     0
176
     1
290
     0
176
     1
 90
       50
176
     1
 40
0.0
176
     1
 40
1.0
176
     1
 90
        0
176
     1
 62
    18
420
        0
176
     1
 90
       50
176
     1
 90
        3
176
     1
 62
     5
420
      255
176
     1
290
     0
176
     1
 90
       50
176
     1
 90
       50
176
     1
 90
       50
176
     1
290
     0
176
     1
 90
       50
176
     1
 62
   256
176
     0
 40
1.0
176
     0
 90
        2
176
     1
  1
strokes_ogs.tif
176
     1
290
     0
176
     1
 40
1.0
176
     1
 40
1.0
176
     1
1001
ACAD
1000
AcDbSavedByObjectVersion
1070
     0
  0
VISUALSTYLE
  5
2A
102
{ACAD_REACTORS
330
29
102
}
330
29
100
AcDbVisualStyle
  2
Flat
 70
     0
177
     3
291
     1
 70
    58
 90
        2
176
     1
 90
        1
176
     1
 90
        1
176
     1
 90
        2
176
     1
 40
0.6
176
     1
 40
30.0
176
     1
 62
     7
420
 16777215
176
     1
 90
        0
176
     1
 90
        0
176
     1
 62
     7
176
     1
 62
   257
176
     1
 90
        1
176
     1
 90
        1
176
     1
 40
1.0
176
     1
 90
        8
176
     1
 62
     7
176
     1
 40
1.0
176
     1
 90
        1
176
     1
 90
        6
176
     1
 90
        2
176
     1
 62
     7
176
     1
 90
        5
176
     1
 90
        0
176
     1
 90
        0
176
     1
290
     0
176
     1
 90
       13
176
     1
 40
0.0
176
     1
 90
        0
176
     1
290
     0
176
     1
290
     1
176
     1
290
     1
176
     1
290
     0
176
     1
290
     0
176
     1
290
     0
176
     1
290
     0
176
     1
290
     0
176
     1
290
     0
176
     1
 90
       50
176
     1
 40
0.0
176
     1
 40
1.0
176
     1
 90
        0
176
     1
 62
    18
420
        0
176
     1
 90
       50
176
     1
 90
        3
176
     1
 62
     5
420
      255
176
     1
290
     0
176
     1
 90
       50
176
     1
 90
       50
176
     1
 90
       50
176
     1
290
     0
176
     1
 90
       50
176
     1
 62
   256
176
     0
 40
1.0
176
     0
 90
        2
176
     1
  1
strokes_ogs.tif
176
     1
290
     0
176
     1
 40
1.0
176
     1
 40
1.0
176
     1
1001
ACAD
1000
AcDbSavedByObjectVersion
1070
     0
  0
VISUALSTYLE
  5
2B
102
{ACAD_REACTORS
330
29
102
}
330
29
100
AcDbVisualStyle
  2
FlatWithEdges
 70
     1
177
     3
291
     1
 70
    58
 90
        2
176
     1
 90
        1
176
     1
 90
        1
176
     1
 90
        2
176
     1
 40
0.6
176
     1
 40
30.0
176
     1
 62
     7
420
 16777215
176
     1
 90
        1
176
     1
 90
        0
176
     1
 62
     7
176
     1
 62
   257
176
     1
 90
        1
176
     1
 90
        1
176
     1
 40
1.0
176
     1
 90
        0
176
     1
 62
   257
176
     1
 40
1.0
176
     1
 90
        1
176
     1
 90
        6
176
     1
 90
        2
176
     1
 62
     7
176
     1
 90
        5
176
     1
 90
        0
176
     1
 90
        0
176
     1
290
     0
176
     1
 90
       13
176
     1
 40
0.0
176
     1
 90
        0
176
     1
290
     0
176
     1
290
     1
176
     1
290
     1
176
     1
290
     0
176
     1
290
     0
176
     1
290
     0
176
     1
290
     0
176
     1
290
     0
176
     1
290
     0
176
     1
 90
       50
176
     1
 40
0.0
176
     1
 40
1.0
176
     1
 90
        0
176
     1
 62
    18
420
        0
176
     1
 90
       50
176
     1
 90
        3
176
     1
 62
     5
420
      255
176
     1
290
     0
176
     1
 90
       50
176
     1
 90
       50
176
     1
 90
       50
176
     1
290
     0
176
     1
 90
       50
176
     1
 62
   256
176
     0
 40
1.0
176
     0
 90
        2
176
     1
  1
strokes_ogs.tif
176
     1
290
     0
176
     1
 40
1.0
176
     1
 40
1.0
176
     1
1001
ACAD
1000
AcDbSavedByObjectVersion
1070
     0
  0
VISUALSTYLE
  5
2C
102
{ACAD_REACTORS
330
29
102
}
330
29
100
AcDbVisualStyle
  2
Gouraud
 70
     2
177
     3
291
     1
 70
    58
 90
        2
176
     1
 90
        2
176
     1
 90
        1
176
     1
 90
        2
176
     1
 40
0.6
176
     1
 40
30.0
176
     1
 62
     7
420
 16777215
176
     1
 90
        0
176
     1
 90
        0
176
     1
 62
     7
176
     1
 62
   257
176
     1
 90
        1
176
     1
 90
        1
176
     1
 40
1.0
176
     1
 90
        0
176
     1
 62
     7
176
     1
 40
1.0
176
     1
 90
        1
176
     1
 90
        6
176
     1
 90
        2
176
     1
 62
     7
176
     1
 90
        5
176
     1
 90
        0
176
     1
 90
        0
176
     1
290
     0
176
     1
 90
       13
176
     1
 40
0.0
176
     1
 90
        0
176
     1
290
     0
176
     1
290
     1
176
     1
290
     1
176
     1
290
     0
176
     1
290
     0
176
     1
290
     0
176
     1
290
     0
176
     1
290
     0
176
     1
290
     0
176
     1
 90
       50
176
     1
 40
0.0
176
     1
 40
1.0
176
     1
 90
        0
176
     1
 62
    18
420
        0
176
     1
 90
       50
176
     1
 90
        3
176
     1
 62
     5
420
      255
176
     1
290
     0
176
     1
 90
       50
176
     1
 90
       50
176
     1
 90
       50
176
     1
290
     0
176
     1
 90
       50
176
     1
 62
   256
176
     0
 40
1.0
176
     0
 90
        2
176
     1
  1
strokes_ogs.tif
176
     1
290
     0
176
     1
 40
1.0
176
     1
 40
1.0
176
     1
1001
ACAD
1000
AcDbSavedByObjectVersion
1070
     0
  0
VISUALSTYLE
  5
2D
102
{ACAD_REACTORS
330
29
102
}
330
29
100
AcDbVisualStyle
  2
GouraudWithEdges
 70
     3
177
     3
291
     1
 70
    58
 90
        2
176
     1
 90
        2
176
     1
 90
        1
176
     1
 90
        2
176
     1
 40
0.6
176
     1
 40
30.0
176
     1
 62
     7
420
 16777215
176
     1
 90
        1
176
     1
 90
        0
176
     1
 62
     7
176
     1
 62
   257
176
     1
 90
        1
176
     1
 90
        1
176
     1
 40
1.0
176
     1
 90
        0
176
     1
 62
   257
176
     1
 40
1.0
176
     1
 90
        1
176
     1
 90
        6
176
     1
 90
        2
176
     1
 62
     7
176
     1
 90
        5
176
     1
 90
        0
176
     1
 90
        0
176
     1
290
     0
176
     1
 90
       13
176
     1
 40
0.0
176
     1
 90
        0
176
     1
290
     0
176
     1
290
     1
176
     1
290
     1
176
     1
290
     0
176
     1
290
     0
176
     1
290
     0
176
     1
290
     0
176
     1
290
     0
176
     1
290
     0
176
     1
 90
       50
176
     1
 40
0.0
176
     1
 40
1.0
176
     1
 90
        0
176
     1
 62
    18
420
        0
176
     1
 90
       50
176
     1
 90
        3
176
     1
 62
     5
420
      255
176
     1
290
     0
176
     1
 90
       50
176
     1
 90
       50
176
     1
 90
       50
176
     1
290
     0
176
     1
 90
       50
176
     1
 62
   256
176
     0
 40
1.0
176
     0
 90
        2
176
     1
  1
strokes_ogs.tif
176
     1
290
     0
176
     1
 40
1.0
176
     1
 40
1.0
176
     1
1001
ACAD
1000
AcDbSavedByObjectVersion
1070
     0
  0
VISUALSTYLE
  5
31
102
{ACAD_REACTORS
330
29
102
}
330
29
100
AcDbVisualStyle
  2
Hidden
 70
     6
177
     3
291
     0
 70
    58
 90
        1
176
     1
 90
        2
176
     1
 90
        2
176
     1
 90
        0
176
     1
 40
0.6
176
     1
 40
30.0
176
     1
 62
     7
420
 16777215
176
     1
 90
        2
176
     1
 90
        2
176
     1
 62
     7
176
     1
 62
   257
176
     1
 90
        2
176
     1
 90
        1
176
     1
 40
40.0
176
     1
 90
        0
176
     1
 62
   257
176
     1
 40
1.0
176
     1
 90
        1
176
     1
 90
        6
176
     1
 90
        2
176
     1
 62
     7
176
     1
 90
        3
176
     1
 90
        0
176
     1
 90
        0
176
     1
290
     0
176
     1
 90
        1
176
     1
 40
0.0
176
     1
 90
        0
176
     1
290
     0
176
     1
290
     1
176
     1
290
     1
176
     1
290
     0
176
     1
290
     0
176
     1
290
     0
176
     1
290
     0
176
     1
290
     0
176
     1
290
     0
176
     1
 90
       50
176
     1
 40
0.0
176
     1
 40
1.0
176
     1
 90
        0
176
     1
 62
    18
420
        0
176
     1
 90
       50
176
     1
 90
        3
176
     1
 62
     5
420
      255
176
     1
290
     0
176
     1
 90
       50
176
     1
 90
       50
176
     1
 90
       50
176
     1
290
     0
176
     1
 90
       50
176
     1
 62
   256
176
     0
 40
1.0
176
     0
 90
        2
176
     1
  1
strokes_ogs.tif
176
     1
290
     0
176
     1
 40
1.0
176
     1
 40
1.0
176
     1
1001
ACAD
1000
AcDbSavedByObjectVersion
1070
     0
  0
VISUALSTYLE
  5
3F
102
{ACAD_REACTORS
330
29
102
}
330
29
100
AcDbVisualStyle
  2
JitterOff
 70
    20
177
     3
291
     1
 70
    58
 90
        2
176
     0
 90
        2
176
     0
 90
        0
176
     0
 90
        0
176
     0
 40
0.6
176
     0
 40
30.0
176
     0
 62
     7
420
 16777215
176
     0
 90
        1
176
     0
 90
        4
176
     0
 62
     7
176
     0
 62
   257
176
     0
 90
        1
176
     0
 90
        1
176
     0
 40
1.0
176
     0
 90
       10
176
     2
 62
     7
176
     0
 40
1.0
176
     0
 90
        1
176
     0
 90
        6
176
     0
 90
        2
176
     0
 62
     7
176
     0
 90
        5
176
     0
 90
        0
176
     0
 90
        0
176
     0
290
     0
176
     0
 90
        1
176
     0
 40
0.0
176
     0
 90
        0
176
     0
290
     0
176
     0
290
     1
176
     0
290
     1
176
     0
290
     0
176
     0
290
     0
176
     0
290
     0
176
     0
290
     0
176
     0
290
     0
176
     0
290
     0
176
     0
 90
       50
176
     0
 40
0.0
176
     0
 40
1.0
176
     0
 90
        0
176
     0
 62
    18
420
        0
176
     0
 90
       50
176
     0
 90
        3
176
     0
 62
     5
420
      255
176
     0
290
     0
176
     0
 90
       50
176
     0
 90
       50
176
     0
 90
       50
176
     0
290
     0
176
     0
 90
       50
176
     0
 62
   256
176
     0
 40
1.0
176
     0
 90
        2
176
     0
  1
strokes_ogs.tif
176
     0
290
     0
176
     0
 40
1.0
176
     0
 40
1.0
176
     0
1001
ACAD
1000
AcDbSavedByObjectVersion
1070
     0
  0
VISUALSTYLE
  5
37
102
{ACAD_REACTORS
330
29
102
}
330
29
100
AcDbVisualStyle
  2
Linepattern
 70
    14
177
     3
291
     1
 70
    58
 90
        2
176
     1
 90
        2
176
     1
 90
        0
176
     1
 90
        0
176
     1
 40
0.6
176
     1
 40
30.0
176
     1
 62
     7
420
 16777215
176
     1
 90
        1
176
     1
 90
        4
176
     1
 62
     7
176
     1
 62
   257
176
     1
 90
        7
176
     1
 90
        7
176
     1
 40
1.0
176
     1
 90
        8
176
     1
 62
     7
176
     1
 40
1.0
176
     1
 90
        1
176
     1
 90
        6
176
     1
 90
        2
176
     1
 62
     7
176
     1
 90
        5
176
     1
 90
        0
176
     1
 90
        0
176
     1
290
     0
176
     1
 90
        1
176
     1
 40
0.0
176
     1
 90
        0
176
     1
290
     0
176
     1
290
     1
176
     1
290
     1
176
     1
290
     0
176
     1
290
     0
176
     1
290
     0
176
     1
290
     0
176
     1
290
     0
176
     1
290
     0
176
     1
 90
       50
176
     1
 40
0.0
176
     1
 40
1.0
176
     1
 90
        0
176
     1
 62
    18
420
        0
176
     1
 90
       50
176
     1
 90
        3
176
     1
 62
     5
420
      255
176
     1
290
     0
176
     1
 90
       50
176
     1
 90
       50
176
     1
 90
       50
176
     1
290
     0
176
     1
 90
       50
176
     1
 62
   256
176
     0
 40
1.0
176
     0
 90
        2
176
     1
  1
strokes_ogs.tif
176
     1
290
     0
176
     1
 40
1.0
176
     1
 40
1.0
176
     1
1001
ACAD
1000
AcDbSavedByObjectVersion
1070
     0
  0
VISUALSTYLE
  5
40
102
{ACAD_REACTORS
330
29
102
}
330
29
100
AcDbVisualStyle
  2
OverhangOff
 70
    21
177
     3
291
     1
 70
    58
 90
        2
176
     0
 90
        2
176
     0
 90
        0
176
     0
 90
        0
176
     0
 40
0.6
176
     0
 40
30.0
176
     0
 62
     7
420
 16777215
176
     0
 90
        1
176
     0
 90
        4
176
     0
 62
     7
176
     0
 62
   257
176
     0
 90
        1
176
     0
 90
        1
176
     0
 40
1.0
176
     0
 90
        9
176
     2
 62
     7
176
     0
 40
1.0
176
     0
 90
        1
176
     0
 90
        6
176
     0
 90
        2
176
     0
 62
     7
176
     0
 90
        5
176
     0
 90
        0
176
     0
 90
        0
176
     0
290
     0
176
     0
 90
        1
176
     0
 40
0.0
176
     0
 90
        0
176
     0
290
     0
176
     0
290
     1
176
     0
290
     1
176
     0
290
     0
176
     0
290
     0
176
     0
290
     0
176
     0
290
     0
176
     0
290
     0
176
     0
290
     0
176
     0
 90
       50
176
     0
 40
0.0
176
     0
 40
1.0
176
     0
 90
        0
176
     0
 62
    18
420
        0
176
     0
 90
       50
176
     0
 90
        3
176
     0
 62
     5
420
      255
176
     0
290
     0
176
     0
 90
       50
176
     0
 90
       50
176
     0
 90
       50
176
     0
290
     0
176
     0
 90
       50
176
     0
 62
   256
176
     0
 40
1.0
176
     0
 90
        2
176
     0
  1
strokes_ogs.tif
176
     0
290
     0
176
     0
 40
1.0
176
     0
 40
1.0
176
     0
1001
ACAD
1000
AcDbSavedByObjectVersion
1070
     0
  0
VISUALSTYLE
  5
33
102
{ACAD_REACTORS
330
29
102
}
330
29
100
AcDbVisualStyle
  2
Realistic
 70
     8
177
     3
291
     0
 70
    58
 90
        2
176
     1
 90
        3
176
     1
 90
        0
176
     1
 90
        2
176
     1
 40
0.6
176
     1
 40
30.0
176
     1
 62
     7
420
 16777215
176
     1
 90
        0
176
     1
 90
        0
176
     1
 62
     7
176
     1
 62
   257
176
     1
 90
        1
176
     1
 90
        1
176
     1
 40
1.0
176
     1
 90
        8
176
     1
 62
   257
176
     1
 40
1.0
176
     1
 90
        1
176
     1
 90
        6
176
     1
 90
        2
176
     1
 62
     7
176
     1
 90
        3
176
     1
 90
        0
176
     1
 90
        0
176
     1
290
     0
176
     1
 90
       13
176
     1
 40
0.0
176
     1
 90
        0
176
     1
290
     0
176
     1
290
     1
176
     1
290
     1
176
     1
290
     0
176
     1
290
     0
176
     1
290
     0
176
     1
290
     0
176
     1
290
     0
176
     1
290
     0
176
     1
 90
       50
176
     1
 40
0.0
176
     1
 40
1.0
176
     1
 90
        0
176
     1
 62
    18
420
        0
176
     1
 90
       50
176
     1
 90
        3
176
     1
 62
     5
420
      255
176
     1
290
     0
176
     1
 90
       50
176
     1
 90
       50
176
     1
 90
       50
176
     1
290
     0
176
     1
 90
       50
176
     1
 62
   256
176
     0
 40
1.0
176
     0
 90
        2
176
     1
  1
strokes_ogs.tif
176
     1
290
     0
176
     1
 40
1.0
176
     1
 40
1.0
176
     1
1001
ACAD
1000
AcDbSavedByObjectVersion
1070
     0
  0
VISUALSTYLE
  5
3E
102
{ACAD_REACTORS
330
29
102
}
330
29
100
AcDbVisualStyle
  2
Shaded
 70
    27
177
     3
291
     0
 70
    58
 90
        2
176
     1
 90
        2
176
     1
 90
        1
176
     1
 90
        2
176
     1
 40
0.6
176
     1
 40
30.0
176
     1
 62
     7
420
 16777215
176
     1
 90
        0
176
     1
 90
        4
176
     1
 62
     7
176
     1
 62
   257
176
     1
 90
        1
176
     1
 90
        1
176
     1
 40
1.0
176
     1
 90
        8
176
     1
 62
   257
176
     1
 40
1.0
176
     1
 90
        1
176
     1
 90
        6
176
     1
 90
        2
176
     1
 62
     8
420
  7895160
176
     1
 90
        3
176
     1
 90
        0
176
     1
 90
        0
176
     1
290
     0
176
     1
 90
        5
176
     1
 40
0.0
176
     1
 90
        0
176
     1
290
     0
176
     1
290
     1
176
     1
290
     1
176
     1
290
     0
176
     1
290
     0
176
     1
290
     0
176
     1
290
     0
176
     1
290
     0
176
     1
290
     0
176
     1
 90
       50
176
     1
 40
0.0
176
     1
 40
1.0
176
     1
 90
        0
176
     1
 62
    18
420
        0
176
     1
 90
       50
176
     1
 90
        3
176
     1
 62
     5
420
      255
176
     1
290
     0
176
     1
 90
       50
176
     1
 90
       50
176
     1
 90
       50
176
     1
290
     0
176
     1
 90
       50
176
     1
 62
   256
176
     0
 40
1.0
176
     0
 90
        2
176
     1
  1
strokes_ogs.tif
176
     1
290
     0
176
     1
 40
1.0
176
     1
 40
1.0
176
     1
1001
ACAD
1000
AcDbSavedByObjectVersion
1070
     0
  0
VISUALSTYLE
  5
3D
102
{ACAD_REACTORS
330
29
102
}
330
29
100
AcDbVisualStyle
  2
Shaded with edges
 70
    26
177
     3
291
     0
 70
    58
 90
        2
176
     1
 90
        2
176
     1
 90
        1
176
     1
 90
        2
176
     1
 40
0.6
176
     1
 40
30.0
176
     1
 62
     7
420
 16777215
176
     1
 90
        1
176
     1
 90
        2
176
     1
 62
     7
176
     1
 62
   257
176
     1
 90
        2
176
     1
 90
        1
176
     1
 40
1.0
176
     1
 90
        8
176
     1
 62
   257
176
     1
 40
1.0
176
     1
 90
        1
176
     1
 90
        6
176
     1
 90
        2
176
     1
 62
     7
176
     1
 90
        3
176
     1
 90
        0
176
     1
 90
        0
176
     1
290
     0
176
     1
 90
        5
176
     1
 40
0.0
176
     1
 90
        0
176
     1
290
     0
176
     1
290
     1
176
     1
290
     1
176
     1
290
     0
176
     1
290
     0
176
     1
290
     0
176
     1
290
     0
176
     1
290
     0
176
     1
290
     0
176
     1
 90
       50
176
     1
 40
0.0
176
     1
 40
1.0
176
     1
 90
        0
176
     1
 62
    18
420
        0
176
     1
 90
       50
176
     1
 90
        3
176
     1
 62
     5
420
      255
176
     1
290
     0
176
     1
 90
       50
176
     1
 90
       50
176
     1
 90
       50
176
     1
290
     0
176
     1
 90
       50
176
     1
 62
   256
176
     0
 40
1.0
176
     0
 90
        2
176
     1
  1
strokes_ogs.tif
176
     1
290
     0
176
     1
 40
1.0
176
     1
 40
1.0
176
     1
1001
ACAD
1000
AcDbSavedByObjectVersion
1070
     0
  0
VISUALSTYLE
  5
3A
102
{ACAD_REACTORS
330
29
102
}
330
29
100
AcDbVisualStyle
  2
Shades of Gray
 70
    23
177
     3
291
     0
 70
    58
 90
        2
176
     1
 90
        2
176
     1
 90
        3
176
     1
 90
        0
176
     1
 40
0.6
176
     1
 40
30.0
176
     1
 62
     7
420
 16777215
176
     1
 90
        2
176
     1
 90
        2
176
     1
 62
     7
176
     1
 62
     7
176
     1
 90
        1
176
     1
 90
        1
176
     1
 40
40.0
176
     1
 90
        8
176
     1
 62
     7
176
     1
 40
1.0
176
     1
 90
        1
176
     1
 90
        6
176
     1
 90
        2
176
     1
 62
     7
176
     1
 90
        3
176
     1
 90
        0
176
     1
 90
        0
176
     1
290
     0
176
     1
 90
        1
176
     1
 40
0.0
176
     1
 90
        0
176
     1
290
     0
176
     1
290
     1
176
     1
290
     1
176
     1
290
     0
176
     1
290
     0
176
     1
290
     0
176
     1
290
     0
176
     1
290
     0
176
     1
290
     0
176
     1
 90
       50
176
     1
 40
0.0
176
     1
 40
1.0
176
     1
 90
        0
176
     1
 62
    18
420
        0
176
     1
 90
       50
176
     1
 90
        3
176
     1
 62
     5
420
      255
176
     1
290
     0
176
     1
 90
       50
176
     1
 90
       50
176
     1
 90
       50
176
     1
290
     0
176
     1
 90
       50
176
     1
 62
   256
176
     0
 40
1.0
176
     0
 90
        2
176
     1
  1
strokes_ogs.tif
176
     1
290
     0
176
     1
 40
1.0
176
     1
 40
1.0
176
     1
1001
ACAD
1000
AcDbSavedByObjectVersion
1070
     0
  0
VISUALSTYLE
  5
3B
102
{ACAD_REACTORS
330
29
102
}
330
29
100
AcDbVisualStyle
  2
Sketchy
 70
    24
177
     3
291
     0
 70
    58
 90
        1
176
     1
 90
        2
176
     1
 90
        2
176
     1
 90
        0
176
     1
 40
0.6
176
     1
 40
30.0
176
     1
 62
     7
420
 16777215
176
     1
 90
        2
176
     1
 90
        2
176
     1
 62
     7
176
     1
 62
     7
176
     1
 90
        1
176
     1
 90
        1
176
     1
 40
40.0
176
     1
 90
       11
176
     1
 62
     7
176
     1
 40
1.0
176
     1
 90
        1
176
     1
 90
        6
176
     1
 90
        2
176
     1
 62
     7
176
     1
 90
        6
176
     1
 90
        0
176
     1
 90
        0
176
     1
290
     0
176
     1
 90
        1
176
     1
 40
0.0
176
     1
 90
        0
176
     1
290
     0
176
     1
290
     1
176
     1
290
     1
176
     1
290
     0
176
     1
290
     0
176
     1
290
     0
176
     1
290
     0
176
     1
290
     0
176
     1
290
     0
176
     1
 90
       50
176
     1
 40
0.0
176
     1
 40
1.0
176
     1
 90
        0
176
     1
 62
    18
420
        0
176
     1
 90
       50
176
     1
 90
        3
176
     1
 62
     5
420
      255
176
     1
290
     0
176
     1
 90
       50
176
     1
 90
       50
176
     1
 90
       50
176
     1
290
     0
176
     1
 90
       50
176
     1
 62
   256
176
     0
 40
1.0
176
     0
 90
        2
176
     1
  1
strokes_ogs.tif
176
     1
290
     0
176
     1
 40
1.0
176
     1
 40
1.0
176
     1
1001
ACAD
1000
AcDbSavedByObjectVersion
1070
     0
  0
VISUALSTYLE
  5
36
102
{ACAD_REACTORS
330
29
102
}
330
29
100
AcDbVisualStyle
  2
Thicken
 70
    13
177
     3
291
     1
 70
    58
 90
        2
176
     1
 90
        2
176
     1
 90
        0
176
     1
 90
        0
176
     1
 40
0.6
176
     1
 40
30.0
176
     1
 62
     7
420
 16777215
176
     1
 90
        1
176
     1
 90
        4
176
     1
 62
     7
176
     1
 62
   257
176
     1
 90
        1
176
     1
 90
        1
176
     1
 40
1.0
176
     1
 90
       12
176
     1
 62
     7
176
     1
 40
1.0
176
     1
 90
        1
176
     1
 90
        6
176
     1
 90
        2
176
     1
 62
     7
176
     1
 90
        5
176
     1
 90
        0
176
     1
 90
        0
176
     1
290
     0
176
     1
 90
        1
176
     1
 40
0.0
176
     1
 90
        0
176
     1
290
     0
176
     1
290
     1
176
     1
290
     1
176
     1
290
     0
176
     1
290
     0
176
     1
290
     0
176
     1
290
     0
176
     1
290
     0
176
     1
290
     0
176
     1
 90
       50
176
     1
 40
0.0
176
     1
 40
1.0
176
     1
 90
        0
176
     1
 62
    18
420
        0
176
     1
 90
       50
176
     1
 90
        3
176
     1
 62
     5
420
      255
176
     1
290
     0
176
     1
 90
       50
176
     1
 90
       50
176
     1
 90
       50
176
     1
290
     0
176
     1
 90
       50
176
     1
 62
   256
176
     0
 40
1.0
176
     0
 90
        2
176
     1
  1
strokes_ogs.tif
176
     1
290
     0
176
     1
 40
1.0
176
     1
 40
1.0
176
     1
1001
ACAD
1000
AcDbSavedByObjectVersion
1070
     0
  0
VISUALSTYLE
  5
30
102
{ACAD_REACTORS
330
29
102
}
330
29
100
AcDbVisualStyle
  2
Wireframe
 70
     5
177
     3
291
     0
 70
    58
 90
        0
176
     1
 90
        2
176
     1
 90
        0
176
     1
 90
        0
176
     1
 40
0.6
176
     1
 40
30.0
176
     1
 62
     7
420
 16777215
176
     1
 90
        1
176
     1
 90
        4
176
     1
 62
     7
176
     1
 62
   257
176
     1
 90
        1
176
     1
 90
        1
176
     1
 40
1.0
176
     1
 90
        0
176
     1
 62
   257
176
     1
 40
1.0
176
     1
 90
        1
176
     1
 90
        6
176
     1
 90
        2
176
     1
 62
     7
176
     1
 90
        3
176
     1
 90
        0
176
     1
 90
        0
176
     1
290
     0
176
     1
 90
        1
176
     1
 40
0.0
176
     1
 90
        0
176
     1
290
     0
176
     1
290
     1
176
     1
290
     1
176
     1
290
     0
176
     1
290
     0
176
     1
290
     0
176
     1
290
     0
176
     1
290
     0
176
     1
290
     0
176
     1
 90
       50
176
     1
 40
0.0
176
     1
 40
1.0
176
     1
 90
        0
176
     1
 62
    18
420
        0
176
     1
 90
       50
176
     1
 90
        3
176
     1
 62
     5
420
      255
176
     1
290
     0
176
     1
 90
       50
176
     1
 90
       50
176
     1
 90
       50
176
     1
290
     0
176
     1
 90
       50
176
     1
 62
   256
176
     0
 40
1.0
176
     0
 90
        2
176
     1
  1
strokes_ogs.tif
176
     1
290
     0
176
     1
 40
1.0
176
     1
 40
1.0
176
     1
1001
ACAD
1000
AcDbSavedByObjectVersion
1070
     0
  0
VISUALSTYLE
  5
3C
102
{ACAD_REACTORS
330
29
102
}
330
29
100
AcDbVisualStyle
  2
X-Ray
 70
    25
177
     3
291
     0
 70
    58
 90
        2
176
     1
 90
        2
176
     1
 90
        1
176
     1
 90
        1
176
     1
 40
0.5
176
     1
 40
30.0
176
     1
 62
     7
420
 16777215
176
     1
 90
        1
176
     1
 90
        0
176
     1
 62
     7
176
     1
 62
   257
176
     1
 90
        1
176
     1
 90
        1
176
     1
 40
1.0
176
     1
 90
        8
176
     1
 62
     7
176
     1
 40
1.0
176
     1
 90
        1
176
     1
 90
        6
176
     1
 90
        2
176
     1
 62
     7
176
     1
 90
        3
176
     1
 90
        0
176
     1
 90
        0
176
     1
290
     0
176
     1
 90
       13
176
     1
 40
0.0
176
     1
 90
        0
176
     1
290
     0
176
     1
290
     1
176
     1
290
     1
176
     1
290
     0
176
     1
290
     0
176
     1
290
     0
176
     1
290
     0
176
     1
290
     0
176
     1
290
     0
176
     1
 90
       50
176
     1
 40
0.0
176
     1
 40
1.0
176
     1
 90
        0
176
     1
 62
    18
420
        0
176
     1
 90
       50
176
     1
 90
        3
176
     1
 62
     5
420
      255
176
     1
290
     0
176
     1
 90
       50
176
     1
 90
       50
176
     1
 90
       50
176
     1
290
     0
176
     1
 90
       50
176
     1
 62
   256
176
     0
 40
1.0
176
     0
 90
        2
176
     1
  1
strokes_ogs.tif
176
     1
290
     0
176
     1
 40
1.0
176
     1
 40
1.0
176
     1
1001
ACAD
1000
AcDbSavedByObjectVersion
1070
     0
  0
DICTIONARYVAR
  5
602
102
{ACAD_REACTORS
330
5FD
102
}
330
5FD
100
DictionaryVariables
280
     0
  1
0
  0
DICTIONARYVAR
  5
603
102
{ACAD_REACTORS
330
5FD
102
}
330
5FD
100
DictionaryVariables
280
     0
  1
1:1
  0
DICTIONARYVAR
  5
5FF
102
{ACAD_REACTORS
330
5FD
102
}
330
5FD
100
DictionaryVariables
280
     0
  1
STANDARD
  0
DICTIONARYVAR
  5
5FE
102
{ACAD_REACTORS
330
5FD
102
}
330
5FD
100
DictionaryVariables
280
     0
  1
STANDARD
  0
DICTIONARYVAR
  5
600
102
{ACAD_REACTORS
330
5FD
102
}
330
5FD
100
DictionaryVariables
280
     0
  1
Imperial24
  0
DICTIONARYVAR
  5
601
102
{ACAD_REACTORS
330
5FD
102
}
330
5FD
100
DictionaryVariables
280
     0
  1
Imperial24
  0
DICTIONARY
  5
609
330
6B
100
AcDbDictionary
280
     1
281
     1
  3
ACAD_XREC_ROUNDTRIP
360
60A
  0
DICTIONARY
  5
1A
330
19
100
AcDbDictionary
280
     1
281
     1
  3
BUMPTILE
360
1C
  3
DIFFUSETILE
360
1B
  3
OPACITYTILE
360
1F
  3
REFLECTIONTILE
360
1E
  3
REFRACTIONTILE
360
20
  3
SPECULARTILE
360
1D
  0
DICTIONARY
  5
12
330
11
100
AcDbDictionary
280
     1
281
     1
  3
BUMPTILE
360
14
  3
DIFFUSETILE
360
13
  3
OPACITYTILE
360
17
  3
REFLECTIONTILE
360
16
  3
REFRACTIONTILE
360
18
  3
SPECULARTILE
360
15
  0
DICTIONARY
  5
22
330
21
100
AcDbDictionary
280
     1
281
     1
  3
BUMPTILE
360
24
  3
DIFFUSETILE
360
23
  3
OPACITYTILE
360
27
  3
REFLECTIONTILE
360
26
  3
REFRACTIONTILE
360
28
  3
SPECULARTILE
360
25
  0
DICTIONARY
  5
607
330
69
100
AcDbDictionary
280
     1
281
     1
  3
ACAD_XREC_ROUNDTRIP
360
608
  0
DICTIONARY
  5
604
330
65
100
AcDbDictionary
280
     1
281
     1
  3
ACAD_ROUNDTRIP_2008_TABLESTYLE_CELLSTYLEMAP
360
605
  0
XRECORD
  5
60A
102
{ACAD_REACTORS
330
609
102
}
330
609
100
AcDbXrecord
280
     1
102
DISPLAYNAME
  1
Imperial24
102
FLAGS
 90
        0
  0
XRECORD
  5
1C
102
{ACAD_REACTORS
330
1A
102
}
330
1A
100
AcDbXrecord
280
     1
270
     1
271
     1
  0
XRECORD
  5
1B
102
{ACAD_REACTORS
330
1A
102
}
330
1A
100
AcDbXrecord
280
     1
270
     1
271
     1
  0
XRECORD
  5
1F
102
{ACAD_REACTORS
330
1A
102
}
330
1A
100
AcDbXrecord
280
     1
270
     1
271
     1
  0
XRECORD
  5
1E
102
{ACAD_REACTORS
330
1A
102
}
330
1A
100
AcDbXrecord
280
     1
270
     1
271
     1
  0
XRECORD
  5
20
102
{ACAD_REACTORS
330
1A
102
}
330
1A
100
AcDbXrecord
280
     1
270
     1
271
     1
  0
XRECORD
  5
1D
102
{ACAD_REACTORS
330
1A
102
}
330
1A
100
AcDbXrecord
280
     1
270
     1
271
     1
  0
XRECORD
  5
14
102
{ACAD_REACTORS
330
12
102
}
330
12
100
AcDbXrecord
280
     1
270
     1
271
     1
  0
XRECORD
  5
13
102
{ACAD_REACTORS
330
12
102
}
330
12
100
AcDbXrecord
280
     1
270
     1
271
     1
  0
XRECORD
  5
17
102
{ACAD_REACTORS
330
12
102
}
330
12
100
AcDbXrecord
280
     1
270
     1
271
     1
  0
XRECORD
  5
16
102
{ACAD_REACTORS
330
12
102
}
330
12
100
AcDbXrecord
280
     1
270
     1
271
     1
  0
XRECORD
  5
18
102
{ACAD_REACTORS
330
12
102
}
330
12
100
AcDbXrecord
280
     1
270
     1
271
     1
  0
XRECORD
  5
15
102
{ACAD_REACTORS
330
12
102
}
330
12
100
AcDbXrecord
280
     1
270
     1
271
     1
  0
XRECORD
  5
24
102
{ACAD_REACTORS
330
22
102
}
330
22
100
AcDbXrecord
280
     1
270
     1
271
     1
  0
XRECORD
  5
23
102
{ACAD_REACTORS
330
22
102
}
330
22
100
AcDbXrecord
280
     1
270
     1
271
     1
  0
XRECORD
  5
27
102
{ACAD_REACTORS
330
22
102
}
330
22
100
AcDbXrecord
280
     1
270
     1
271
     1
  0
XRECORD
  5
26
102
{ACAD_REACTORS
330
22
102
}
330
22
100
AcDbXrecord
280
     1
270
     1
271
     1
  0
XRECORD
  5
28
102
{ACAD_REACTORS
330
22
102
}
330
22
100
AcDbXrecord
280
     1
270
     1
271
     1
  0
XRECORD
  5
25
102
{ACAD_REACTORS
330
22
102
}
330
22
100
AcDbXrecord
280
     1
270
     1
271
     1
  0
XRECORD
  5
608
102
{ACAD_REACTORS
330
607
102
}
330
607
100
AcDbXrecord
280
     1
102
DISPLAYNAME
  1
Imperial24
102
FLAGS
 90
        0
  0
CELLSTYLEMAP
  5
605
102
{ACAD_REACTORS
330
604
102
}
330
604
100
AcDbCellStyleMap
 90
        3
300
CELLSTYLE
  1
TABLEFORMAT_BEGIN
 90
        5
170
     1
 91
        0
 92
    32768
 62
   257
 93
        1
300
CONTENTFORMAT
  1
CONTENTFORMAT_BEGIN
 90
        0
 91
        0
 92
      512
 93
        0
300

 40
0.0
140
1.0
 94
        5
 62
     0
340
55
144
0.25
309
CONTENTFORMAT_END
171
     1
301
MARGIN
  1
CELLMARGIN_BEGIN
 40
1.5
 40
1.5
 40
1.5
 40
1.5
 40
0.18
 40
0.18
309
CELLMARGIN_END
 94
        0
309
TABLEFORMAT_END
  1
CELLSTYLE_BEGIN
 90
        1
 91
        1
300
_TITLE
309
CELLSTYLE_END
300
CELLSTYLE
  1
TABLEFORMAT_BEGIN
 90
        5
170
     1
 91
        0
 92
        0
 62
   257
 93
        1
300
CONTENTFORMAT
  1
CONTENTFORMAT_BEGIN
 90
        0
 91
        0
 92
      512
 93
        0
300

 40
0.0
140
1.0
 94
        5
 62
     0
340
55
144
0.18
309
CONTENTFORMAT_END
171
     1
301
MARGIN
  1
CELLMARGIN_BEGIN
 40
1.5
 40
1.5
 40
1.5
 40
1.5
 40
0.18
 40
0.18
309
CELLMARGIN_END
 94
        0
309
TABLEFORMAT_END
  1
CELLSTYLE_BEGIN
 90
        2
 91
        1
300
_HEADER
309
CELLSTYLE_END
300
CELLSTYLE
  1
TABLEFORMAT_BEGIN
 90
        5
170
     1
 91
        0
 92
        0
 62
   257
 93
        1
300
CONTENTFORMAT
  1
CONTENTFORMAT_BEGIN
 90
        0
 91
        0
 92
      512
 93
        0
300

 40
0.0
140
1.0
 94
        2
 62
     0
340
55
144
0.18
309
CONTENTFORMAT_END
171
     1
301
MARGIN
  1
CELLMARGIN_BEGIN
 40
1.5
 40
1.5
 40
1.5
 40
1.5
 40
0.18
 40
0.18
309
CELLMARGIN_END
 94
        0
309
TABLEFORMAT_END
  1
CELLSTYLE_BEGIN
 90
        3
 91
        2
300
_DATA
309
CELLSTYLE_END
  0
ENDSEC
  0
EOF
