  0
SECTION
  2
HEADER
  9
$ACADVER
  1
AC1027
  9
$ACADMAINTVER
 70
   125
  9
$DWGCODEPAGE
  3
ANSI_932
  9
$LASTSAVEDBY
  1
yatishkale
  9
$REQUIREDVERSIONS
160
                 0
  9
$INSBASE
 10
0.0
 20
0.0
 30
0.0
  9
$EXTMIN
 10
0.0
 20
0.0
 30
0.0
  9
$EXTMAX
 10
420.0
 20
585.841786
 30
0.0
  9
$LIMMIN
 10
0.0
 20
0.0
  9
$LIMMAX
 10
420.0
 20
297.0
  9
$ORTHOMODE
 70
     0
  9
$REGENMODE
 70
     1
  9
$FILLMODE
 70
     1
  9
$QTEXTMODE
 70
     0
  9
$MIRRTEXT
 70
     0
  9
$LTSCALE
 40
0.75
  9
$ATTMODE
 70
     1
  9
$TEXTSIZE
 40
3.5
  9
$TRACEWID
 40
1.0
  9
$TEXTSTYLE
  7
Standard
  9
$CLAYER
  8
0
  9
$CELTYPE
  6
ByLayer
  9
$CECOLOR
 62
   256
  9
$CELTSCALE
 40
1.0
  9
$DISPSILH
 70
     0
  9
$DIMSCALE
 40
1.0
  9
$DIMASZ
 40
3.5
  9
$DIMEXO
 40
2.1
  9
$DIMDLI
 40
10.5
  9
$DIMRND
 40
0.0
  9
$DIMDLE
 40
0.0
  9
$DIMEXE
 40
2.1
  9
$DIMTP
 40
0.1
  9
$DIMTM
 40
0.1
  9
$DIMTXT
 40
3.5
  9
$DIMCEN
 40
0.0
  9
$DIMTSZ
 40
0.0
  9
$DIMTOL
 70
     0
  9
$DIMLIM
 70
     0
  9
$DIMTIH
 70
     0
  9
$DIMTOH
 70
     0
  9
$DIMSE1
 70
     0
  9
$DIMSE2
 70
     0
  9
$DIMTAD
 70
     1
  9
$DIMZIN
 70
     8
  9
$DIMBLK
  1

  9
$DIMASO
 70
     1
  9
$DIMSHO
 70
     1
  9
$DIMPOST
  1

  9
$DIMAPOST
  1

  9
$DIMALT
 70
     0
  9
$DIMALTD
 70
     2
  9
$DIMALTF
 40
0.03937
  9
$DIMLFAC
 40
1.0
  9
$DIMTOFL
 70
     1
  9
$DIMTVP
 40
0.0
  9
$DIMTIX
 70
     0
  9
$DIMSOXD
 70
     0
  9
$DIMSAH
 70
     0
  9
$DIMBLK1
  1

  9
$DIMBLK2
  1

  9
$DIMSTYLE
  2
Dim-ISO-25
  9
$DIMCLRD
 70
     0
  9
$DIMCLRE
 70
     0
  9
$DIMCLRT
 70
     0
  9
$DIMTFAC
 40
0.714286
  9
$DIMGAP
 40
1.4
  9
$DIMJUST
 70
     0
  9
$DIMSD1
 70
     0
  9
$DIMSD2
 70
     0
  9
$DIMTOLJ
 70
     0
  9
$DIMTZIN
 70
     8
  9
$DIMALTZ
 70
    12
  9
$DIMALTTZ
 70
    12
  9
$DIMUPT
 70
     0
  9
$DIMDEC
 70
     2
  9
$DIMTDEC
 70
     2
  9
$DIMALTU
 70
     2
  9
$DIMALTTD
 70
     2
  9
$DIMTXSTY
  7
Standard
  9
$DIMAUNIT
 70
     0
  9
$DIMADEC
 70
     2
  9
$DIMALTRND
 40
0.0
  9
$DIMAZIN
 70
     2
  9
$DIMDSEP
 70
    46
  9
$DIMATFIT
 70
     3
  9
$DIMFRAC
 70
     0
  9
$DIMLDRBLK
  1

  9
$DIMLUNIT
 70
     2
  9
$DIMLWD
 70
    -2
  9
$DIMLWE
 70
    -2
  9
$DIMTMOVE
 70
     0
  9
$DIMFXL
 40
1.0
  9
$DIMFXLON
 70
     0
  9
$DIMJOGANG
 40
0.785398
  9
$DIMTFILL
 70
     0
  9
$DIMTFILLCLR
 70
     0
  9
$DIMARCSYM
 70
     0
  9
$DIMLTYPE
  6

  9
$DIMLTEX1
  6

  9
$DIMLTEX2
  6

  9
$DIMTXTDIRECTION
 70
     0
  9
$LUNITS
 70
     2
  9
$LUPREC
 70
     4
  9
$SKETCHINC
 40
1.0
  9
$FILLETRAD
 40
0.0
  9
$AUNITS
 70
     0
  9
$AUPREC
 70
     0
  9
$MENU
  1
.
  9
$ELEVATION
 40
0.0
  9
$PELEVATION
 40
0.0
  9
$THICKNESS
 40
0.0
  9
$LIMCHECK
 70
     0
  9
$CHAMFERA
 40
0.0
  9
$CHAMFERB
 40
0.0
  9
$CHAMFERC
 40
0.0
  9
$CHAMFERD
 40
0.0
  9
$SKPOLY
 70
     0
  9
$TDCREATE
 40
2459907.348287037
  9
$TDUCREATE
 40
2459906.973287037
  9
$TDUPDATE
 40
2459907.348287037
  9
$TDUUPDATE
 40
2459906.973287037
  9
$TDINDWG
 40
0.0000000000
  9
$TDUSRTIMER
 40
0.0000000000
  9
$USRTIMER
 70
     1
  9
$ANGBASE
 50
0.0
  9
$ANGDIR
 70
     0
  9
$PDMODE
 70
     0
  9
$PDSIZE
 40
0.0
  9
$PLINEWID
 40
0.0
  9
$SPLFRAME
 70
     0
  9
$SPLINETYPE
 70
     6
  9
$SPLINESEGS
 70
     8
  9
$HANDSEED
  5
5ED
  9
$SURFTAB1
 70
     6
  9
$SURFTAB2
 70
     6
  9
$SURFTYPE
 70
     6
  9
$SURFU
 70
     6
  9
$SURFV
 70
     6
  9
$UCSBASE
  2

  9
$UCSNAME
  2

  9
$UCSORG
 10
0.0
 20
0.0
 30
0.0
  9
$UCSXDIR
 10
1.0
 20
0.0
 30
0.0
  9
$UCSYDIR
 10
0.0
 20
1.0
 30
0.0
  9
$UCSORTHOREF
  2

  9
$UCSORTHOVIEW
 70
     0
  9
$UCSORGTOP
 10
0.0
 20
0.0
 30
0.0
  9
$UCSORGBOTTOM
 10
0.0
 20
0.0
 30
0.0
  9
$UCSORGLEFT
 10
0.0
 20
0.0
 30
0.0
  9
$UCSORGRIGHT
 10
0.0
 20
0.0
 30
0.0
  9
$UCSORGFRONT
 10
0.0
 20
0.0
 30
0.0
  9
$UCSORGBACK
 10
0.0
 20
0.0
 30
0.0
  9
$PUCSBASE
  2

  9
$PUCSNAME
  2

  9
$PUCSORG
 10
0.0
 20
0.0
 30
0.0
  9
$PUCSXDIR
 10
1.0
 20
0.0
 30
0.0
  9
$PUCSYDIR
 10
0.0
 20
1.0
 30
0.0
  9
$PUCSORTHOREF
  2

  9
$PUCSORTHOVIEW
 70
     0
  9
$PUCSORGTOP
 10
0.0
 20
0.0
 30
0.0
  9
$PUCSORGBOTTOM
 10
0.0
 20
0.0
 30
0.0
  9
$PUCSORGLEFT
 10
0.0
 20
0.0
 30
0.0
  9
$PUCSORGRIGHT
 10
0.0
 20
0.0
 30
0.0
  9
$PUCSORGFRONT
 10
0.0
 20
0.0
 30
0.0
  9
$PUCSORGBACK
 10
0.0
 20
0.0
 30
0.0
  9
$USERI1
 70
     0
  9
$USERI2
 70
     0
  9
$USERI3
 70
     0
  9
$USERI4
 70
     0
  9
$USERI5
 70
     0
  9
$USERR1
 40
0.0
  9
$USERR2
 40
0.0
  9
$USERR3
 40
0.0
  9
$USERR4
 40
0.0
  9
$USERR5
 40
0.0
  9
$WORLDVIEW
 70
     1
  9
$SHADEDGE
 70
     3
  9
$SHADEDIF
 70
    70
  9
$TILEMODE
 70
     1
  9
$MAXACTVP
 70
    64
  9
$PINSBASE
 10
0.0
 20
0.0
 30
0.0
  9
$PLIMCHECK
 70
     0
  9
$PEXTMIN
 10
1.000000E+20
 20
1.000000E+20
 30
1.000000E+20
  9
$PEXTMAX
 10
-1.000000E+20
 20
-1.000000E+20
 30
-1.000000E+20
  9
$PLIMMIN
 10
0.0
 20
0.0
  9
$PLIMMAX
 10
12.0
 20
9.0
  9
$UNITMODE
 70
     0
  9
$VISRETAIN
 70
     1
  9
$PLINEGEN
 70
     0
  9
$PSLTSCALE
 70
     1
  9
$TREEDEPTH
 70
  3020
  9
$CMLSTYLE
  2
Standard
  9
$CMLJUST
 70
     0
  9
$CMLSCALE
 40
20.0
  9
$PROXYGRAPHICS
 70
     1
  9
$MEASUREMENT
 70
     1
  9
$CELWEIGHT
370
    -1
  9
$ENDCAPS
280
     0
  9
$JOINSTYLE
280
     0
  9
$LWDISPLAY
290
     0
  9
$INSUNITS
 70
     4
  9
$HYPERLINKBASE
  1

  9
$STYLESHEET
  1

  9
$XEDIT
290
     1
  9
$CEPSNTYPE
380
     0
  9
$PSTYLEMODE
290
     1
  9
$FINGERPRINTGUID
  2
{60AD58C2-9091-9C4B-833E-C062B20EC7CC}
  9
$VERSIONGUID
  2
{33A19055-F720-214D-83AA-23F5F9C46504}
  9
$EXTNAMES
290
     1
  9
$PSVPSCALE
 40
0.0
  9
$OLESTARTUP
290
     0
  9
$SORTENTS
280
   127
  9
$INDEXCTL
280
     0
  9
$HIDETEXT
280
     1
  9
$XCLIPFRAME
280
     0
  9
$HALOGAP
280
     0
  9
$OBSCOLOR
 70
   257
  9
$OBSLTYPE
280
     0
  9
$INTERSECTIONDISPLAY
280
     0
  9
$INTERSECTIONCOLOR
 70
   257
  9
$DIMASSOC
280
     2
  9
$PROJECTNAME
  1

  9
$CAMERADISPLAY
290
     0
  9
$LENSLENGTH
 40
50.0
  9
$CAMERAHEIGHT
 40
0.0
  9
$STEPSPERSEC
 40
2.0
  9
$STEPSIZE
 40
6.0
  9
$3DDWFPREC
 40
2.0
  9
$PSOLWIDTH
 40
5.0
  9
$PSOLHEIGHT
 40
80.0
  9
$LOFTANG1
 40
1.570796
  9
$LOFTANG2
 40
1.570796
  9
$LOFTMAG1
 40
0.0
  9
$LOFTMAG2
 40
0.0
  9
$LOFTPARAM
 70
     7
  9
$LOFTNORMALS
280
     1
  9
$LATITUDE
 40
37.795
  9
$LONGITUDE
 40
-122.394
  9
$NORTHDIRECTION
 40
0.0
  9
$TIMEZONE
 70
 -8000
  9
$LIGHTGLYPHDISPLAY
280
     1
  9
$TILEMODELIGHTSYNCH
280
     1
  9
$CMATERIAL
347
11
  9
$SOLIDHIST
280
     0
  9
$SHOWHIST
280
     1
  9
$DWFFRAME
280
     2
  9
$DGNFRAME
280
     0
  9
$REALWORLDSCALE
290
     1
  9
$INTERFERECOLOR
 62
     1
  9
$INTERFEREOBJVS
345
33
  9
$INTERFEREVPVS
346
30
  9
$CSHADOW
280
     0
  9
$SHADOWPLANELOCATION
 40
0.0
  0
ENDSEC
  0
SECTION
  2
CLASSES
  0
CLASS
  1
ACDBDICTIONARYWDFLT
  2
AcDbDictionaryWithDefault
  3
ObjectDBX Classes
 90
        0
 91
        1
280
     0
281
     0
  0
CLASS
  1
MATERIAL
  2
AcDbMaterial
  3
ObjectDBX Classes
 90
     1153
 91
        3
280
     0
281
     0
  0
CLASS
  1
VISUALSTYLE
  2
AcDbVisualStyle
  3
ObjectDBX Classes
 90
     4095
 91
       24
280
     0
281
     0
  0
CLASS
  1
SCALE
  2
AcDbScale
  3
ObjectDBX Classes
 90
     1153
 91
       17
280
     0
281
     0
  0
CLASS
  1
TABLESTYLE
  2
AcDbTableStyle
  3
ObjectDBX Classes
 90
     4095
 91
        1
280
     0
281
     0
  0
CLASS
  1
MLEADERSTYLE
  2
AcDbMLeaderStyle
  3
ACDB_MLEADERSTYLE_CLASS
 90
     4095
 91
        1
280
     0
281
     0
  0
CLASS
  1
ACDBSECTIONVIEWSTYLE
  2
AcDbSectionViewStyle
  3
ObjectDBX Classes
 90
     1025
 91
        1
280
     0
281
     0
  0
CLASS
  1
ACDBDETAILVIEWSTYLE
  2
AcDbDetailViewStyle
  3
ObjectDBX Classes
 90
     1025
 91
        1
280
     0
281
     0
  0
CLASS
  1
ACMESCOPE
  2
AcMeScope
  3
AcMeServices
 90
     1024
 91
        1
280
     0
281
     0
  0
CLASS
  1
ACMECOMMANDHISTORY
  2
AcMeCommandHistory
  3
AcMeServices
 90
     1024
 91
        1
280
     0
281
     0
  0
CLASS
  1
ACIMSYSVARMAN
  2
AcImSysVarManager
  3
AcMeServices
 90
     1024
 91
        1
280
     0
281
     0
  0
CLASS
  1
ACIMINTSYSVAR
  2
AcImIntSysVar
  3
AcMeServices
 90
     1024
 91
        1
280
     0
281
     0
  0
CLASS
  1
ACMESTATEMGR
  2
AcMeStateMgr
  3
AcMeServices
 90
     1024
 91
        1
280
     0
281
     0
  0
CLASS
  1
ACGREFMASTER
  2
AcGrefMaster
  3
AcAttribServices
 90
     1024
 91
        1
280
     0
281
     0
  0
CLASS
  1
SORTENTSTABLE
  2
AcDbSortentsTable
  3
ObjectDBX Classes
 90
        0
 91
        3
280
     0
281
     0
  0
CLASS
  1
DICTIONARYVAR
  2
AcDbDictionaryVar
  3
ObjectDBX Classes
 90
        0
 91
        6
280
     0
281
     0
  0
CLASS
  1
CELLSTYLEMAP
  2
AcDbCellStyleMap
  3
ObjectDBX Classes
 90
     1152
 91
        1
280
     0
281
     0
  0
ENDSEC
  0
SECTION
  2
TABLES
  0
TABLE
  2
VPORT
  5
8
330
0
100
AcDbSymbolTable
 70
     1
1001
ACAD
1000
DbSaveVer
1071
      278
  0
VPORT
  5
57
330
8
100
AcDbSymbolTableRecord
100
AcDbViewportTableRecord
  2
*Active
 70
     0
 10
0.0
 20
0.0
 11
1.0
 21
1.0
 12
210.0
 22
292.920893
 13
0.0
 23
0.0
 14
0.5
 24
0.5
 15
0.0
 25
0.0
 16
0.0
 26
0.0
 36
1.0
 17
0.0
 27
0.0
 37
0.0
 40
585.841786
 41
1.788235
 42
50.0
 43
0.0
 44
0.0
 50
0.0
 51
0.0
 71
     0
 72
 20000
 73
     1
 74
     0
 75
     0
 76
     0
 77
     0
 78
     0
281
     0
 65
     1
110
0.0
120
0.0
130
0.0
111
1.0
121
0.0
131
0.0
112
0.0
122
1.0
132
0.0
 79
     0
146
0.0
348
2F
 60
     3
 61
     5
292
     1
282
     1
141
0.0
142
0.0
 63
   250
421
  3355443
  0
ENDTAB
  0
TABLE
  2
LTYPE
  5
5
330
0
100
AcDbSymbolTable
 70
    14
  0
LTYPE
  5
5B
330
5
100
AcDbSymbolTableRecord
100
AcDbLinetypeTableRecord
  2
ByBlock
 70
     0
  3

 72
    65
 73
     0
 40
0.0
  0
LTYPE
  5
5C
330
5
100
AcDbSymbolTableRecord
100
AcDbLinetypeTableRecord
  2
ByLayer
 70
     0
  3

 72
    65
 73
     0
 40
0.0
  0
LTYPE
  5
5D
330
5
100
AcDbSymbolTableRecord
100
AcDbLinetypeTableRecord
  2
Continuous
 70
     0
  3
Solid line
 72
    65
 73
     0
 40
0.0
  0
LTYPE
  5
81
330
5
100
AcDbSymbolTableRecord
100
AcDbLinetypeTableRecord
  2
HIDDEN
 70
     0
  3
Hidden __ __ __ __ __ __ __ __ __ __ __ __ __ _
 72
    65
 73
     2
 40
9.525
 49
6.35
 74
     0
 49
-3.175
 74
     0
  0
LTYPE
  5
82
330
5
100
AcDbSymbolTableRecord
100
AcDbLinetypeTableRecord
  2
PHANTOM2
 70
     0
  3
Phantom (.5x) ___ _ _ ___ _ _ ___ _ _ ___ _ _
 72
    65
 73
     6
 40
31.75
 49
15.875
 74
     0
 49
-3.175
 74
     0
 49
3.175
 74
     0
 49
-3.175
 74
     0
 49
3.175
 74
     0
 49
-3.175
 74
     0
  0
LTYPE
  5
83
330
5
100
AcDbSymbolTableRecord
100
AcDbLinetypeTableRecord
  2
CENTER
 70
     0
  3
Center ____ _ ____ _ ____ _ ____ _ ____ _ ____
 72
    65
 73
     4
 40
50.8
 49
31.75
 74
     0
 49
-6.35
 74
     0
 49
6.35
 74
     0
 49
-6.35
 74
     0
  0
LTYPE
  5
9D
330
5
100
AcDbSymbolTableRecord
100
AcDbLinetypeTableRecord
  2
AM_ISO02W050
 70
     0
  3
__ __ __ __ __ __ __ __ __ __ __ __ __ __ __
 72
    65
 73
     2
 40
7.5
 49
6.0
 74
     0
 49
-1.5
 74
     0
  0
LTYPE
  5
9E
330
5
100
AcDbSymbolTableRecord
100
AcDbLinetypeTableRecord
  2
AM_ISO08W050
 70
     0
  3
____ . ____ . ____ . ____ . ____ . ____ . ____
 72
    65
 73
     4
 40
18.0
 49
12.0
 74
     0
 49
-1.5
 74
     0
 49
3.0
 74
     0
 49
-1.5
 74
     0
  0
LTYPE
  5
9F
330
5
100
AcDbSymbolTableRecord
100
AcDbLinetypeTableRecord
  2
AM_ISO09W050
 70
     0
  3
_____ . . _____ . . _____ . . ____ .. ____
 72
    65
 73
     6
 40
22.5
 49
12.0
 74
     0
 49
-1.5
 74
     0
 49
3.0
 74
     0
 49
-1.5
 74
     0
 49
3.0
 74
     0
 49
-1.5
 74
     0
  0
LTYPE
  5
A0
330
5
100
AcDbSymbolTableRecord
100
AcDbLinetypeTableRecord
  2
Amconstr
 70
     0
  3
_______________________
 72
    65
 73
     2
 40
9999.0
 49
9999.0
 74
     0
 49
0.0
 74
     0
  0
LTYPE
  5
A1
330
5
100
AcDbSymbolTableRecord
100
AcDbLinetypeTableRecord
  2
AM_ISO08W050x2
 70
     0
  3
__ . __ . __ . __ . __ . __
 72
    65
 73
     4
 40
9.0
 49
6.0
 74
     0
 49
-0.75
 74
     0
 49
1.5
 74
     0
 49
-0.75
 74
     0
  0
LTYPE
  5
A2
330
5
100
AcDbSymbolTableRecord
100
AcDbLinetypeTableRecord
  2
AM_ISO02W050x2
 70
     0
  3
 _ _ _ _ _ _ _ _ _ _ _ _
 72
    65
 73
     2
 40
3.75
 49
3.0
 74
     0
 49
-0.75
 74
     0
  0
LTYPE
  5
A3
330
5
100
AcDbSymbolTableRecord
100
AcDbLinetypeTableRecord
  2
Amzigzag
 70
     0
  3
/\/-/\/-/\/-/\/-/\/-/\/
 72
    65
 73
     2
 40
11.0001
 49
0.0001
 74
     4
 75
   136
340
9A
 46
0.04
 50
0.0
 44
0.0
 45
0.0
 49
-11.0
 74
     0
  0
LTYPE
  5
A4
330
5
100
AcDbSymbolTableRecord
100
AcDbLinetypeTableRecord
  2
ACISOWELD
 70
     0
  3
_ _ _ _ _
 72
    65
 73
     2
 40
2.0
 49
2.0
 74
     0
 49
-1.0
 74
     0
  0
LTYPE
  5
A5
330
5
100
AcDbSymbolTableRecord
100
AcDbLinetypeTableRecord
  2
ACISOTGL
 70
     0
  3
_ _ _ _ _
 72
    65
 73
     2
 40
3.0
 49
2.0
 74
     0
 49
-1.0
 74
     0
  0
LTYPE
  5
A6
330
5
100
AcDbSymbolTableRecord
100
AcDbLinetypeTableRecord
  2
ACISOTGB
 70
     0
  3
__ . . __ . .
 72
    65
 73
     6
 40
9.0
 49
4.0
 74
     0
 49
-1.0
 74
     0
 49
1.0
 74
     0
 49
-1.0
 74
     0
 49
1.0
 74
     0
 49
-1.0
 74
     0
  0
ENDTAB
  0
TABLE
  2
LAYER
  5
2
330
0
100
AcDbSymbolTable
 70
    11
  0
LAYER
  5
54
330
2
100
AcDbSymbolTableRecord
100
AcDbLayerTableRecord
  2
0
 70
     0
 62
     7
  6
Continuous
370
    -3
390
F
347
21
348
0
1001
AcAecLayerStandard
1000

1000

  0
LAYER
  5
79
330
2
100
AcDbSymbolTableRecord
100
AcDbLayerTableRecord
  2
Defpoints
 70
     0
 62
     7
  6
Continuous
290
     0
370
    -3
390
F
347
21
348
0
1001
AcAecLayerStandard
1000

1000

  0
LAYER
  5
B2
330
2
100
AcDbSymbolTableRecord
100
AcDbLayerTableRecord
  2
Visible
 70
     0
 62
     7
  6
Continuous
370
    50
390
F
347
21
348
0
  0
LAYER
  5
1FE
330
2
100
AcDbSymbolTableRecord
100
AcDbLayerTableRecord
  2
Visible Narrow
 70
     0
 62
     7
  6
Continuous
370
    25
390
F
347
21
348
0
  0
LAYER
  5
278
330
2
100
AcDbSymbolTableRecord
100
AcDbLayerTableRecord
  2
BORDER
 70
     0
 62
     7
  6
Continuous
370
    25
390
F
347
21
348
0
1001
AcAecLayerStandard
1000

1000

1001
AcCmTransparency
1071
        0
  0
LAYER
  5
2BE
330
2
100
AcDbSymbolTableRecord
100
AcDbLayerTableRecord
  2
TITLEBLOCK
 70
     0
 62
     7
  6
Continuous
370
    35
390
F
347
21
348
0
1001
AcAecLayerStandard
1000

1000

1001
AcCmTransparency
1071
        0
  0
LAYER
  5
30A
330
2
100
AcDbSymbolTableRecord
100
AcDbLayerTableRecord
  2
FD_Dimensions
 70
     0
 62
     7
  6
Continuous
370
    25
390
F
347
21
348
0
  0
ENDTAB
  0
TABLE
  2
STYLE
  5
3
330
0
100
AcDbSymbolTable
 70
     5
  0
STYLE
  5
55
330
3
100
AcDbSymbolTableRecord
100
AcDbTextStyleTableRecord
  2
Standard
 70
     0
 40
0.0
 41
1.0
 50
0.0
 71
     0
 42
3.5
  3
arial.ttf
  4

1001
ACAD
1000
Arial
1071
       34
  0
STYLE
  5
5A
330
3
100
AcDbSymbolTableRecord
100
AcDbTextStyleTableRecord
  2
Annotative
 70
     0
 40
0.0
 41
1.0
 50
0.0
 71
     0
 42
0.2
  3
txt
  4

1001
AcadAnnotative
1000
AnnotativeData
1002
{
1070
     1
1070
     1
1002
}
  0
STYLE
  5
99
330
3
100
AcDbSymbolTableRecord
100
AcDbTextStyleTableRecord
  2
FusionTitle
 70
     0
 40
0.0
 41
1.0
 50
0.0
 71
     0
 42
2.5
  3
arial.ttf
  4

1001
ACAD
1000
Arial
1071
       34
  0
STYLE
  5
9A
330
3
100
AcDbSymbolTableRecord
100
AcDbTextStyleTableRecord
  2

 70
     1
 40
0.0
 41
1.0
 50
0.0
 71
     0
 42
10.0
  3
genltshp.shx
  4

  0
STYLE
  5
9B
330
3
100
AcDbSymbolTableRecord
100
AcDbTextStyleTableRecord
  2
ACISOGDT
 70
     0
 40
0.0
 41
1.0
 50
0.0
 71
     0
 42
10.0
  3
amgdt.shx
  4

  0
ENDTAB
  0
TABLE
  2
VIEW
  5
6
330
0
100
AcDbSymbolTable
 70
     0
  0
ENDTAB
  0
TABLE
  2
UCS
  5
7
330
0
100
AcDbSymbolTable
 70
     0
  0
ENDTAB
  0
TABLE
  2
APPID
  5
9
330
0
100
AcDbSymbolTable
 70
    26
  0
APPID
  5
56
330
9
100
AcDbSymbolTableRecord
100
AcDbRegAppTableRecord
  2
ACAD
 70
     0
  0
APPID
  5
5E
330
9
100
AcDbSymbolTableRecord
100
AcDbRegAppTableRecord
  2
AcadAnnotative
 70
     0
  0
APPID
  5
78
330
9
100
AcDbSymbolTableRecord
100
AcDbRegAppTableRecord
  2
ACAD_PSEXT
 70
     0
  0
APPID
  5
7A
330
9
100
AcDbSymbolTableRecord
100
AcDbRegAppTableRecord
  2
MCAD_NO_VIS
 70
     0
  0
APPID
  5
7B
330
9
100
AcDbSymbolTableRecord
100
AcDbRegAppTableRecord
  2
ACAD_TEMP_GRAPHIC
 70
     0
  0
APPID
  5
84
330
9
100
AcDbSymbolTableRecord
100
AcDbRegAppTableRecord
  2
ACAD_DSTYLE_DIMJAG
 70
     0
  0
APPID
  5
85
330
9
100
AcDbSymbolTableRecord
100
AcDbRegAppTableRecord
  2
ACAD_DSTYLE_DIMTALN
 70
     0
  0
APPID
  5
86
330
9
100
AcDbSymbolTableRecord
100
AcDbRegAppTableRecord
  2
ACAD_NAV_VCDISPLAY
 70
     0
  0
APPID
  5
87
330
9
100
AcDbSymbolTableRecord
100
AcDbRegAppTableRecord
  2
AcAecLayerStandard
 70
     0
  0
APPID
  5
88
330
9
100
AcDbSymbolTableRecord
100
AcDbRegAppTableRecord
  2
AcCmTransparency
 70
     0
  0
APPID
  5
89
330
9
100
AcDbSymbolTableRecord
100
AcDbRegAppTableRecord
  2
AcDbDynamicBlockGUID
 70
     0
  0
APPID
  5
8A
330
9
100
AcDbSymbolTableRecord
100
AcDbRegAppTableRecord
  2
ACAD_DSTYLE_DIMBREAK
 70
     0
  0
APPID
  5
8B
330
9
100
AcDbSymbolTableRecord
100
AcDbRegAppTableRecord
  2
ACAD_TC
 70
     0
  0
APPID
  5
8C
330
9
100
AcDbSymbolTableRecord
100
AcDbRegAppTableRecord
  2
FUSIONTITLEBLOCK
 70
     0
  0
APPID
  5
8D
330
9
100
AcDbSymbolTableRecord
100
AcDbRegAppTableRecord
  2
FUSIONCURRENTTITLEBLOCK
 70
     0
  0
APPID
  5
8E
330
9
100
AcDbSymbolTableRecord
100
AcDbRegAppTableRecord
  2
AcSynergy
 70
     0
  0
APPID
  5
8F
330
9
100
AcDbSymbolTableRecord
100
AcDbRegAppTableRecord
  2
GENIUS_GENSCREG_15
 70
     0
  0
APPID
  5
90
330
9
100
AcDbSymbolTableRecord
100
AcDbRegAppTableRecord
  2
GENIUS_GENOBJ-N-SDF_13
 70
     0
  0
APPID
  5
91
330
9
100
AcDbSymbolTableRecord
100
AcDbRegAppTableRecord
  2
GENIUS_GENODEF_13
 70
     0
  0
APPID
  5
92
330
9
100
AcDbSymbolTableRecord
100
AcDbRegAppTableRecord
  2
ACAD_DIMASSOC_CALC_DIMLFAC
 70
     0
  0
APPID
  5
93
330
9
100
AcDbSymbolTableRecord
100
AcDbRegAppTableRecord
  2
ACAD_DIMASSOC_DIMLFAC
 70
     0
  0
APPID
  5
94
330
9
100
AcDbSymbolTableRecord
100
AcDbRegAppTableRecord
  2
ACAD_DIMASSOC_OVERRIDDEN_DIMLFAC
 70
     0
  0
APPID
  5
95
330
9
100
AcDbSymbolTableRecord
100
AcDbRegAppTableRecord
  2
ACAD_DSTYLE_DIMJAG_POSITION
 70
     0
  0
APPID
  5
96
330
9
100
AcDbSymbolTableRecord
100
AcDbRegAppTableRecord
  2
ACAD_DSTYLE_DIMINSPECT
 70
     0
  0
APPID
  5
97
330
9
100
AcDbSymbolTableRecord
100
AcDbRegAppTableRecord
  2
FUSIONTITLEBLOCKATTRIBUTEOVERRIDE
 70
     0
  0
APPID
  5
98
330
9
100
AcDbSymbolTableRecord
100
AcDbRegAppTableRecord
  2
ACATTRIBSERVICES
 70
     0
  0
ENDTAB
  0
TABLE
  2
DIMSTYLE
  5
A
330
0
100
AcDbSymbolTable
 70
     4
100
AcDbDimStyleTable
 71
     1
340
AA
  0
DIMSTYLE
105
58
330
A
100
AcDbSymbolTableRecord
100
AcDbDimStyleTableRecord
  2
Standard
 70
     0
 41
3.5
 42
2.1
 43
10.5
 44
2.1
 78
     8
 79
     2
140
3.5
143
0.03937
146
0.714286
147
1.4
179
     2
271
     2
272
     2
284
     8
340
55
  0
DIMSTYLE
105
59
330
A
100
AcDbSymbolTableRecord
100
AcDbDimStyleTableRecord
  2
Annotative
 70
     0
 40
0.0
 41
3.5
 42
2.1
 43
10.5
 44
2.1
 73
     0
 74
     0
 77
     1
 78
     8
 79
     2
140
3.5
141
2.5
143
0.03937
146
0.714286
147
1.4
171
     3
172
     1
179
     2
271
     2
272
     2
274
     3
278
    44
283
     0
284
     8
340
55
1001
AcadAnnotative
1000
AnnotativeData
1002
{
1070
     1
1070
     1
1002
}
  0
DIMSTYLE
105
A9
330
A
100
AcDbSymbolTableRecord
100
AcDbDimStyleTableRecord
  2
ISO-25
 70
     0
  4
in
 41
3.5
 42
2.1
 43
10.5
 44
2.1
 47
0.1
 48
0.1
 73
     0
 74
     0
 77
     1
 78
     8
 79
     2
140
3.5
141
0.0
143
0.03937
146
0.714286
147
1.4
171
     4
172
     1
176
   256
177
   256
178
   256
179
     2
271
     2
272
     2
274
     4
283
     0
284
     8
285
     8
340
55
1001
ACAD_DSTYLE_DIMJAG
1070
   388
1040
1.5
1001
ACAD_DSTYLE_DIMTALN
1070
   392
1070
     1
1001
ACAD_DSTYLE_DIMBREAK
1070
   391
1040
3.5
  0
DIMSTYLE
105
AA
102
{ACAD_REACTORS
330
309
330
317
330
324
330
331
102
}
330
A
100
AcDbSymbolTableRecord
100
AcDbDimStyleTableRecord
  2
Dim-ISO-25
 70
     0
 41
3.5
 42
2.1
 43
10.5
 44
2.1
 47
0.1
 48
0.1
 73
     0
 74
     0
 77
     1
 78
     8
 79
     2
140
3.5
141
0.0
143
0.03937
146
0.714286
147
1.4
172
     1
179
     2
271
     2
272
     2
283
     0
284
     8
285
    12
286
    12
340
55
1001
ACAD_DSTYLE_DIMJAG
1070
   388
1040
1.5
1001
ACAD_DSTYLE_DIMTALN
1070
   392
1070
     1
1001
ACAD_DSTYLE_DIMBREAK
1070
   391
1040
3.5
  0
ENDTAB
  0
TABLE
  2
BLOCK_RECORD
  5
1
330
0
100
AcDbSymbolTable
 70
    15
  0
BLOCK_RECORD
  5
70
102
{ACAD_XDICTIONARY
360
AB
102
}
330
1
100
AcDbSymbolTableRecord
100
AcDbBlockTableRecord
  2
*Model_Space
340
73
 70
     0
280
     1
281
     0
  0
BLOCK_RECORD
  5
6C
330
1
100
AcDbSymbolTableRecord
100
AcDbBlockTableRecord
  2
*Paper_Space
340
6F
 70
     0
280
     1
281
     0
  0
BLOCK_RECORD
  5
74
330
1
100
AcDbSymbolTableRecord
100
AcDbBlockTableRecord
  2
*Paper_Space0
340
77
 70
     0
280
     1
281
     0
  0
BLOCK_RECORD
  5
279
102
{ACAD_XDICTIONARY
360
27A
102
}
330
1
100
AcDbSymbolTableRecord
100
AcDbBlockTableRecord
  2
ISO_A3_SHEET
340
0
310
2800000020000000200000000100080000000000000400000000000000000000000000000000000000000000000080000080000000808000800000008000800080800000C0C0C000C0DCC000F0CAA6000020400000206000002080000020A0000020C0000020E00000400000004020000040400000406000004080000040A0
310
000040C0000040E00000600000006020000060400000606000006080000060A0000060C0000060E00000800000008020000080400000806000008080000080A0000080C0000080E00000A0000000A0200000A0400000A0600000A0800000A0A00000A0C00000A0E00000C0000000C0200000C0400000C0600000C0800000C0
310
A00000C0C00000C0E00000E0000000E0200000E0400000E0600000E0800000E0A00000E0C00000E0E00040000000400020004000400040006000400080004000A0004000C0004000E00040200000402020004020400040206000402080004020A0004020C0004020E000404000004040200040404000404060004040800040
310
40A0004040C0004040E00040600000406020004060400040606000406080004060A0004060C0004060E00040800000408020004080400040806000408080004080A0004080C0004080E00040A0000040A0200040A0400040A0600040A0800040A0A00040A0C00040A0E00040C0000040C0200040C0400040C0600040C08000
310
40C0A00040C0C00040C0E00040E0000040E0200040E0400040E0600040E0800040E0A00040E0C00040E0E00080000000800020008000400080006000800080008000A0008000C0008000E00080200000802020008020400080206000802080008020A0008020C0008020E00080400000804020008040400080406000804080
310
008040A0008040C0008040E00080600000806020008060400080606000806080008060A0008060C0008060E00080800000808020008080400080806000808080008080A0008080C0008080E00080A0000080A0200080A0400080A0600080A0800080A0A00080A0C00080A0E00080C0000080C0200080C0400080C0600080C0
310
800080C0A00080C0C00080C0E00080E0000080E0200080E0400080E0600080E0800080E0A00080E0C00080E0E000C0000000C0002000C0004000C0006000C0008000C000A000C000C000C000E000C0200000C0202000C0204000C0206000C0208000C020A000C020C000C020E000C0400000C0402000C0404000C0406000C0
310
408000C040A000C040C000C040E000C0600000C0602000C0604000C0606000C0608000C060A000C060C000C060E000C0800000C0802000C0804000C0806000C0808000C080A000C080C000C080E000C0A00000C0A02000C0A04000C0A06000C0A08000C0A0A000C0A0C000C0A0E000C0C00000C0C02000C0C04000C0C06000
310
C0C08000C0C0A000F0FBFF00A4A0A000808080000000FF0000FF000000FFFF00FF000000FF00FF00FFFF0000FFFFFF0049494949494949494949494949494949494949494949494949494949494949494949494949494949494949494949494949494949494949494949494949494949494949494949494949494949494949
310
494949494949494949494949494949494949494949494949494949494949494949494949494949494949494949494949494949494949494949494949494949494949494949494949494949494949494949494949494949494949494949494949494949494949494949494949494949494949FFFFFFFFFFFFFFFFFFFFFFFFFF
310
FFFFFFFFFFFFFFFFFFFFFFFFFFFFFFFFFF4949FF49FF494949494949494949494949FF494949494949494949494949FFFF49494949FF49494949494949494949494949494949494949494949494949FF49494949FFFF49494949494949494949494949494949494949494949494949FF4949494949FF494949494949494949
310
49494949494949494949494949494949FF4949494949FF49494949494949494949494949494949494949494949494949FF49494949FFFF49494949494949494949494949494949494949494949494949FF4949494949FF49494949494949494949494949494949494949494949494949FF4949494949FF4949494949494949
310
4949494949494949494949494949494949FF4949494949FF49494949494949494949494949494949494949494949494949FF49494949FFFF49494949494949494949494949494949494949494949494949FF4949494949FF49494949494949494949494949494949494949494949494949FF4949494949FF49494949494949
310
494949494949494949494949494949494949FF49494949FFFF49494949494949494949494949494949494949494949494949FF4949494949FF49494949494949494949494949494949494949494949494949FF4949494949FF49494949494949494949494949494949494949494949494949FF49494949FFFF494949494949
310
49494949494949494949494949494949494949FF4949494949FF49494949494949494949494949494949494949494949494949FF494949FF49FF494949494949494949494949FF494949494949494949494949FFFF4949FFFFFFFFFFFFFFFFFFFFFFFFFFFFFFFFFFFFFFFFFFFFFFFFFFFFFFFFFFFF49494949494949494949
310
49494949494949494949494949494949494949494949494949494949494949494949494949494949494949494949494949494949494949494949494949494949494949494949494949494949494949494949494949494949494949494949494949494949494949494949494949494949494949494949494949494949494949
310
4949494949494949494949494949494949494949494949494949494949494949494949494949494949494949494949494949494949494949
102
{BLKREFS
331
277
102
}
 70
     4
280
     1
281
     0
1001
AcDbDynamicBlockGUID
1000
{B4874B5E-8040-BF49-A9B6-B81412F7B0AC}
  0
BLOCK_RECORD
  5
2BF
102
{ACAD_XDICTIONARY
360
2C0
102
}
330
1
100
AcDbSymbolTableRecord
100
AcDbBlockTableRecord
  2
ISO_TITLEBLOCK
340
0
310
2800000020000000200000000100080000000000000400000000000000000000000000000000000000000000000080000080000000808000800000008000800080800000C0C0C000C0DCC000F0CAA6000020400000206000002080000020A0000020C0000020E00000400000004020000040400000406000004080000040A0
310
000040C0000040E00000600000006020000060400000606000006080000060A0000060C0000060E00000800000008020000080400000806000008080000080A0000080C0000080E00000A0000000A0200000A0400000A0600000A0800000A0A00000A0C00000A0E00000C0000000C0200000C0400000C0600000C0800000C0
310
A00000C0C00000C0E00000E0000000E0200000E0400000E0600000E0800000E0A00000E0C00000E0E00040000000400020004000400040006000400080004000A0004000C0004000E00040200000402020004020400040206000402080004020A0004020C0004020E000404000004040200040404000404060004040800040
310
40A0004040C0004040E00040600000406020004060400040606000406080004060A0004060C0004060E00040800000408020004080400040806000408080004080A0004080C0004080E00040A0000040A0200040A0400040A0600040A0800040A0A00040A0C00040A0E00040C0000040C0200040C0400040C0600040C08000
310
40C0A00040C0C00040C0E00040E0000040E0200040E0400040E0600040E0800040E0A00040E0C00040E0E00080000000800020008000400080006000800080008000A0008000C0008000E00080200000802020008020400080206000802080008020A0008020C0008020E00080400000804020008040400080406000804080
310
008040A0008040C0008040E00080600000806020008060400080606000806080008060A0008060C0008060E00080800000808020008080400080806000808080008080A0008080C0008080E00080A0000080A0200080A0400080A0600080A0800080A0A00080A0C00080A0E00080C0000080C0200080C0400080C0600080C0
310
800080C0A00080C0C00080C0E00080E0000080E0200080E0400080E0600080E0800080E0A00080E0C00080E0E000C0000000C0002000C0004000C0006000C0008000C000A000C000C000C000E000C0200000C0202000C0204000C0206000C0208000C020A000C020C000C020E000C0400000C0402000C0404000C0406000C0
310
408000C040A000C040C000C040E000C0600000C0602000C0604000C0606000C0608000C060A000C060C000C060E000C0800000C0802000C0804000C0806000C0808000C080A000C080C000C080E000C0A00000C0A02000C0A04000C0A06000C0A08000C0A0A000C0A0C000C0A0E000C0C00000C0C02000C0C04000C0C06000
310
C0C08000C0C0A000F0FBFF00A4A0A000808080000000FF0000FF000000FFFF00FF000000FF00FF00FFFF0000FFFFFF0049494949494949494949494949494949494949494949494949494949494949494949494949494949494949494949494949494949494949494949494949494949494949494949494949494949494949
310
49494949494949494949494949494949494949494949494949494949494949494949494949494949494949494949494949494949494949494949494949494949494949494949494949494949494949494949494949494949494949494949494949494949494949494949494949494949494949494949494949494949494949
310
49494949494949494949494949494949494949494949494949494949494949494949494949494949494949494949494949494949494949494949494949494949494949494949494949494949494949494949494949494949494949494949494949494949494949494949494949494949494949494949494949494949494949
310
49494949494949494949494949494949494949494949494949494949494949494949494949494949494949494949494949494949FFFFFFFFFFFFFFFFFFFFFFFFFFFFFFFFFFFFFFFFFFFFFFFFFFFFFF4949494949FF4949494949494949FFFFFFFFFF49494949FFFFFFFFFFFFFFFFFFFF49494949FF4949494949494949FFFF
310
FFFFFF494949FFFFFFFFFFFFFFFFFFFF4949494949FF4949494949494949FFFFFFFFFF494949FFFFFFFFFFFFFFFFFFFF4949494949FF4949494949494949FFFFFFFFFFFFFFFFFFFFFFFFFFFFFFFFFFFF4949494949FFFFFFFFFFFFFFFFFFFFFFFFFFFFFFFFFFFFFFFFFFFFFFFFFFFFFF4949494949FFFFFF49FFFFFFFFFFFF
310
FFFFFFFFFFFFFFFFFFFFFFFFFFFFFFFFFFFFFFFF4949FFFFFFFFFFFFFFFFFFFFFFFFFFFFFFFFFFFFFFFFFFFFFFFFFFFFFF494949494949494949494949494949494949494949494949494949494949494949494949494949494949494949494949494949494949494949494949494949494949494949494949494949494949
310
49494949494949494949494949494949494949494949494949494949494949494949494949494949494949494949494949494949494949494949494949494949494949494949494949494949494949494949494949494949494949494949494949494949494949494949494949494949494949494949494949494949494949
310
49494949494949494949494949494949494949494949494949494949494949494949494949494949494949494949494949494949494949494949494949494949494949494949494949494949494949494949494949494949494949494949494949494949494949494949494949494949494949494949494949494949494949
310
4949494949494949494949494949494949494949494949494949494949494949494949494949494949494949494949494949494949494949
102
{BLKREFS
331
2BD
102
}
 70
     4
280
     1
281
     0
1001
AcDbDynamicBlockGUID
1000
{BCD52D05-323A-B54A-8A21-1B84008CF9CB}
1001
FUSIONTITLEBLOCK
1000
TitleBlock
  0
BLOCK_RECORD
  5
30B
330
1
100
AcDbSymbolTableRecord
100
AcDbBlockTableRecord
  2
*D7
340
0
 70
     0
280
     1
281
     0
  0
BLOCK_RECORD
  5
318
330
1
100
AcDbSymbolTableRecord
100
AcDbBlockTableRecord
  2
*D8
340
0
 70
     0
280
     1
281
     0
  0
BLOCK_RECORD
  5
325
330
1
100
AcDbSymbolTableRecord
100
AcDbBlockTableRecord
  2
*D9
340
0
 70
     0
280
     1
281
     0
  0
BLOCK_RECORD
  5
332
330
1
100
AcDbSymbolTableRecord
100
AcDbBlockTableRecord
  2
*D10
340
0
 70
     0
280
     1
281
     0
  0
BLOCK_RECORD
  5
340
330
1
100
AcDbSymbolTableRecord
100
AcDbBlockTableRecord
  2
*D11
340
0
 70
     0
280
     1
281
     0
  0
BLOCK_RECORD
  5
34C
330
1
100
AcDbSymbolTableRecord
100
AcDbBlockTableRecord
  2
*D12
340
0
 70
     0
280
     1
281
     0
  0
BLOCK_RECORD
  5
358
330
1
100
AcDbSymbolTableRecord
100
AcDbBlockTableRecord
  2
*D13
340
0
 70
     0
280
     1
281
     0
  0
BLOCK_RECORD
  5
364
330
1
100
AcDbSymbolTableRecord
100
AcDbBlockTableRecord
  2
*D14
340
0
 70
     0
280
     1
281
     0
  0
ENDTAB
  0
ENDSEC
  0
SECTION
  2
BLOCKS
  0
BLOCK
  5
71
330
70
100
AcDbEntity
  8
0
100
AcDbBlockBegin
  2
*Model_Space
 70
     0
 10
0.0
 20
0.0
 30
0.0
  3
*Model_Space
  1

  0
ENDBLK
  5
72
330
70
100
AcDbEntity
  8
0
100
AcDbBlockEnd
  0
BLOCK
  5
6D
330
6C
100
AcDbEntity
 67
     1
  8
0
100
AcDbBlockBegin
  2
*Paper_Space
 70
     0
 10
0.0
 20
0.0
 30
0.0
  3
*Paper_Space
  1

  0
ENDBLK
  5
6E
330
6C
100
AcDbEntity
 67
     1
  8
0
100
AcDbBlockEnd
  0
BLOCK
  5
75
330
74
100
AcDbEntity
 67
     1
  8
0
100
AcDbBlockBegin
  2
*Paper_Space0
 70
     0
 10
0.0
 20
0.0
 30
0.0
  3
*Paper_Space0
  1

  0
ENDBLK
  5
76
330
74
100
AcDbEntity
 67
     1
  8
0
100
AcDbBlockEnd
  0
BLOCK
  5
27B
330
279
100
AcDbEntity
  8
0
100
AcDbBlockBegin
  2
ISO_A3_SHEET
 70
     0
 10
0.0
 20
0.0
 30
0.0
  3
ISO_A3_SHEET
  1

  0
LINE
  5
27C
330
279
100
AcDbEntity
  8
Defpoints
100
AcDbLine
 10
0.0
 20
0.0
 30
0.0
 11
15.0
 21
0.0
 31
0.0
  0
LINE
  5
27D
330
279
100
AcDbEntity
  8
Defpoints
100
AcDbLine
 10
405.0
 20
0.0
 30
0.0
 11
420.0
 21
0.0
 31
0.0
  0
LINE
  5
27E
330
279
100
AcDbEntity
  8
BORDER
100
AcDbLine
 10
20.0
 20
10.0
 30
0.0
 11
410.0
 21
10.0
 31
0.0
  0
LINE
  5
27F
330
279
100
AcDbEntity
  8
Defpoints
100
AcDbLine
 10
420.0
 20
0.0
 30
0.0
 11
420.0
 21
15.0
 31
0.0
  0
LINE
  5
280
330
279
100
AcDbEntity
  8
Defpoints
100
AcDbLine
 10
420.0
 20
282.0
 30
0.0
 11
420.0
 21
297.0
 31
0.0
  0
LINE
  5
281
330
279
100
AcDbEntity
  8
Defpoints
100
AcDbLine
 10
420.0
 20
297.0
 30
0.0
 11
405.0
 21
297.0
 31
0.0
  0
LINE
  5
282
330
279
100
AcDbEntity
  8
Defpoints
100
AcDbLine
 10
15.0
 20
297.0
 30
0.0
 11
0.0
 21
297.0
 31
0.0
  0
LINE
  5
283
330
279
100
AcDbEntity
  8
BORDER
100
AcDbLine
 10
410.0
 20
287.0
 30
0.0
 11
20.0
 21
287.0
 31
0.0
  0
LINE
  5
284
330
279
100
AcDbEntity
  8
Defpoints
100
AcDbLine
 10
0.0
 20
297.0
 30
0.0
 11
0.0
 21
282.0
 31
0.0
  0
LINE
  5
285
330
279
100
AcDbEntity
  8
Defpoints
100
AcDbLine
 10
0.0
 20
15.0
 30
0.0
 11
0.0
 21
0.0
 31
0.0
  0
LINE
  5
286
330
279
100
AcDbEntity
  8
BORDER
100
AcDbLine
 10
20.0
 20
287.0
 30
0.0
 11
20.0
 21
10.0
 31
0.0
  0
LINE
  5
287
330
279
100
AcDbEntity
  8
BORDER
100
AcDbLine
 10
410.0
 20
287.0
 30
0.0
 11
410.0
 21
10.0
 31
0.0
  0
LINE
  5
288
330
279
100
AcDbEntity
  8
BORDER
100
AcDbLine
 10
215.0
 20
5.0
 30
0.0
 11
215.0
 21
15.0
 31
0.0
  0
LINE
  5
289
330
279
100
AcDbEntity
  8
BORDER
100
AcDbLine
 10
215.0
 20
292.0
 30
0.0
 11
215.0
 21
282.0
 31
0.0
  0
LINE
  5
28A
330
279
100
AcDbEntity
  8
BORDER
100
AcDbLine
 10
265.0
 20
292.0
 30
0.0
 11
265.0
 21
287.0
 31
0.0
  0
LINE
  5
28B
330
279
100
AcDbEntity
  8
BORDER
100
AcDbLine
 10
315.0
 20
292.0
 30
0.0
 11
315.0
 21
287.0
 31
0.0
  0
LINE
  5
28C
330
279
100
AcDbEntity
  8
BORDER
100
AcDbLine
 10
365.0
 20
292.0
 30
0.0
 11
365.0
 21
287.0
 31
0.0
  0
LINE
  5
28D
330
279
100
AcDbEntity
  8
BORDER
100
AcDbLine
 10
165.0
 20
292.0
 30
0.0
 11
165.0
 21
287.0
 31
0.0
  0
LINE
  5
28E
330
279
100
AcDbEntity
  8
BORDER
100
AcDbLine
 10
115.0
 20
292.0
 30
0.0
 11
115.0
 21
287.0
 31
0.0
  0
LINE
  5
28F
330
279
100
AcDbEntity
  8
BORDER
100
AcDbLine
 10
65.0
 20
292.0
 30
0.0
 11
65.0
 21
287.0
 31
0.0
  0
LINE
  5
290
330
279
100
AcDbEntity
  8
BORDER
100
AcDbLine
 10
15.0
 20
148.5
 30
0.0
 11
25.0
 21
148.5
 31
0.0
  0
LINE
  5
291
330
279
100
AcDbEntity
  8
BORDER
100
AcDbLine
 10
15.0
 20
100.66667
 30
0.0
 11
20.0
 21
100.66667
 31
0.0
  0
LINE
  5
292
330
279
100
AcDbEntity
  8
BORDER
100
AcDbLine
 10
15.0
 20
52.83334
 30
0.0
 11
20.0
 21
52.83334
 31
0.0
  0
LINE
  5
293
330
279
100
AcDbEntity
  8
BORDER
100
AcDbLine
 10
15.0
 20
196.33333
 30
0.0
 11
20.0
 21
196.33333
 31
0.0
  0
LINE
  5
294
330
279
100
AcDbEntity
  8
BORDER
100
AcDbLine
 10
15.0
 20
244.16666
 30
0.0
 11
20.0
 21
244.16666
 31
0.0
  0
LINE
  5
295
330
279
100
AcDbEntity
  8
BORDER
100
AcDbLine
 10
415.0
 20
148.5
 30
0.0
 11
405.0
 21
148.5
 31
0.0
  0
LINE
  5
296
330
279
100
AcDbEntity
  8
BORDER
100
AcDbLine
 10
265.0
 20
5.0
 30
0.0
 11
265.0
 21
10.0
 31
0.0
  0
LINE
  5
297
330
279
100
AcDbEntity
  8
BORDER
100
AcDbLine
 10
315.0
 20
5.0
 30
0.0
 11
315.0
 21
10.0
 31
0.0
  0
LINE
  5
298
330
279
100
AcDbEntity
  8
BORDER
100
AcDbLine
 10
365.0
 20
5.0
 30
0.0
 11
365.0
 21
10.0
 31
0.0
  0
LINE
  5
299
330
279
100
AcDbEntity
  8
BORDER
100
AcDbLine
 10
165.0
 20
5.0
 30
0.0
 11
165.0
 21
10.0
 31
0.0
  0
LINE
  5
29A
330
279
100
AcDbEntity
  8
BORDER
100
AcDbLine
 10
115.0
 20
5.0
 30
0.0
 11
115.0
 21
10.0
 31
0.0
  0
LINE
  5
29B
330
279
100
AcDbEntity
  8
BORDER
100
AcDbLine
 10
65.0
 20
5.0
 30
0.0
 11
65.0
 21
10.0
 31
0.0
  0
LINE
  5
29C
330
279
100
AcDbEntity
  8
BORDER
100
AcDbLine
 10
415.0
 20
100.66667
 30
0.0
 11
410.0
 21
100.66667
 31
0.0
  0
LINE
  5
29D
330
279
100
AcDbEntity
  8
BORDER
100
AcDbLine
 10
415.0
 20
52.83334
 30
0.0
 11
410.0
 21
52.83334
 31
0.0
  0
LINE
  5
29E
330
279
100
AcDbEntity
  8
BORDER
100
AcDbLine
 10
415.0
 20
196.33333
 30
0.0
 11
410.0
 21
196.33333
 31
0.0
  0
LINE
  5
29F
330
279
100
AcDbEntity
  8
BORDER
100
AcDbLine
 10
415.0
 20
244.16666
 30
0.0
 11
410.0
 21
244.16666
 31
0.0
  0
TEXT
  5
2A0
330
279
100
AcDbEntity
  8
BORDER
100
AcDbText
 10
39.02882
 20
288.244884
 30
0.0
 40
2.5
  1
1
  7
FusionTitle
 72
     4
 11
40.0
 21
289.5
 31
0.0
100
AcDbText
  0
TEXT
  5
2A1
330
279
100
AcDbEntity
  8
BORDER
100
AcDbText
 10
16.335266
 20
266.83333
 30
0.0
 40
2.5
  1
A
  7
FusionTitle
 72
     4
 11
17.5
 21
268.08333
 31
0.0
100
AcDbText
  0
TEXT
  5
2A2
330
279
100
AcDbEntity
  8
BORDER
100
AcDbText
 10
89.02882
 20
288.244884
 30
0.0
 40
2.5
  1
2
  7
FusionTitle
 72
     4
 11
90.0
 21
289.5
 31
0.0
100
AcDbText
  0
TEXT
  5
2A3
330
279
100
AcDbEntity
  8
BORDER
100
AcDbText
 10
139.02882
 20
288.267053
 30
0.0
 40
2.5
  1
3
  7
FusionTitle
 72
     4
 11
140.0
 21
289.5
 31
0.0
100
AcDbText
  0
TEXT
  5
2A4
330
279
100
AcDbEntity
  8
BORDER
100
AcDbText
 10
189.02882
 20
288.25
 30
0.0
 40
2.5
  1
4
  7
FusionTitle
 72
     4
 11
190.0
 21
289.5
 31
0.0
100
AcDbText
  0
TEXT
  5
2A5
330
279
100
AcDbEntity
  8
BORDER
100
AcDbText
 10
239.02882
 20
288.28837
 30
0.0
 40
2.5
  1
5
  7
FusionTitle
 72
     4
 11
240.0
 21
289.5
 31
0.0
100
AcDbText
  0
TEXT
  5
2A6
330
279
100
AcDbEntity
  8
BORDER
100
AcDbText
 10
289.02882
 20
288.266201
 30
0.0
 40
2.5
  1
6
  7
FusionTitle
 72
     4
 11
290.0
 21
289.5
 31
0.0
100
AcDbText
  0
TEXT
  5
2A7
330
279
100
AcDbEntity
  8
BORDER
100
AcDbText
 10
339.02882
 20
288.266201
 30
0.0
 40
2.5
  1
7
  7
FusionTitle
 72
     4
 11
340.0
 21
289.5
 31
0.0
100
AcDbText
  0
TEXT
  5
2A8
330
279
100
AcDbEntity
  8
BORDER
100
AcDbText
 10
389.02882
 20
288.266201
 30
0.0
 40
2.5
  1
8
  7
FusionTitle
 72
     4
 11
390.0
 21
289.5
 31
0.0
100
AcDbText
  0
TEXT
  5
2A9
330
279
100
AcDbEntity
  8
BORDER
100
AcDbText
 10
39.02882
 20
6.244884
 30
0.0
 40
2.5
  1
1
  7
FusionTitle
 72
     4
 11
40.0
 21
7.5
 31
0.0
100
AcDbText
  0
TEXT
  5
2AA
330
279
100
AcDbEntity
  8
BORDER
100
AcDbText
 10
89.02882
 20
6.244884
 30
0.0
 40
2.5
  1
2
  7
FusionTitle
 72
     4
 11
90.0
 21
7.5
 31
0.0
100
AcDbText
  0
TEXT
  5
2AB
330
279
100
AcDbEntity
  8
BORDER
100
AcDbText
 10
139.02882
 20
6.267053
 30
0.0
 40
2.5
  1
3
  7
FusionTitle
 72
     4
 11
140.0
 21
7.5
 31
0.0
100
AcDbText
  0
TEXT
  5
2AC
330
279
100
AcDbEntity
  8
BORDER
100
AcDbText
 10
189.02882
 20
6.25
 30
0.0
 40
2.5
  1
4
  7
FusionTitle
 72
     4
 11
190.0
 21
7.5
 31
0.0
100
AcDbText
  0
TEXT
  5
2AD
330
279
100
AcDbEntity
  8
BORDER
100
AcDbText
 10
239.02882
 20
6.28837
 30
0.0
 40
2.5
  1
5
  7
FusionTitle
 72
     4
 11
240.0
 21
7.5
 31
0.0
100
AcDbText
  0
TEXT
  5
2AE
330
279
100
AcDbEntity
  8
BORDER
100
AcDbText
 10
289.02882
 20
6.266201
 30
0.0
 40
2.5
  1
6
  7
FusionTitle
 72
     4
 11
290.0
 21
7.5
 31
0.0
100
AcDbText
  0
TEXT
  5
2AF
330
279
100
AcDbEntity
  8
BORDER
100
AcDbText
 10
339.02882
 20
6.266201
 30
0.0
 40
2.5
  1
7
  7
FusionTitle
 72
     4
 11
340.0
 21
7.5
 31
0.0
100
AcDbText
  0
TEXT
  5
2B0
330
279
100
AcDbEntity
  8
BORDER
100
AcDbText
 10
389.02882
 20
6.266201
 30
0.0
 40
2.5
  1
8
  7
FusionTitle
 72
     4
 11
390.0
 21
7.5
 31
0.0
100
AcDbText
  0
TEXT
  5
2B1
330
279
100
AcDbEntity
  8
BORDER
100
AcDbText
 10
16.335266
 20
219.0
 30
0.0
 40
2.5
  1
B
  7
FusionTitle
 72
     4
 11
17.5
 21
220.25
 31
0.0
100
AcDbText
  0
TEXT
  5
2B2
330
279
100
AcDbEntity
  8
BORDER
100
AcDbText
 10
16.238915
 20
171.16667
 30
0.0
 40
2.5
  1
C
  7
FusionTitle
 72
     4
 11
17.5
 21
172.41667
 31
0.0
100
AcDbText
  0
TEXT
  5
2B3
330
279
100
AcDbEntity
  8
BORDER
100
AcDbText
 10
16.238915
 20
123.33334
 30
0.0
 40
2.5
  1
D
  7
FusionTitle
 72
     4
 11
17.5
 21
124.58334
 31
0.0
100
AcDbText
  0
TEXT
  5
2B4
330
279
100
AcDbEntity
  8
BORDER
100
AcDbText
 10
16.335266
 20
75.50001
 30
0.0
 40
2.5
  1
E
  7
FusionTitle
 72
     4
 11
17.5
 21
76.75001
 31
0.0
100
AcDbText
  0
TEXT
  5
2B5
330
279
100
AcDbEntity
  8
BORDER
100
AcDbText
 10
16.433322
 20
27.66668
 30
0.0
 40
2.5
  1
F
  7
FusionTitle
 72
     4
 11
17.5
 21
28.91668
 31
0.0
100
AcDbText
  0
TEXT
  5
2B6
330
279
100
AcDbEntity
  8
BORDER
100
AcDbText
 10
411.335266
 20
266.83333
 30
0.0
 40
2.5
  1
A
  7
FusionTitle
 72
     4
 11
412.5
 21
268.08333
 31
0.0
100
AcDbText
  0
TEXT
  5
2B7
330
279
100
AcDbEntity
  8
BORDER
100
AcDbText
 10
411.335266
 20
219.0
 30
0.0
 40
2.5
  1
B
  7
FusionTitle
 72
     4
 11
412.5
 21
220.25
 31
0.0
100
AcDbText
  0
TEXT
  5
2B8
330
279
100
AcDbEntity
  8
BORDER
100
AcDbText
 10
411.238915
 20
171.16667
 30
0.0
 40
2.5
  1
C
  7
FusionTitle
 72
     4
 11
412.5
 21
172.41667
 31
0.0
100
AcDbText
  0
TEXT
  5
2B9
330
279
100
AcDbEntity
  8
BORDER
100
AcDbText
 10
411.238915
 20
123.33334
 30
0.0
 40
2.5
  1
D
  7
FusionTitle
 72
     4
 11
412.5
 21
124.58334
 31
0.0
100
AcDbText
  0
TEXT
  5
2BA
330
279
100
AcDbEntity
  8
BORDER
100
AcDbText
 10
411.335266
 20
75.50001
 30
0.0
 40
2.5
  1
E
  7
FusionTitle
 72
     4
 11
412.5
 21
76.75001
 31
0.0
100
AcDbText
  0
TEXT
  5
2BB
330
279
100
AcDbEntity
  8
BORDER
100
AcDbText
 10
411.433322
 20
27.66668
 30
0.0
 40
2.5
  1
F
  7
FusionTitle
 72
     4
 11
412.5
 21
28.91668
 31
0.0
100
AcDbText
  0
ENDBLK
  5
2BC
330
279
100
AcDbEntity
  8
0
100
AcDbBlockEnd
  0
BLOCK
  5
2C2
330
2BF
100
AcDbEntity
  8
0
100
AcDbBlockBegin
  2
ISO_TITLEBLOCK
 70
     2
 10
0.0
 20
0.0
 30
0.0
  3
ISO_TITLEBLOCK
  1

  0
LINE
  5
2C3
330
2BF
100
AcDbEntity
  8
TITLEBLOCK
100
AcDbLine
 10
-180.0
 20
0.0
 30
0.0
 11
0.0
 21
0.0
 31
0.0
  0
LINE
  5
2C4
330
2BF
100
AcDbEntity
  8
TITLEBLOCK
100
AcDbLine
 10
-61.0
 20
10.0
 30
0.0
 11
0.0
 21
10.0
 31
0.0
  0
LINE
  5
2C5
330
2BF
100
AcDbEntity
  8
TITLEBLOCK
100
AcDbLine
 10
-122.0
 20
27.0
 30
0.0
 11
0.0
 21
27.0
 31
0.0
  0
LINE
  5
2C6
330
2BF
100
AcDbEntity
  8
TITLEBLOCK
100
AcDbLine
 10
-180.0
 20
37.0
 30
0.0
 11
0.0
 21
37.0
 31
0.0
  0
LINE
  5
2C7
330
2BF
100
AcDbEntity
  8
TITLEBLOCK
100
AcDbLine
 10
0.0
 20
0.0
 30
0.0
 11
0.0
 21
47.0
 31
0.0
  0
LINE
  5
2C8
330
2BF
100
AcDbEntity
  8
TITLEBLOCK
100
AcDbLine
 10
-15.0
 20
0.0
 30
0.0
 11
-15.0
 21
10.0
 31
0.0
  0
LINE
  5
2C9
330
2BF
100
AcDbEntity
  8
TITLEBLOCK
100
AcDbLine
 10
-51.0
 20
0.0
 30
0.0
 11
-51.0
 21
10.0
 31
0.0
  0
LINE
  5
2CA
330
2BF
100
AcDbEntity
  8
TITLEBLOCK
100
AcDbLine
 10
-61.0
 20
0.0
 30
0.0
 11
-61.0
 21
47.0
 31
0.0
  0
LINE
  5
2CB
330
2BF
100
AcDbEntity
  8
TITLEBLOCK
100
AcDbLine
 10
-122.0
 20
0.0
 30
0.0
 11
-122.0
 21
47.0
 31
0.0
  0
LINE
  5
2CC
330
2BF
100
AcDbEntity
  8
TITLEBLOCK
100
AcDbLine
 10
-156.0
 20
37.0
 30
0.0
 11
-156.0
 21
47.0
 31
0.0
  0
LINE
  5
2CD
330
2BF
100
AcDbEntity
  8
TITLEBLOCK
100
AcDbLine
 10
0.0
 20
47.0
 30
0.0
 11
-180.0
 21
47.0
 31
0.0
  0
LINE
  5
2CE
330
2BF
100
AcDbEntity
  8
TITLEBLOCK
100
AcDbLine
 10
-180.0
 20
47.0
 30
0.0
 11
-180.0
 21
0.0
 31
0.0
  0
TEXT
  5
2CF
330
2BF
100
AcDbEntity
  8
TITLEBLOCK
100
AcDbText
 10
-179.0
 20
44.2
 30
0.0
 40
1.8
  1
Dept.
  7
FusionTitle
 11
-179.0
 21
46.0
 31
0.0
100
AcDbText
 73
     3
  0
TEXT
  5
2D0
330
2BF
100
AcDbEntity
  8
TITLEBLOCK
100
AcDbText
 10
-155.0
 20
44.2
 30
0.0
 40
1.8
  1
Technical reference
  7
FusionTitle
 11
-155.0
 21
46.0
 31
0.0
100
AcDbText
 73
     3
  0
TEXT
  5
2D1
330
2BF
100
AcDbEntity
  8
TITLEBLOCK
100
AcDbText
 10
-121.0
 20
44.2
 30
0.0
 40
1.8
  1
Created by
  7
FusionTitle
 11
-121.0
 21
46.0
 31
0.0
100
AcDbText
 73
     3
  0
TEXT
  5
2D2
330
2BF
100
AcDbEntity
  8
TITLEBLOCK
100
AcDbText
 10
-60.0
 20
44.2
 30
0.0
 40
1.8
  1
Approved by
  7
FusionTitle
 11
-60.0
 21
46.0
 31
0.0
100
AcDbText
 73
     3
  0
TEXT
  5
2D3
330
2BF
100
AcDbEntity
  8
TITLEBLOCK
100
AcDbText
 10
-121.0
 20
34.2
 30
0.0
 40
1.8
  1
Document type
  7
FusionTitle
 11
-121.0
 21
36.0
 31
0.0
100
AcDbText
 73
     3
  0
TEXT
  5
2D4
330
2BF
100
AcDbEntity
  8
TITLEBLOCK
100
AcDbText
 10
-60.0
 20
34.2
 30
0.0
 40
1.8
  1
Document status
  7
FusionTitle
 11
-60.0
 21
36.0
 31
0.0
100
AcDbText
 73
     3
  0
TEXT
  5
2D5
330
2BF
100
AcDbEntity
  8
TITLEBLOCK
100
AcDbText
 10
-121.0
 20
24.2
 30
0.0
 40
1.8
  1
Title
  7
FusionTitle
 11
-121.0
 21
26.0
 31
0.0
100
AcDbText
 73
     3
  0
TEXT
  5
2D6
330
2BF
100
AcDbEntity
  8
TITLEBLOCK
100
AcDbText
 10
-60.0
 20
24.2
 30
0.0
 40
1.8
  1
DWG No.
  7
FusionTitle
 11
-60.0
 21
26.0
 31
0.0
100
AcDbText
 73
     3
  0
TEXT
  5
2D7
330
2BF
100
AcDbEntity
  8
TITLEBLOCK
100
AcDbText
 10
-60.0
 20
7.2
 30
0.0
 40
1.8
  1
Rev.
  7
FusionTitle
 11
-60.0
 21
9.0
 31
0.0
100
AcDbText
 73
     3
  0
TEXT
  5
2D8
330
2BF
100
AcDbEntity
  8
TITLEBLOCK
100
AcDbText
 10
-50.0
 20
7.2
 30
0.0
 40
1.8
  1
Date of issue
  7
FusionTitle
 11
-50.0
 21
9.0
 31
0.0
100
AcDbText
 73
     3
  0
TEXT
  5
2D9
330
2BF
100
AcDbEntity
  8
TITLEBLOCK
100
AcDbText
 10
-14.0
 20
7.2
 30
0.0
 40
1.8
  1
Sheet
  7
FusionTitle
 11
-14.0
 21
9.0
 31
0.0
100
AcDbText
 73
     3
  0
ATTDEF
  5
2DA
102
{ACAD_XDICTIONARY
360
2DB
102
}
330
2BF
100
AcDbEntity
  8
TITLEBLOCK
100
AcDbText
 10
-50.0
 20
1.5
 30
0.0
 40
3.5
  1

  7
FusionTitle
 11
-50.0
 21
5.0
 31
0.0
100
AcDbAttributeDefinition
280
     0
  3
Date of issue
  2
DATE_OF_ISSUE
 70
     0
 74
     3
280
     1
  0
ATTDEF
  5
2DC
102
{ACAD_XDICTIONARY
360
2DD
102
}
330
2BF
100
AcDbEntity
  8
TITLEBLOCK
100
AcDbText
 10
-61.026774
 20
1.35
 30
0.0
 40
3.5
  1

  7
FusionTitle
 72
     1
 11
-56.0
 21
4.85
 31
0.0
100
AcDbAttributeDefinition
280
     0
  3
Revision
  2
REV
 70
     0
 74
     3
280
     1
  0
ATTDEF
  5
2DE
102
{ACAD_XDICTIONARY
360
2DF
102
}
330
2BF
100
AcDbEntity
  8
TITLEBLOCK
100
AcDbText
 10
-121.0
 20
1.5
 30
0.0
 40
5.0
  1

  7
FusionTitle
 11
-121.0
 21
6.5
 31
0.0
100
AcDbAttributeDefinition
280
     0
  3
3rd Title
  2
TITLE_3
 70
     0
 74
     3
280
     1
  0
ATTDEF
  5
2E0
102
{ACAD_XDICTIONARY
360
2E1
102
}
330
2BF
100
AcDbEntity
  8
TITLEBLOCK
100
AcDbText
 10
-60.0
 20
28.5
 30
0.0
 40
3.5
  1

  7
FusionTitle
 11
-60.0
 21
32.0
 31
0.0
100
AcDbAttributeDefinition
280
     0
  3
Document status
  2
DOCUMENT_STATUS
 70
     0
 74
     3
280
     1
  0
ATTDEF
  5
2E2
102
{ACAD_XDICTIONARY
360
2E3
102
}
330
2BF
100
AcDbEntity
  8
TITLEBLOCK
100
AcDbText
 10
-121.0
 20
28.5
 30
0.0
 40
3.5
  1

  7
FusionTitle
 11
-121.0
 21
32.0
 31
0.0
100
AcDbAttributeDefinition
280
     0
  3
Document type
  2
DOCUMENT_TYPE
 70
     0
 74
     3
280
     1
  0
ATTDEF
  5
2E4
102
{ACAD_XDICTIONARY
360
2E5
102
}
330
2BF
100
AcDbEntity
  8
TITLEBLOCK
100
AcDbText
 10
-43.923943
 20
38.5
 30
0.0
 40
3.5
  1

  7
FusionTitle
 72
     2
 11
-0.992838
 21
42.0
 31
0.0
100
AcDbAttributeDefinition
280
     0
  3
Approved date
  2
APPROVED_DATE
 70
     0
 74
     3
280
     1
  0
ATTDEF
  5
2E6
102
{ACAD_XDICTIONARY
360
2E7
102
}
330
2BF
100
AcDbEntity
  8
TITLEBLOCK
100
AcDbText
 10
-101.123124
 20
38.5
 30
0.0
 40
3.5
  1

  7
FusionTitle
 72
     2
 11
-62.0
 21
42.0
 31
0.0
100
AcDbAttributeDefinition
280
     0
  3
Created date
  2
CREATED_DATE
 70
     0
 74
     3
280
     1
  0
ATTDEF
  5
2E8
102
{ACAD_XDICTIONARY
360
2E9
102
}
330
2BF
100
AcDbEntity
  8
TITLEBLOCK
100
AcDbText
 10
-15.65075
 20
1.35
 30
0.0
 40
3.5
  1

  7
FusionTitle
 72
     1
 11
-7.5
 21
4.85
 31
0.0
100
AcDbAttributeDefinition
280
     0
  3
Sheet
  2
SHEET
 70
     0
 74
     3
280
     1
  0
ATTDEF
  5
2EA
102
{ACAD_XDICTIONARY
360
2EB
102
}
330
2BF
100
AcDbEntity
  8
TITLEBLOCK
100
AcDbText
 10
-121.0
 20
9.0
 30
0.0
 40
5.0
  1

  7
FusionTitle
 11
-121.0
 21
14.0
 31
0.0
100
AcDbAttributeDefinition
280
     0
  3
2nd Title
  2
TITLE_2
 70
     0
 74
     3
280
     1
  0
ATTDEF
  5
2EC
102
{ACAD_XDICTIONARY
360
2ED
102
}
330
2BF
100
AcDbEntity
  8
TITLEBLOCK
100
AcDbText
 10
-64.456344
 20
14.751432
 30
0.0
 40
5.0
  1

  7
FusionTitle
 72
     1
 11
-30.5
 21
19.751432
 31
0.0
100
AcDbAttributeDefinition
280
     0
  3
Drawing number
  2
DRAWING_NUMBER
 70
     0
 74
     3
280
     1
  0
ATTDEF
  5
2EE
102
{ACAD_XDICTIONARY
360
2EF
102
}
330
2BF
100
AcDbEntity
  8
TITLEBLOCK
100
AcDbText
 10
-121.0
 20
16.5
 30
0.0
 40
5.0
  1

  7
FusionTitle
 11
-121.0
 21
21.5
 31
0.0
100
AcDbAttributeDefinition
280
     0
  3
1st Title
  2
TITLE_1
 70
     0
 74
     3
280
     1
  0
ATTDEF
  5
2F0
102
{ACAD_XDICTIONARY
360
2F1
102
}
330
2BF
100
AcDbEntity
  8
TITLEBLOCK
100
AcDbText
 10
-60.0
 20
38.5
 30
0.0
 40
3.5
  1

  7
FusionTitle
 11
-60.0
 21
42.0
 31
0.0
100
AcDbAttributeDefinition
280
     0
  3
Approved by
  2
APPROVED_BY
 70
     0
 74
     3
280
     1
  0
ATTDEF
  5
2F2
102
{ACAD_XDICTIONARY
360
2F3
102
}
330
2BF
100
AcDbEntity
  8
TITLEBLOCK
100
AcDbText
 10
-121.0
 20
38.5
 30
0.0
 40
3.5
  1

  7
FusionTitle
 11
-121.0
 21
42.0
 31
0.0
100
AcDbAttributeDefinition
280
     0
  3
Created by
  2
CREATED_BY
 70
     0
 74
     3
280
     1
  0
ATTDEF
  5
2F4
102
{ACAD_XDICTIONARY
360
2F5
102
}
330
2BF
100
AcDbEntity
  8
TITLEBLOCK
100
AcDbText
 10
-155.0
 20
38.5
 30
0.0
 40
3.5
  1

  7
FusionTitle
 11
-155.0
 21
42.0
 31
0.0
100
AcDbAttributeDefinition
280
     0
  3
Technical reference
  2
TECHNICAL_REFERENCE
 70
     0
 74
     3
280
     1
  0
ATTDEF
  5
2F6
102
{ACAD_XDICTIONARY
360
2F7
102
}
330
2BF
100
AcDbEntity
  8
TITLEBLOCK
100
AcDbText
 10
-179.0
 20
38.5
 30
0.0
 40
3.5
  1

  7
FusionTitle
 11
-179.0
 21
42.0
 31
0.0
100
AcDbAttributeDefinition
280
     0
  3
Department
  2
DEPT
 70
     0
 74
     3
280
     1
  0
ENDBLK
  5
2F8
330
2BF
100
AcDbEntity
  8
0
100
AcDbBlockEnd
  0
BLOCK
  5
30C
330
30B
100
AcDbEntity
  8
0
100
AcDbBlockBegin
  2
*D7
 70
     1
 10
0.0
 20
0.0
 30
0.0
  3
*D7
  1

  0
LINE
  5
30D
330
30B
100
AcDbEntity
  8
FD_Dimensions
 62
     0
440
 16777216
370
    -2
100
AcDbLine
 10
329.374779
 20
233.396293
 30
0.0
 11
350.781666
 21
233.396293
 31
0.0
  0
LINE
  5
30E
330
30B
100
AcDbEntity
  8
FD_Dimensions
 62
     0
440
 16777216
370
    -2
100
AcDbLine
 10
329.374779
 20
201.396293
 30
0.0
 11
350.781666
 21
201.396293
 31
0.0
  0
LINE
  5
30F
330
30B
100
AcDbEntity
  8
FD_Dimensions
 62
     0
440
 16777216
370
    -2
100
AcDbLine
 10
348.681666
 20
229.896293
 30
0.0
 11
348.681666
 21
204.896293
 31
0.0
  0
SOLID
  5
310
330
30B
100
AcDbEntity
  8
FD_Dimensions
 62
     0
440
 16777216
100
AcDbTrace
 10
348.098332
 20
229.896293
 30
0.0
 11
349.264999
 21
229.896293
 31
0.0
 12
348.681666
 22
233.396293
 32
0.0
 13
348.681666
 23
233.396293
 33
0.0
  0
SOLID
  5
311
330
30B
100
AcDbEntity
  8
FD_Dimensions
 62
     0
440
 16777216
100
AcDbTrace
 10
348.098332
 20
204.896293
 30
0.0
 11
349.264999
 21
204.896293
 31
0.0
 12
348.681666
 22
201.396293
 32
0.0
 13
348.681666
 23
201.396293
 33
0.0
  0
MTEXT
  5
312
330
30B
100
AcDbEntity
  8
FD_Dimensions
 62
     0
440
 16777216
100
AcDbMText
 10
345.493466
 20
217.396293
 30
0.0
 40
3.5
 41
0.0
 46
0.0
 71
     5
 72
     1
  1
32
 11
0.0
 21
1.0
 31
0.0
 73
     1
 44
1.0
  0
POINT
  5
313
330
30B
100
AcDbEntity
  8
Defpoints
 62
     0
440
 16777216
100
AcDbPoint
 10
327.274779
 20
233.396293
 30
0.0
  0
POINT
  5
314
330
30B
100
AcDbEntity
  8
Defpoints
 62
     0
440
 16777216
100
AcDbPoint
 10
327.274779
 20
201.396293
 30
0.0
  0
POINT
  5
315
330
30B
100
AcDbEntity
  8
Defpoints
 62
     0
440
 16777216
100
AcDbPoint
 10
348.681666
 20
201.396293
 30
0.0
  0
ENDBLK
  5
316
330
30B
100
AcDbEntity
  8
0
100
AcDbBlockEnd
  0
BLOCK
  5
319
330
318
100
AcDbEntity
  8
0
100
AcDbBlockBegin
  2
*D8
 70
     1
 10
0.0
 20
0.0
 30
0.0
  3
*D8
  1

  0
LINE
  5
31A
330
318
100
AcDbEntity
  8
FD_Dimensions
 62
     0
440
 16777216
370
    -2
100
AcDbLine
 10
329.274779
 20
233.496293
 30
0.0
 11
329.274779
 21
273.60255
 31
0.0
  0
LINE
  5
31B
330
318
100
AcDbEntity
  8
FD_Dimensions
 62
     0
440
 16777216
370
    -2
100
AcDbLine
 10
199.2471
 20
217.032687
 30
0.0
 11
199.2471
 21
273.60255
 31
0.0
  0
LINE
  5
31C
330
318
100
AcDbEntity
  8
FD_Dimensions
 62
     0
440
 16777216
370
    -2
100
AcDbLine
 10
325.774779
 20
271.50255
 30
0.0
 11
202.7471
 21
271.50255
 31
0.0
  0
SOLID
  5
31D
330
318
100
AcDbEntity
  8
FD_Dimensions
 62
     0
440
 16777216
100
AcDbTrace
 10
325.774779
 20
272.085884
 30
0.0
 11
325.774779
 21
270.919217
 31
0.0
 12
329.274779
 22
271.50255
 32
0.0
 13
329.274779
 23
271.50255
 33
0.0
  0
SOLID
  5
31E
330
318
100
AcDbEntity
  8
FD_Dimensions
 62
     0
440
 16777216
100
AcDbTrace
 10
202.7471
 20
272.085884
 30
0.0
 11
202.7471
 21
270.919217
 31
0.0
 12
199.2471
 22
271.50255
 32
0.0
 13
199.2471
 23
271.50255
 33
0.0
  0
MTEXT
  5
31F
330
318
100
AcDbEntity
  8
FD_Dimensions
 62
     0
440
 16777216
100
AcDbMText
 10
264.26094
 20
274.69075
 30
0.0
 40
3.5
 41
0.0
 46
0.0
 71
     5
 72
     1
  1
130
 73
     1
 44
1.0
  0
POINT
  5
320
330
318
100
AcDbEntity
  8
Defpoints
 62
     0
440
 16777216
100
AcDbPoint
 10
329.274779
 20
231.396293
 30
0.0
  0
POINT
  5
321
330
318
100
AcDbEntity
  8
Defpoints
 62
     0
440
 16777216
100
AcDbPoint
 10
199.2471
 20
214.932687
 30
0.0
  0
POINT
  5
322
330
318
100
AcDbEntity
  8
Defpoints
 62
     0
440
 16777216
100
AcDbPoint
 10
199.2471
 20
271.50255
 30
0.0
  0
ENDBLK
  5
323
330
318
100
AcDbEntity
  8
0
100
AcDbBlockEnd
  0
BLOCK
  5
326
330
325
100
AcDbEntity
  8
0
100
AcDbBlockBegin
  2
*D9
 70
     1
 10
0.0
 20
0.0
 30
0.0
  3
*D9
  1

  0
LINE
  5
327
330
325
100
AcDbEntity
  8
FD_Dimensions
 62
     0
440
 16777216
370
    -2
100
AcDbLine
 10
329.274779
 20
233.496293
 30
0.0
 11
329.274779
 21
256.496293
 31
0.0
  0
LINE
  5
328
330
325
100
AcDbEntity
  8
FD_Dimensions
 62
     0
440
 16777216
370
    -2
100
AcDbLine
 10
249.274779
 20
237.496293
 30
0.0
 11
249.274779
 21
256.496293
 31
0.0
  0
LINE
  5
329
330
325
100
AcDbEntity
  8
FD_Dimensions
 62
     0
440
 16777216
370
    -2
100
AcDbLine
 10
325.774779
 20
254.396293
 30
0.0
 11
252.774779
 21
254.396293
 31
0.0
  0
SOLID
  5
32A
330
325
100
AcDbEntity
  8
FD_Dimensions
 62
     0
440
 16777216
100
AcDbTrace
 10
325.774779
 20
254.979626
 30
0.0
 11
325.774779
 21
253.812959
 31
0.0
 12
329.274779
 22
254.396293
 32
0.0
 13
329.274779
 23
254.396293
 33
0.0
  0
SOLID
  5
32B
330
325
100
AcDbEntity
  8
FD_Dimensions
 62
     0
440
 16777216
100
AcDbTrace
 10
252.774779
 20
254.979626
 30
0.0
 11
252.774779
 21
253.812959
 31
0.0
 12
249.274779
 22
254.396293
 32
0.0
 13
249.274779
 23
254.396293
 33
0.0
  0
MTEXT
  5
32C
330
325
100
AcDbEntity
  8
FD_Dimensions
 62
     0
440
 16777216
100
AcDbMText
 10
289.274779
 20
257.583298
 30
0.0
 40
3.5
 41
0.0
 46
0.0
 71
     5
 72
     1
  1
80
 73
     1
 44
1.0
  0
POINT
  5
32D
330
325
100
AcDbEntity
  8
Defpoints
 62
     0
440
 16777216
100
AcDbPoint
 10
329.274779
 20
231.396293
 30
0.0
  0
POINT
  5
32E
330
325
100
AcDbEntity
  8
Defpoints
 62
     0
440
 16777216
100
AcDbPoint
 10
249.274779
 20
235.396293
 30
0.0
  0
POINT
  5
32F
330
325
100
AcDbEntity
  8
Defpoints
 62
     0
440
 16777216
100
AcDbPoint
 10
249.274779
 20
254.396293
 30
0.0
  0
ENDBLK
  5
330
330
325
100
AcDbEntity
  8
0
100
AcDbBlockEnd
  0
BLOCK
  5
333
330
332
100
AcDbEntity
  8
0
100
AcDbBlockBegin
  2
*D10
 70
     1
 10
0.0
 20
0.0
 30
0.0
  3
*D10
  1

  0
LINE
  5
334
330
332
100
AcDbEntity
  8
FD_Dimensions
 62
     0
440
 16777216
370
    -2
100
AcDbLine
 10
227.060266
 20
199.662171
 30
0.0
 11
270.103264
 21
176.029882
 31
0.0
  0
ARC
  5
335
330
332
100
AcDbEntity
  8
FD_Dimensions
 62
     0
440
 16777216
370
    -2
100
AcDbCircle
 10
223.9018
 20
201.396293
 30
0.0
 40
50.60702120963672
100
AcDbArc
 50
335.194879
 51
356.036613
  0
SOLID
  5
336
330
332
100
AcDbEntity
  8
FD_Dimensions
 62
     0
440
 16777216
100
AcDbTrace
 10
270.360552
 20
179.902074
 30
0.0
 11
269.319081
 21
180.427858
 31
0.0
 12
268.262464
 22
177.040553
 32
0.0
 13
268.262464
 23
177.040553
 33
0.0
  0
SOLID
  5
337
330
332
100
AcDbEntity
  8
FD_Dimensions
 62
     0
440
 16777216
100
AcDbTrace
 10
273.804806
 20
197.918558
 30
0.0
 11
274.970775
 21
197.878214
 31
0.0
 12
274.508821
 22
201.396293
 32
0.0
 13
274.508821
 23
201.396293
 33
0.0
  0
MTEXT
  5
338
330
332
100
AcDbEntity
  8
FD_Dimensions
 62
     0
440
 16777216
100
AcDbMText
 10
269.834112
 20
189.616334
 30
0.0
 40
3.5
 41
0.0
 46
0.0
 71
     5
 72
     1
  1
30°
 11
0.248424
 21
0.968651
 31
0.0
 73
     1
 44
1.0
  0
POINT
  5
339
330
332
100
AcDbEntity
  8
Defpoints
 62
     0
440
 16777216
100
AcDbPoint
 10
271.69997
 20
184.770844
 30
0.0
  0
POINT
  5
33A
330
332
100
AcDbEntity
  8
Defpoints
 62
     0
440
 16777216
100
AcDbPoint
 10
249.77478
 20
201.396293
 30
0.0
  0
POINT
  5
33B
330
332
100
AcDbEntity
  8
Defpoints
 62
     0
440
 16777216
100
AcDbPoint
 10
225.219467
 20
200.672842
 30
0.0
  0
POINT
  5
33C
330
332
100
AcDbEntity
  8
Defpoints
 62
     0
440
 16777216
100
AcDbPoint
 10
199.2471
 20
214.932687
 30
0.0
  0
POINT
  5
33D
330
332
100
AcDbEntity
  8
Defpoints
 62
     0
440
 16777216
100
AcDbPoint
 10
327.274779
 20
201.396293
 30
0.0
  0
ENDBLK
  5
33E
330
332
100
AcDbEntity
  8
0
100
AcDbBlockEnd
  0
BLOCK
  5
341
330
340
100
AcDbEntity
  8
0
100
AcDbBlockBegin
  2
*D11
 70
     1
 10
0.0
 20
0.0
 30
0.0
  3
*D11
  1

  0
LINE
  5
5BA
330
340
100
AcDbEntity
  8
FD_Dimensions
 62
     0
440
 16777216
370
    -2
100
AcDbLine
 10
329.374779
 20
233.396293
 30
0.0
 11
350.781666
 21
233.396293
 31
0.0
  0
LINE
  5
5BB
330
340
100
AcDbEntity
  8
FD_Dimensions
 62
     0
440
 16777216
370
    -2
100
AcDbLine
 10
329.374779
 20
201.396293
 30
0.0
 11
350.781666
 21
201.396293
 31
0.0
  0
LINE
  5
5BC
330
340
100
AcDbEntity
  8
FD_Dimensions
 62
     0
440
 16777216
370
    -2
100
AcDbLine
 10
348.681666
 20
229.896293
 30
0.0
 11
348.681666
 21
204.896293
 31
0.0
  0
SOLID
  5
5BD
330
340
100
AcDbEntity
  8
FD_Dimensions
 62
     0
440
 16777216
100
AcDbTrace
 10
348.098332
 20
229.896293
 30
0.0
 11
349.264999
 21
229.896293
 31
0.0
 12
348.681666
 22
233.396293
 32
0.0
 13
348.681666
 23
233.396293
 33
0.0
  0
SOLID
  5
5BE
330
340
100
AcDbEntity
  8
FD_Dimensions
 62
     0
440
 16777216
100
AcDbTrace
 10
348.098332
 20
204.896293
 30
0.0
 11
349.264999
 21
204.896293
 31
0.0
 12
348.681666
 22
201.396293
 32
0.0
 13
348.681666
 23
201.396293
 33
0.0
  0
MTEXT
  5
5BF
330
340
100
AcDbEntity
  8
FD_Dimensions
 62
     0
440
 16777216
100
AcDbMText
 10
345.493466
 20
217.396293
 30
0.0
 40
3.5
 41
0.0
 46
0.0
 71
     5
 72
     1
  1
32
 11
0.0
 21
1.0
 31
0.0
 73
     1
 44
1.0
  0
POINT
  5
5C0
330
340
100
AcDbEntity
  8
Defpoints
 62
     0
440
 16777216
100
AcDbPoint
 10
327.274779
 20
233.396293
 30
0.0
  0
POINT
  5
5C1
330
340
100
AcDbEntity
  8
Defpoints
 62
     0
440
 16777216
100
AcDbPoint
 10
327.274779
 20
201.396293
 30
0.0
  0
POINT
  5
5C2
330
340
100
AcDbEntity
  8
Defpoints
 62
     0
440
 16777216
100
AcDbPoint
 10
348.681666
 20
201.396293
 30
0.0
  0
ENDBLK
  5
342
330
340
100
AcDbEntity
  8
0
100
AcDbBlockEnd
  0
BLOCK
  5
34D
330
34C
100
AcDbEntity
  8
0
100
AcDbBlockBegin
  2
*D12
 70
     1
 10
0.0
 20
0.0
 30
0.0
  3
*D12
  1

  0
LINE
  5
5C3
330
34C
100
AcDbEntity
  8
FD_Dimensions
 62
     0
440
 16777216
370
    -2
100
AcDbLine
 10
329.274779
 20
233.496293
 30
0.0
 11
329.274779
 21
273.60255
 31
0.0
  0
LINE
  5
5C4
330
34C
100
AcDbEntity
  8
FD_Dimensions
 62
     0
440
 16777216
370
    -2
100
AcDbLine
 10
199.2471
 20
217.032687
 30
0.0
 11
199.2471
 21
273.60255
 31
0.0
  0
LINE
  5
5C5
330
34C
100
AcDbEntity
  8
FD_Dimensions
 62
     0
440
 16777216
370
    -2
100
AcDbLine
 10
325.774779
 20
271.50255
 30
0.0
 11
202.7471
 21
271.50255
 31
0.0
  0
SOLID
  5
5C6
330
34C
100
AcDbEntity
  8
FD_Dimensions
 62
     0
440
 16777216
100
AcDbTrace
 10
325.774779
 20
272.085884
 30
0.0
 11
325.774779
 21
270.919217
 31
0.0
 12
329.274779
 22
271.50255
 32
0.0
 13
329.274779
 23
271.50255
 33
0.0
  0
SOLID
  5
5C7
330
34C
100
AcDbEntity
  8
FD_Dimensions
 62
     0
440
 16777216
100
AcDbTrace
 10
202.7471
 20
272.085884
 30
0.0
 11
202.7471
 21
270.919217
 31
0.0
 12
199.2471
 22
271.50255
 32
0.0
 13
199.2471
 23
271.50255
 33
0.0
  0
MTEXT
  5
5C8
330
34C
100
AcDbEntity
  8
FD_Dimensions
 62
     0
440
 16777216
100
AcDbMText
 10
264.26094
 20
274.69075
 30
0.0
 40
3.5
 41
0.0
 46
0.0
 71
     5
 72
     1
  1
130
 73
     1
 44
1.0
  0
POINT
  5
5C9
330
34C
100
AcDbEntity
  8
Defpoints
 62
     0
440
 16777216
100
AcDbPoint
 10
329.274779
 20
231.396293
 30
0.0
  0
POINT
  5
5CA
330
34C
100
AcDbEntity
  8
Defpoints
 62
     0
440
 16777216
100
AcDbPoint
 10
199.2471
 20
214.932687
 30
0.0
  0
POINT
  5
5CB
330
34C
100
AcDbEntity
  8
Defpoints
 62
     0
440
 16777216
100
AcDbPoint
 10
199.2471
 20
271.50255
 30
0.0
  0
ENDBLK
  5
34E
330
34C
100
AcDbEntity
  8
0
100
AcDbBlockEnd
  0
BLOCK
  5
359
330
358
100
AcDbEntity
  8
0
100
AcDbBlockBegin
  2
*D13
 70
     1
 10
0.0
 20
0.0
 30
0.0
  3
*D13
  1

  0
LINE
  5
5CC
330
358
100
AcDbEntity
  8
FD_Dimensions
 62
     0
440
 16777216
370
    -2
100
AcDbLine
 10
329.274779
 20
233.496293
 30
0.0
 11
329.274779
 21
256.496293
 31
0.0
  0
LINE
  5
5CD
330
358
100
AcDbEntity
  8
FD_Dimensions
 62
     0
440
 16777216
370
    -2
100
AcDbLine
 10
249.274779
 20
237.496293
 30
0.0
 11
249.274779
 21
256.496293
 31
0.0
  0
LINE
  5
5CE
330
358
100
AcDbEntity
  8
FD_Dimensions
 62
     0
440
 16777216
370
    -2
100
AcDbLine
 10
325.774779
 20
254.396293
 30
0.0
 11
252.774779
 21
254.396293
 31
0.0
  0
SOLID
  5
5CF
330
358
100
AcDbEntity
  8
FD_Dimensions
 62
     0
440
 16777216
100
AcDbTrace
 10
325.774779
 20
254.979626
 30
0.0
 11
325.774779
 21
253.812959
 31
0.0
 12
329.274779
 22
254.396293
 32
0.0
 13
329.274779
 23
254.396293
 33
0.0
  0
SOLID
  5
5D0
330
358
100
AcDbEntity
  8
FD_Dimensions
 62
     0
440
 16777216
100
AcDbTrace
 10
252.774779
 20
254.979626
 30
0.0
 11
252.774779
 21
253.812959
 31
0.0
 12
249.274779
 22
254.396293
 32
0.0
 13
249.274779
 23
254.396293
 33
0.0
  0
MTEXT
  5
5D1
330
358
100
AcDbEntity
  8
FD_Dimensions
 62
     0
440
 16777216
100
AcDbMText
 10
289.274779
 20
257.583298
 30
0.0
 40
3.5
 41
0.0
 46
0.0
 71
     5
 72
     1
  1
80
 73
     1
 44
1.0
  0
POINT
  5
5D2
330
358
100
AcDbEntity
  8
Defpoints
 62
     0
440
 16777216
100
AcDbPoint
 10
329.274779
 20
231.396293
 30
0.0
  0
POINT
  5
5D3
330
358
100
AcDbEntity
  8
Defpoints
 62
     0
440
 16777216
100
AcDbPoint
 10
249.274779
 20
235.396293
 30
0.0
  0
POINT
  5
5D4
330
358
100
AcDbEntity
  8
Defpoints
 62
     0
440
 16777216
100
AcDbPoint
 10
249.274779
 20
254.396293
 30
0.0
  0
ENDBLK
  5
35A
330
358
100
AcDbEntity
  8
0
100
AcDbBlockEnd
  0
BLOCK
  5
365
330
364
100
AcDbEntity
  8
0
100
AcDbBlockBegin
  2
*D14
 70
     1
 10
0.0
 20
0.0
 30
0.0
  3
*D14
  1

  0
LINE
  5
5D5
330
364
100
AcDbEntity
  8
FD_Dimensions
 62
     0
440
 16777216
370
    -2
100
AcDbLine
 10
227.060266
 20
199.662171
 30
0.0
 11
270.103264
 21
176.029882
 31
0.0
  0
ARC
  5
5D6
330
364
100
AcDbEntity
  8
FD_Dimensions
 62
     0
440
 16777216
370
    -2
100
AcDbCircle
 10
223.9018
 20
201.396293
 30
0.0
 40
50.60702120963672
100
AcDbArc
 50
335.194879
 51
356.036613
  0
SOLID
  5
5D7
330
364
100
AcDbEntity
  8
FD_Dimensions
 62
     0
440
 16777216
100
AcDbTrace
 10
270.360552
 20
179.902074
 30
0.0
 11
269.319081
 21
180.427858
 31
0.0
 12
268.262464
 22
177.040553
 32
0.0
 13
268.262464
 23
177.040553
 33
0.0
  0
SOLID
  5
5D8
330
364
100
AcDbEntity
  8
FD_Dimensions
 62
     0
440
 16777216
100
AcDbTrace
 10
273.804806
 20
197.918558
 30
0.0
 11
274.970775
 21
197.878214
 31
0.0
 12
274.508821
 22
201.396293
 32
0.0
 13
274.508821
 23
201.396293
 33
0.0
  0
MTEXT
  5
5D9
330
364
100
AcDbEntity
  8
FD_Dimensions
 62
     0
440
 16777216
100
AcDbMText
 10
269.834112
 20
189.616334
 30
0.0
 40
3.5
 41
0.0
 46
0.0
 71
     5
 72
     1
  1
30°
 11
0.248424
 21
0.968651
 31
0.0
 73
     1
 44
1.0
  0
POINT
  5
5DA
330
364
100
AcDbEntity
  8
Defpoints
 62
     0
440
 16777216
100
AcDbPoint
 10
271.69997
 20
184.770844
 30
0.0
  0
POINT
  5
5DB
330
364
100
AcDbEntity
  8
Defpoints
 62
     0
440
 16777216
100
AcDbPoint
 10
249.77478
 20
201.396293
 30
0.0
  0
POINT
  5
5DC
330
364
100
AcDbEntity
  8
Defpoints
 62
     0
440
 16777216
100
AcDbPoint
 10
225.219467
 20
200.672842
 30
0.0
  0
POINT
  5
5DD
330
364
100
AcDbEntity
  8
Defpoints
 62
     0
440
 16777216
100
AcDbPoint
 10
199.2471
 20
214.932687
 30
0.0
  0
POINT
  5
5DE
330
364
100
AcDbEntity
  8
Defpoints
 62
     0
440
 16777216
100
AcDbPoint
 10
327.274779
 20
201.396293
 30
0.0
  0
ENDBLK
  5
366
330
364
100
AcDbEntity
  8
0
100
AcDbBlockEnd
  0
ENDSEC
  0
SECTION
  2
ENTITIES
  0
INSERT
  5
277
330
70
100
AcDbEntity
  8
BORDER
100
AcDbBlockReference
  2
ISO_A3_SHEET
 10
0.0
 20
0.0
 30
0.0
  0
INSERT
  5
2BD
330
70
100
AcDbEntity
  8
TITLEBLOCK
100
AcDbBlockReference
 66
     1
  2
ISO_TITLEBLOCK
 10
410.0
 20
10.0
 30
0.0
  0
ATTRIB
  5
2F9
330
2BD
100
AcDbEntity
  8
TITLEBLOCK
100
AcDbText
 10
360.0
 20
11.5
 30
0.0
 40
3.5
  1

  7
FusionTitle
 11
360.0
 21
15.0
 31
0.0
100
AcDbAttribute
280
     0
  2
DATE_OF_ISSUE
 70
     0
 74
     3
280
     1
  0
ATTRIB
  5
2FA
330
2BD
100
AcDbEntity
  8
TITLEBLOCK
100
AcDbText
 10
354.0
 20
11.35
 30
0.0
 40
3.5
  1

  7
FusionTitle
 72
     1
 11
354.0
 21
14.85
 31
0.0
100
AcDbAttribute
280
     0
  2
REV
 70
     0
 74
     3
280
     1
  0
ATTRIB
  5
2FB
330
2BD
100
AcDbEntity
  8
TITLEBLOCK
100
AcDbText
 10
289.0
 20
11.5
 30
0.0
 40
5.0
  1

  7
FusionTitle
 11
289.0
 21
16.5
 31
0.0
100
AcDbAttribute
280
     0
  2
TITLE_3
 70
     0
 74
     3
280
     1
  0
ATTRIB
  5
2FC
330
2BD
100
AcDbEntity
  8
TITLEBLOCK
100
AcDbText
 10
350.0
 20
38.5
 30
0.0
 40
3.5
  1

  7
FusionTitle
 11
350.0
 21
42.0
 31
0.0
100
AcDbAttribute
280
     0
  2
DOCUMENT_STATUS
 70
     0
 74
     3
280
     1
  0
ATTRIB
  5
2FD
330
2BD
100
AcDbEntity
  8
TITLEBLOCK
100
AcDbText
 10
289.0
 20
38.5
 30
0.0
 40
3.5
  1

  7
FusionTitle
 11
289.0
 21
42.0
 31
0.0
100
AcDbAttribute
280
     0
  2
DOCUMENT_TYPE
 70
     0
 74
     3
280
     1
  0
ATTRIB
  5
2FE
330
2BD
100
AcDbEntity
  8
TITLEBLOCK
100
AcDbText
 10
409.007162
 20
48.5
 30
0.0
 40
3.5
  1

  7
FusionTitle
 72
     2
 11
409.007162
 21
52.0
 31
0.0
100
AcDbAttribute
280
     0
  2
APPROVED_DATE
 70
     0
 74
     3
280
     1
  0
ATTRIB
  5
2FF
330
2BD
100
AcDbEntity
  8
TITLEBLOCK
100
AcDbText
 10
323.528649
 20
48.5
 30
0.0
 40
3.5
  1
2022/11/22
  7
FusionTitle
 72
     2
 11
348.0
 21
52.0
 31
0.0
100
AcDbAttribute
280
     0
  2
CREATED_DATE
 70
     0
 74
     3
280
     1
  0
ATTRIB
  5
300
330
2BD
100
AcDbEntity
  8
TITLEBLOCK
100
AcDbText
 10
399.101467
 20
11.35
 30
0.0
 40
3.5
  1
1/1
  7
FusionTitle
 72
     1
 11
402.5
 21
14.85
 31
0.0
100
AcDbAttribute
280
     0
  2
SHEET
 70
     0
 74
     3
280
     1
  0
ATTRIB
  5
301
330
2BD
100
AcDbEntity
  8
TITLEBLOCK
100
AcDbText
 10
289.0
 20
19.0
 30
0.0
 40
5.0
  1
CCF60XC134L130Y32R
 41
0.766583
  7
FusionTitle
 11
289.0
 21
24.0
 31
0.0
100
AcDbAttribute
280
     0
  2
TITLE_2
 70
     0
 74
     3
280
     1
1001
FUSIONTITLEBLOCKATTRIBUTEOVERRIDE
1070
     1
  0
ATTRIB
  5
302
330
2BD
100
AcDbEntity
  8
TITLEBLOCK
100
AcDbText
 10
379.5
 20
24.751432
 30
0.0
 40
5.0
  1

  7
FusionTitle
 72
     1
 11
379.5
 21
29.751432
 31
0.0
100
AcDbAttribute
280
     0
  2
DRAWING_NUMBER
 70
     0
 74
     3
280
     1
  0
ATTRIB
  5
303
330
2BD
100
AcDbEntity
  8
TITLEBLOCK
100
AcDbText
 10
289.0
 20
26.5
 30
0.0
 40
5.0
  1
面取りジャイアン30
  7
FusionTitle
 11
289.0
 21
31.5
 31
0.0
100
AcDbAttribute
280
     0
  2
TITLE_1
 70
     0
 74
     3
280
     1
  0
ATTRIB
  5
304
330
2BD
100
AcDbEntity
  8
TITLEBLOCK
100
AcDbText
 10
350.0
 20
48.5
 30
0.0
 40
3.5
  1

  7
FusionTitle
 11
350.0
 21
52.0
 31
0.0
100
AcDbAttribute
280
     0
  2
APPROVED_BY
 70
     0
 74
     3
280
     1
  0
ATTRIB
  5
305
330
2BD
100
AcDbEntity
  8
TITLEBLOCK
100
AcDbText
 10
289.0
 20
48.5
 30
0.0
 40
3.5
  1
Naoki Soneda
  7
FusionTitle
 11
289.0
 21
52.0
 31
0.0
100
AcDbAttribute
280
     0
  2
CREATED_BY
 70
     0
 74
     3
280
     1
  0
ATTRIB
  5
306
330
2BD
100
AcDbEntity
  8
TITLEBLOCK
100
AcDbText
 10
255.0
 20
48.5
 30
0.0
 40
3.5
  1

  7
FusionTitle
 11
255.0
 21
52.0
 31
0.0
100
AcDbAttribute
280
     0
  2
TECHNICAL_REFERENCE
 70
     0
 74
     3
280
     1
  0
ATTRIB
  5
307
330
2BD
100
AcDbEntity
  8
TITLEBLOCK
100
AcDbText
 10
231.0
 20
48.5
 30
0.0
 40
3.5
  1

  7
FusionTitle
 11
231.0
 21
52.0
 31
0.0
100
AcDbAttribute
280
     0
  2
DEPT
 70
     0
 74
     3
280
     1
  0
SEQEND
  5
308
330
2BD
100
AcDbEntity
  8
TITLEBLOCK
  0
DIMENSION
  5
309
330
70
100
AcDbEntity
  8
FD_Dimensions
100
AcDbDimension
280
     0
  2
*D11
 10
348.681666
 20
201.396293
 30
0.0
 11
345.493466
 21
217.396293
 31
0.0
 70
    32
 71
     5
 42
32.0
 73
     0
 74
     0
 75
     0
  3
Dim-ISO-25
100
AcDbAlignedDimension
 13
327.274779
 23
233.396293
 33
0.0
 14
327.274779
 24
201.396293
 34
0.0
 50
90.0
100
AcDbRotatedDimension
1001
ACAD_DIMASSOC_CALC_DIMLFAC
1040
-1.0
1001
ACAD_DIMASSOC_DIMLFAC
1040
-1.0
1001
ACAD_DIMASSOC_OVERRIDDEN_DIMLFAC
1040
0.0
1001
ACAD_TC
1000
DSTYLE_TC
1002
{
1070
   176
1004
18000000020000008C8C8CC2000000000000000000000000
1070
   177
1004
18000000020000008C8C8CC2000000000000000000000000
1002
}
1001
ACAD_DSTYLE_DIMJAG_POSITION
1070
   387
1070
     0
1070
   389
1010
0.0
1020
0.0
1030
0.0
1001
ACAD
1000
DSTYLE
1002
{
1070
   144
1040
1.0
1070
   176
1070
     0
1070
   177
1070
     0
1002
}
  0
DIMENSION
  5
317
330
70
100
AcDbEntity
  8
FD_Dimensions
100
AcDbDimension
280
     0
  2
*D12
 10
199.2471
 20
271.50255
 30
0.0
 11
264.26094
 21
274.69075
 31
0.0
 70
    32
 71
     5
 42
130.027679
 73
     0
 74
     0
 75
     0
  3
Dim-ISO-25
100
AcDbAlignedDimension
 13
329.274779
 23
231.396293
 33
0.0
 14
199.2471
 24
214.932687
 34
0.0
100
AcDbRotatedDimension
1001
ACAD_DIMASSOC_CALC_DIMLFAC
1040
-1.0
1001
ACAD_DIMASSOC_DIMLFAC
1040
-1.0
1001
ACAD_DIMASSOC_OVERRIDDEN_DIMLFAC
1040
0.0
1001
ACAD_TC
1000
DSTYLE_TC
1002
{
1070
   176
1004
18000000020000008C8C8CC2000000000000000000000000
1070
   177
1004
18000000020000008C8C8CC2000000000000000000000000
1002
}
1001
ACAD_DSTYLE_DIMJAG_POSITION
1070
   387
1070
     0
1070
   389
1010
0.0
1020
0.0
1030
0.0
1001
ACAD
1000
DSTYLE
1002
{
1070
   272
1070
     0
1070
   271
1070
     0
1070
   144
1040
1.0
1070
   176
1070
     0
1070
   177
1070
     0
1002
}
  0
DIMENSION
  5
324
330
70
100
AcDbEntity
  8
FD_Dimensions
100
AcDbDimension
280
     0
  2
*D13
 10
249.274779
 20
254.396293
 30
0.0
 11
289.274779
 21
257.583298
 31
0.0
 70
    32
 71
     5
 42
80.0
 73
     0
 74
     0
 75
     0
  3
Dim-ISO-25
100
AcDbAlignedDimension
 13
329.274779
 23
231.396293
 33
0.0
 14
249.274779
 24
235.396293
 34
0.0
100
AcDbRotatedDimension
1001
ACAD_DIMASSOC_CALC_DIMLFAC
1040
-1.0
1001
ACAD_DIMASSOC_DIMLFAC
1040
-1.0
1001
ACAD_DIMASSOC_OVERRIDDEN_DIMLFAC
1040
0.0
1001
ACAD_TC
1000
DSTYLE_TC
1002
{
1070
   177
1004
18000000020000008C8C8CC2000000000000000000000000
1070
   176
1004
18000000020000008C8C8CC2000000000000000000000000
1002
}
1001
ACAD_DSTYLE_DIMJAG_POSITION
1070
   387
1070
     0
1070
   389
1010
0.0
1020
0.0
1030
0.0
1001
ACAD
1000
DSTYLE
1002
{
1070
   177
1070
     0
1070
   176
1070
     0
1070
   144
1040
1.0
1002
}
  0
DIMENSION
  5
331
330
70
100
AcDbEntity
  8
FD_Dimensions
100
AcDbDimension
280
     0
  2
*D14
 10
327.274779
 20
201.396293
 30
0.0
 11
269.834112
 21
189.616334
 31
0.0
 70
    34
  1
30°
 71
     5
 42
0.502105
 73
     0
 74
     0
 75
     0
  3
Dim-ISO-25
100
AcDb2LineAngularDimension
 13
225.219467
 23
200.672842
 33
0.0
 14
199.2471
 24
214.932687
 34
0.0
 15
249.77478
 25
201.396293
 35
0.0
 16
271.69997
 26
184.770844
 36
0.0
1001
ACAD_DIMASSOC_CALC_DIMLFAC
1040
-1.0
1001
ACAD_DIMASSOC_DIMLFAC
1040
-1.0
1001
ACAD_DIMASSOC_OVERRIDDEN_DIMLFAC
1040
0.0
1001
ACAD_TC
1000
DSTYLE_TC
1002
{
1070
   176
1004
18000000020000008C8C8CC2000000000000000000000000
1070
   177
1004
18000000020000008C8C8CC2000000000000000000000000
1002
}
1001
ACAD_DSTYLE_DIMINSPECT
1070
   393
1070
     0
1070
   394
1070
     1
1001
ACAD_DSTYLE_DIMJAG_POSITION
1070
   387
1070
     0
1070
   389
1010
0.0
1020
0.0
1030
0.0
1001
ACAD
1000
DSTYLE
1002
{
1070
   179
1070
     0
1070
   170
1070
     0
1070
     3
1000

1070
   144
1040
1.0
1070
   176
1070
     0
1070
   177
1070
     0
1002
}
  0
LINE
  5
3E1
330
70
100
AcDbEntity
  8
Visible
100
AcDbLine
 10
218.34458
 20
124.321965
 30
0.0
 11
222.18533
 21
124.999193
 31
0.0
210
-1.0
220
-0.0000000000000002
230
0.0
  0
LINE
  5
3E2
330
70
100
AcDbEntity
  8
Visible
100
AcDbLine
 10
223.774688
 20
124.911589
 30
0.0
 11
216.881034
 21
123.696052
 31
0.0
210
-1.0
220
-0.0000000000000002
230
0.0
  0
LINE
  5
3E3
330
70
100
AcDbEntity
  8
Visible
100
AcDbLine
 10
216.915153
 20
123.502554
 30
0.0
 11
216.881034
 21
123.696052
 31
0.0
210
-1.0
220
-0.0000000000000002
230
0.0
  0
LINE
  5
3E4
330
70
100
AcDbEntity
  8
Visible
100
AcDbLine
 10
223.808807
 20
124.718091
 30
0.0
 11
223.774688
 21
124.911589
 31
0.0
210
-1.0
220
-0.0000000000000002
230
0.0
  0
ARC
  5
3E5
330
70
100
AcDbEntity
  8
Visible
100
AcDbCircle
 10
-222.321037
 20
112.99996
 30
0.0
 40
12.0
210
0.0
220
-0.0000000000000002
230
-1.0
100
AcDbArc
 50
63.042237
 51
70.647965
  0
ARC
  5
3E6
330
70
100
AcDbEntity
  8
Visible
100
AcDbCircle
 10
-222.321037
 20
112.99996
 30
0.0
 40
12.0
210
0.0
220
-0.0000000000000002
230
-1.0
100
AcDbArc
 50
89.352035
 51
96.957763
  0
LINE
  5
3E7
330
70
100
AcDbEntity
  8
Visible
100
AcDbLine
 10
210.274009
 20
117.762122
 30
0.0
 11
202.490093
 21
116.389607
 31
0.0
210
-1.0
220
-0.0000000000000002
230
0.0
  0
LINE
  5
3E8
330
70
100
AcDbEntity
  8
Visible
100
AcDbLine
 10
199.825136
 20
117.949841
 30
0.0
 11
210.274009
 21
117.762122
 31
0.0
210
-1.0
220
-0.0000000000000002
230
0.0
  0
ELLIPSE
  5
3E9
330
70
100
AcDbEntity
  8
Visible
100
AcDbEllipse
 10
199.881878
 20
117.834201
 30
0.0
 11
-0.07469496506434
 21
0.1107979875767403
 31
0.0
210
0.0
220
-0.0000000000000002
230
-1.0
 40
0.4436070899687187
 41
-1.032650682405647
 42
0.3013294932167738
  0
LINE
  5
3EA
330
70
100
AcDbEntity
  8
Visible
100
AcDbLine
 10
199.80139
 20
117.862538
 30
0.0
 11
202.490093
 21
116.389607
 31
0.0
210
-1.0
220
-0.0000000000000002
230
0.0
  0
LINE
  5
3EB
330
70
100
AcDbEntity
  8
Visible
100
AcDbLine
 10
240.312331
 20
127.627987
 30
0.0
 11
241.476901
 21
127.833333
 31
0.0
210
-1.0
220
-0.0000000000000002
230
0.0
  0
LINE
  5
3EC
330
70
100
AcDbEntity
  8
Visible
100
AcDbLine
 10
241.418579
 20
127.702636
 30
0.0
 11
240.805097
 21
127.51191
 31
0.0
210
-1.0
220
-0.0000000000000002
230
0.0
  0
ELLIPSE
  5
3ED
330
70
100
AcDbEntity
  8
Visible
100
AcDbEllipse
 10
240.64256
 20
127.719946
 30
0.0
 11
0.3231140907230206
 21
0.1161821711364537
 31
0.0
210
0.0
220
-0.0000000000000002
230
-1.0
 40
0.7184378408950306
 41
2.176011660106373
 42
3.202463581504304
  0
LINE
  5
3EE
330
70
100
AcDbEntity
  8
Visible
100
AcDbLine
 10
240.314967
 20
127.6181
 30
0.0
 11
240.3123
 21
127.628102
 31
0.0
210
-1.0
220
-0.0000000000000002
230
0.0
  0
LINE
  5
3EF
330
70
100
AcDbEntity
  8
Visible
100
AcDbLine
 10
227.364116
 20
125.344988
 30
0.0
 11
240.3123
 21
127.628102
 31
0.0
210
-1.0
220
-0.0000000000000002
230
0.0
  0
LINE
  5
3F0
330
70
100
AcDbEntity
  8
Visible
100
AcDbLine
 10
227.364116
 20
125.344988
 30
0.0
 11
227.361928
 21
125.33413
 31
0.0
210
-1.0
220
-0.0000000000000002
230
0.0
  0
ELLIPSE
  5
3F1
330
70
100
AcDbEntity
  8
Visible
100
AcDbEllipse
 10
227.032319
 20
125.320093
 30
0.0
 11
0.3231140907250798
 21
0.1161821711313356
 31
0.0
210
0.0
220
-0.0000000000000002
230
-1.0
 40
0.7184378409059274
 41
0.4099367782916242
 42
1.980733105081741
  0
LINE
  5
3F2
330
70
100
AcDbEntity
  8
Visible
100
AcDbLine
 10
226.980095
 20
125.060884
 30
0.0
 11
225.522272
 21
124.998799
 31
0.0
210
-1.0
220
-0.0000000000000002
230
0.0
  0
LINE
  5
3F3
330
70
100
AcDbEntity
  8
Visible
100
AcDbLine
 10
225.972499
 20
121.791614
 30
0.0
 11
226.204928
 21
120.571173
 31
0.0
210
-1.0
220
-0.0000000000000002
230
0.0
  0
LINE
  5
3F4
330
70
100
AcDbEntity
  8
Visible
100
AcDbLine
 10
226.204928
 20
120.571173
 30
0.0
 11
226.963488
 21
120.704927
 31
0.0
210
-1.0
220
-0.0000000000000002
230
0.0
  0
LINE
  5
3F5
330
70
100
AcDbEntity
  8
Visible
100
AcDbLine
 10
210.274009
 20
117.762122
 30
0.0
 11
226.204928
 21
120.571173
 31
0.0
210
-1.0
220
-0.0000000000000002
230
0.0
  0
LINE
  5
3F6
330
70
100
AcDbEntity
  8
Visible
100
AcDbLine
 10
225.219467
 20
124.966708
 30
0.0
 11
199.2471
 21
120.387079
 31
0.0
210
-1.0
220
-0.0000000000000002
230
0.0
  0
LINE
  5
3F7
330
70
100
AcDbEntity
  8
Visible
100
AcDbLine
 10
200.411671
 20
120.592425
 30
0.0
 11
200.41166
 21
120.592543
 31
0.0
210
-1.0
220
-0.0000000000000002
230
0.0
  0
ELLIPSE
  5
3F8
330
70
100
AcDbEntity
  8
Visible
100
AcDbEllipse
 10
199.44247
 20
120.35143
 30
0.0
 11
0.3912992418325522
 21
0.0348367668163461
 31
0.0
210
0.0
220
0.0000000000000002
230
1.0
 40
0.1540151148345572
 41
2.079804634016888
 42
3.174072280681762
  0
ELLIPSE
  5
3F9
330
70
100
AcDbEntity
  8
Visible
100
AcDbEllipse
 10
225.414836
 20
124.931059
 30
0.0
 11
0.3912992418683791
 21
0.034836766820977
 31
0.0
210
0.0
220
0.0000000000000002
230
1.0
 40
0.1540151148179894
 41
1.27897784243052
 42
2.079804633965049
  0
LINE
  5
3FA
330
70
100
AcDbEntity
  8
Visible
100
AcDbLine
 10
200.41166
 20
120.592543
 30
0.0
 11
227.364116
 21
125.344988
 31
0.0
210
-1.0
220
-0.0000000000000002
230
0.0
  0
ELLIPSE
  5
3FB
330
70
100
AcDbEntity
  8
Visible
100
AcDbEllipse
 10
241.305506
 20
127.733013
 30
0.0
 11
0.3796158860489927
 21
0.1010963700666362
 31
0.0
210
0.0
220
-0.0000000000000002
230
-0.9999999999999998
 40
0.1540151148311815
 41
-1.06178801957381
 42
1.309600677642978
  0
LINE
  5
3FC
330
70
100
AcDbEntity
  8
Visible
100
AcDbLine
 10
199.799034
 20
117.869748
 30
0.0
 11
199.051551
 21
120.314654
 31
0.0
210
-1.0
220
-0.0000000000000002
230
0.0
  0
LINE
  5
3FD
330
70
100
AcDbEntity
  8
Visible
100
AcDbLine
 10
241.693997
 20
127.668648
 30
0.0
 11
241.685428
 21
127.832157
 31
0.0
210
-1.0
220
-0.0000000000000002
230
0.0
  0
LINE
  5
3FE
330
70
100
AcDbEntity
  8
Visible
100
AcDbLine
 10
329.274779
 20
134.188995
 30
0.0
 11
329.274779
 21
106.188995
 31
0.0
210
-1.0
220
-0.0000000000000002
230
0.0
  0
LINE
  5
3FF
330
70
100
AcDbEntity
  8
Visible
100
AcDbLine
 10
249.77478
 20
104.188995
 30
0.0
 11
249.77478
 21
136.188995
 31
0.0
210
-1.0
220
-0.0000000000000002
230
0.0
  0
LINE
  5
400
330
70
100
AcDbEntity
  8
Visible
100
AcDbLine
 10
233.915795
 20
126.297141
 30
0.0
 11
228.264295
 21
125.300629
 31
0.0
210
-1.0
220
-0.0000000000000002
230
0.0
  0
LINE
  5
401
330
70
100
AcDbEntity
  8
Visible
100
AcDbLine
 10
233.915795
 20
126.297141
 30
0.0
 11
244.670842
 21
128.193546
 31
0.0
210
-1.0
220
-0.0000000000000002
230
0.0
  0
SPLINE
  5
402
330
70
100
AcDbEntity
  8
Visible
100
AcDbSpline
210
0.0
220
0.0
230
1.0
 70
     9
 71
     3
 72
    46
 73
    42
 74
     0
 42
0.000000001
 43
0.0000000001
 40
0.0
 40
0.0
 40
0.0
 40
0.0
 40
0.1227159133736985
 40
0.1227159133736985
 40
0.2454318267473971
 40
0.2454318267473971
 40
0.3754557719797244
 40
0.3754557719797244
 40
0.5054797172120518
 40
0.5054797172120518
 40
0.6123625024269844
 40
0.6123625024269844
 40
0.6520817614253151
 40
0.6520817614253151
 40
0.6918010204236458
 40
0.6918010204236458
 40
0.7392669066770483
 40
0.7392669066770483
 40
0.7867327929304507
 40
0.7867327929304507
 40
0.8816645654372553
 40
0.8816645654372553
 40
0.9783032987659282
 40
0.9783032987659282
 40
1.074942032094601
 40
1.074942032094601
 40
1.182188822939681
 40
1.182188822939681
 40
1.289435613784762
 40
1.289435613784762
 40
1.387867484708481
 40
1.387867484708481
 40
1.486299355632201
 40
1.486299355632201
 40
1.520122682627073
 40
1.520122682627073
 40
1.553946009621944
 40
1.553946009621944
 40
1.590388835300061
 40
1.590388835300061
 40
1.626831660978177
 40
1.626831660978177
 40
1.626831660978177
 40
1.626831660978177
 10
221.9301078948614
 20
110.4848716149463
 30
0.0
 10
222.2843582229621
 20
110.3331329705706
 30
0.0
 10
222.6414656329166
 20
110.0918835587927
 30
0.0
 10
223.3221820505156
 20
109.549697209175
 30
0.0
 10
223.6445281063217
 20
109.2473859094007
 30
0.0
 10
224.2152689173635
 20
108.6648877759817
 30
0.0
 10
224.5116149225118
 20
108.3315763260125
 30
0.0
 10
225.0277066631813
 20
107.6807558972032
 30
0.0
 10
225.2479289222656
 20
107.3634358958952
 30
0.0
 10
225.5147754283191
 20
106.8691961575841
 30
0.0
 10
225.601948689216
 20
106.6310302007841
 30
0.0
 10
225.5750524873512
 20
106.4345550867692
 30
0.0
 10
225.5533426474875
 20
106.3860207719499
 30
0.0
 10
225.4743480677997
 20
106.317436373416
 30
0.0
 10
225.4168520700863
 20
106.2974638197211
 30
0.0
 10
225.2719286353841
 20
106.2833581962168
 30
0.0
 10
225.1750062050509
 20
106.2931109402252
 30
0.0
 10
224.9542027315313
 20
106.341808494959
 30
0.0
 10
224.8302993723865
 20
106.3807746837101
 30
0.0
 10
224.4353371218723
 20
106.5299914242005
 30
0.0
 10
224.1396888088163
 20
106.6735584885664
 30
0.0
 10
223.5866723932518
 20
106.9741531142481
 30
0.0
 10
223.2861337282575
 20
107.1551507215172
 30
0.0
 10
222.7093315659737
 20
107.5385514761419
 30
0.0
 10
222.4332256313882
 20
107.741217934652
 30
0.0
 10
221.935711372003
 20
108.1442087814939
 30
0.0
 10
221.6755361667571
 20
108.3805819200625
 30
0.0
 10
221.236441838542
 20
108.8599008462151
 30
0.0
 10
221.0577995613562
 20
109.1034463725937
 30
0.0
 10
220.8261276617899
 20
109.532537465855
 30
0.0
 10
220.7463654165651
 20
109.7539461155284
 30
0.0
 10
220.7141386207656
 20
110.160086607133
 30
0.0
 10
220.7597619075215
 20
110.3457007850538
 30
0.0
 10
220.930107409895
 20
110.5166574713112
 30
0.0
 10
220.9881629918749
 20
110.5570001064934
 30
0.0
 10
221.1283364820115
 20
110.6130397471533
 30
0.0
 10
221.2106008944118
 20
110.6284671574267
 30
0.0
 10
221.3835688471923
 20
110.634056608098
 30
0.0
 10
221.4893193891529
 20
110.6226651707529
 30
0.0
 10
221.7100431300102
 20
110.570446579235
 30
0.0
 10
221.8249065187849
 20
110.5299332928789
 30
0.0
 10
221.9301078948614
 20
110.4848716149463
 30
0.0
  0
SPLINE
  5
403
330
70
100
AcDbEntity
  8
Visible
100
AcDbSpline
210
0.0
220
0.0
230
1.0
 70
    12
 71
     2
 72
     6
 73
     3
 74
     0
 42
0.000000001
 43
0.0000000001
 40
0.8928385452833133
 40
0.8928385452833133
 40
0.8928385452833133
 40
1.426998421938602
 40
1.426998421938602
 40
1.426998421938602
 10
228.2642949993776
 20
125.3006288303295
 30
0.0
 41
1.046084622246825
 10
227.2662487748383
 20
122.9734703426529
 30
0.0
 41
1.054668009707886
 10
226.9948189371743
 20
120.7104515180908
 30
0.0
 41
1.057026775489376
  0
SPLINE
  5
404
330
70
100
AcDbEntity
  8
Visible
100
AcDbSpline
210
0.0
220
0.0
230
1.0
 70
    28
 71
     2
 72
     6
 73
     3
 74
     0
 42
0.000000001
 43
0.0000000001
 40
0.1886368487237236
 40
0.1886368487237236
 40
0.1886368487237236
 40
0.1896732123880871
 40
0.1896732123880871
 40
0.1896732123880871
 10
226.9948189371743
 20
120.7104515180908
 30
0.0
 41
1.179262646274091
 10
226.9791445056697
 20
120.7076876929095
 30
0.0
 41
1.179741608365544
 10
226.9634876336963
 20
120.7049269639465
 30
0.0
 41
1.180220422460815
  0
SPLINE
  5
405
330
70
100
AcDbEntity
  8
Visible
100
AcDbSpline
210
0.0
220
0.0
230
1.0
 70
    12
 71
     2
 72
     6
 73
     3
 74
     0
 42
0.000000001
 43
0.0000000001
 40
3.350061168393851
 40
3.350061168393851
 40
3.350061168393851
 40
4.931035540947722
 40
4.931035540947722
 40
4.931035540947722
 10
214.0291172882613
 20
122.9936682470561
 30
0.0
 41
1.0
 10
215.0700955005049
 20
128.0296631449237
 30
0.0
 41
1.0
 10
221.5226065812192
 20
132.7475916255553
 30
0.0
 41
1.0
  0
SPLINE
  5
406
330
70
100
AcDbEntity
  8
Visible
100
AcDbSpline
210
0.0
220
0.0
230
1.0
 70
    12
 71
     2
 72
     6
 73
     3
 74
     0
 42
0.000000001
 43
0.0000000001
 40
4.065515423029146
 40
4.065515423029146
 40
4.065515423029146
 40
4.801006126233074
 40
4.801006126233074
 40
4.801006126233074
 10
221.5226065812192
 20
132.7475916255553
 30
0.0
 41
1.434012653310201
 10
225.5628143363164
 20
134.6603398869156
 30
0.0
 41
1.256264850897112
 10
233.9157951543078
 20
138.2719448489224
 30
0.0
 41
1.0
  0
LINE
  5
407
330
70
100
AcDbEntity
  8
Visible
100
AcDbLine
 10
233.915795
 20
100.188995
 30
0.0
 11
233.915795
 21
126.297141
 31
0.0
210
-1.0
220
-0.0000000000000002
230
0.0
  0
SPLINE
  5
408
330
70
100
AcDbEntity
  8
Visible
100
AcDbSpline
210
0.0
220
0.0
230
1.0
 70
     8
 71
     3
 72
    14
 73
    10
 74
     0
 42
0.000000001
 43
0.0000000001
 40
2.357828024248279
 40
2.357828024248279
 40
2.357828024248279
 40
2.357828024248279
 40
2.645931274186898
 40
2.645931274186898
 40
2.934034524125517
 40
2.934034524125517
 40
3.034389924807454
 40
3.034389924807454
 40
3.097336140204965
 40
3.097336140204965
 40
3.097336140204965
 40
3.097336140204965
 10
249.2747790029302
 20
135.7746217775529
 30
0.0
 10
249.2747790029302
 20
135.4359970361256
 30
0.0
 10
249.2595816567807
 20
135.0603499182234
 30
0.0
 10
249.0313070618994
 20
134.28072980459
 30
0.0
 10
248.8261863491823
 20
133.8782960265034
 30
0.0
 10
248.2519725483794
 20
133.3374973881709
 30
0.0
 10
248.0366454838537
 20
133.1690436753815
 30
0.0
 10
247.6597083640936
 20
132.9461978494746
 30
0.0
 10
247.4627354087205
 20
132.8474935422891
 30
0.0
 10
247.2747790029302
 20
132.7750167202739
 30
0.0
  0
LINE
  5
409
330
70
100
AcDbEntity
  8
Visible
100
AcDbLine
 10
249.274779
 20
137.841548
 30
0.0
 11
249.274779
 21
135.774622
 31
0.0
210
-1.0
220
-0.0000000000000002
230
0.0
  0
SPLINE
  5
40A
330
70
100
AcDbEntity
  8
Visible
100
AcDbSpline
210
0.0
220
0.0
230
1.0
 70
     8
 71
     3
 72
    14
 73
    10
 74
     0
 42
0.000000001
 43
0.0000000001
 40
1.068762037833086
 40
1.068762037833086
 40
1.068762037833086
 40
1.068762037833086
 40
1.131708253230598
 40
1.131708253230598
 40
1.232063653912534
 40
1.232063653912534
 40
1.520166903851154
 40
1.520166903851154
 40
1.808270153789773
 40
1.808270153789773
 40
1.808270153789773
 40
1.808270153789773
 10
247.2747790029302
 20
139.9026154417206
 30
0.0
 10
247.4627354087205
 20
139.9183407281853
 30
0.0
 10
247.6597083640936
 20
139.9120697163907
 30
0.0
 10
248.0366454838537
 20
139.8661087834807
 30
0.0
 10
248.2519725483794
 20
139.7987013799356
 30
0.0
 10
248.8261863491823
 20
139.5273634590212
 30
0.0
 10
249.0313070618994
 20
139.2211864660021
 30
0.0
 10
249.2595816567807
 20
138.5486885358132
 30
0.0
 10
249.2747790029302
 20
138.1801730608458
 30
0.0
 10
249.2747790029302
 20
137.8415483194203
 30
0.0
  0
ELLIPSE
  5
40B
330
70
100
AcDbEntity
  8
Visible
100
AcDbEllipse
 10
178.445079
 20
120.188995
 30
0.0
 11
79.74853722289563
 21
18.85137032868176
 31
-0.0000000000000042
210
0.0
220
-0.0000000000000002
230
-0.9999999999999998
 40
0.0837665174563126
 41
-0.7819740632558175
 42
-0.5099878614524216
  0
LINE
  5
40C
330
70
100
AcDbEntity
  8
Visible
100
AcDbLine
 10
242.893255
 20
133.761262
 30
0.0
 11
221.522607
 21
132.747592
 31
0.0
210
-1.0
220
-0.0000000000000002
230
0.0
  0
ELLIPSE
  5
40D
330
70
100
AcDbEntity
  8
Visible
100
AcDbEllipse
 10
240.705115
 20
131.551794
 30
0.0
 11
4.833271878555074
 21
1.363826050597181
 31
-0.0000000000000003
210
0.0
220
0.0000000000000002
230
0.9999999999999998
 40
0.3621656816840626
 41
-0.4498671549408542
 42
1.001766660611344
  0
ELLIPSE
  5
40E
330
70
100
AcDbEntity
  8
Visible
100
AcDbEllipse
 10
178.445079
 20
120.188995
 30
0.0
 11
79.74853722357508
 21
18.85137032906752
 31
-0.0000000000000042
210
0.0
220
-0.0000000000000002
230
-1.0
 40
0.0837665174572083
 41
0.5495850092636881
 42
0.5973357058066698
  0
SPLINE
  5
40F
330
70
100
AcDbEntity
  8
Visible
100
AcDbSpline
210
0.0
220
0.0
230
1.0
 70
     8
 71
     3
 72
     8
 73
     4
 74
     0
 42
0.000000001
 43
0.0000000001
 40
3.219460806174655
 40
3.219460806174655
 40
3.219460806174655
 40
3.219460806174655
 40
3.306150425736514
 40
3.306150425736514
 40
3.306150425736514
 40
3.306150425736514
 10
245.2722841618377
 20
132.0187524407938
 30
0.0
 10
245.2346143335409
 20
131.7683036575326
 30
0.0
 10
245.1870250327857
 20
131.5144575083613
 30
0.0
 10
245.1306647292248
 20
131.2599118655416
 30
0.0
  0
ELLIPSE
  5
410
330
70
100
AcDbEntity
  8
Visible
100
AcDbEllipse
 10
257.050103
 20
120.188995
 30
0.0
 11
-5.297253062296287
 21
19.76961756909693
 31
-0.0000000000000044
210
0.0
220
0.0000000000000002
230
1.0
 40
0.5714124056799136
 41
0.8322508221573681
 42
1.007101589339681
  0
LINE
  5
411
330
70
100
AcDbEntity
  8
Visible
100
AcDbLine
 10
249.274779
 20
138.188995
 30
0.0
 11
249.274779
 21
137.841548
 31
0.0
210
-1.0
220
-0.0000000000000002
230
0.0
  0
LINE
  5
412
330
70
100
AcDbEntity
  8
Visible
100
AcDbLine
 10
249.274779
 20
135.774622
 30
0.0
 11
249.274779
 21
102.188995
 31
0.0
210
-1.0
220
-0.0000000000000002
230
0.0
  0
ARC
  5
413
330
70
100
AcDbEntity
  8
Visible
100
AcDbCircle
 10
-327.274779
 20
106.188995
 30
0.0
 40
2.0
210
0.0
220
-0.0000000000000002
230
-1.0
100
AcDbArc
 50
180.0
 51
270.0
  0
ARC
  5
414
330
70
100
AcDbEntity
  8
Visible
100
AcDbCircle
 10
-327.274779
 20
134.188995
 30
0.0
 40
2.0
210
0.0
220
-0.0000000000000002
230
-1.0
100
AcDbArc
 50
90.0
 51
180.0
  0
LINE
  5
415
330
70
100
AcDbEntity
  8
Visible
100
AcDbLine
 10
249.77478
 20
136.188995
 30
0.0
 11
327.274779
 21
136.188995
 31
0.0
210
-1.0
220
-0.0000000000000002
230
0.0
  0
LINE
  5
416
330
70
100
AcDbEntity
  8
Visible
100
AcDbLine
 10
249.77478
 20
104.188995
 30
0.0
 11
327.274779
 21
104.188995
 31
0.0
210
-1.0
220
-0.0000000000000002
230
0.0
  0
LINE
  5
417
330
70
100
AcDbEntity
  8
Visible
100
AcDbLine
 10
205.068153
 20
116.844189
 30
0.0
 11
233.915795
 21
100.188995
 31
0.0
210
-1.0
220
-0.0000000000000002
230
0.0
  0
LINE
  5
418
330
70
100
AcDbEntity
  8
Visible
100
AcDbLine
 10
233.915795
 20
100.188995
 30
0.0
 11
247.274779
 21
100.188995
 31
0.0
210
-1.0
220
-0.0000000000000002
230
0.0
  0
ARC
  5
419
330
70
100
AcDbEntity
  8
Visible
100
AcDbCircle
 10
-247.274779
 20
102.188995
 30
0.0
 40
2.0
210
0.0
220
-0.0000000000000002
230
-1.0
100
AcDbArc
 50
180.0
 51
270.0
  0
ARC
  5
41A
330
70
100
AcDbEntity
  8
Visible
100
AcDbCircle
 10
-247.274779
 20
138.188995
 30
0.0
 40
2.0
210
0.0
220
-0.0000000000000002
230
-1.0
100
AcDbArc
 50
152.649812
 51
180.0
  0
ARC
  5
41B
330
70
100
AcDbEntity
  8
Visible
100
AcDbCircle
 10
-249.474779
 20
104.488995
 30
0.0
 40
0.1999999999999958
210
0.0
220
-0.0000000000000002
230
-1.0
100
AcDbArc
 50
0.0
 51
90.0
  0
ARC
  5
41C
330
70
100
AcDbEntity
  8
Visible
100
AcDbCircle
 10
-249.474779
 20
135.888995
 30
0.0
 40
0.1999999999999958
210
0.0
220
-0.0000000000000002
230
-1.0
100
AcDbArc
 50
270.0
 51
0.0
  0
LINE
  5
41D
330
70
100
AcDbEntity
  8
Visible
100
AcDbLine
 10
249.474779
 20
135.688995
 30
0.0
 11
249.57478
 21
135.688995
 31
0.0
210
-1.0
220
-0.0000000000000002
230
0.0
  0
LINE
  5
41E
330
70
100
AcDbEntity
  8
Visible
100
AcDbLine
 10
249.474779
 20
104.688995
 30
0.0
 11
249.57478
 21
104.688995
 31
0.0
210
-1.0
220
-0.0000000000000002
230
0.0
  0
ARC
  5
41F
330
70
100
AcDbEntity
  8
Visible
100
AcDbCircle
 10
-249.57478
 20
104.488995
 30
0.0
 40
0.1999999999999958
210
0.0
220
-0.0000000000000002
230
-1.0
100
AcDbArc
 50
90.0
 51
180.0
  0
ARC
  5
420
330
70
100
AcDbEntity
  8
Visible
100
AcDbCircle
 10
-249.57478
 20
135.888995
 30
0.0
 40
0.1999999999999958
210
0.0
220
-0.0000000000000002
230
-1.0
100
AcDbArc
 50
180.0
 51
270.0
  0
ELLIPSE
  5
421
330
70
100
AcDbEntity
  8
Visible
100
AcDbEllipse
 10
220.264955
 20
210.558556
 30
0.0
 11
-0.0000000000181988
 21
1.950000000000727
 31
0.0
210
0.0
220
0.0
230
-1.0
 40
0.9848077530118438
 41
3.141592653599269
 42
9.424777960778856
  0
ELLIPSE
  5
422
330
70
100
AcDbEntity
  8
Visible
100
AcDbEllipse
 10
220.271988
 20
210.558556
 30
0.0
 11
0.0000000000062801
 21
1.949999999999979
 31
0.0
210
0.0
220
0.0
230
-0.9999999999999998
 40
0.9848077530122216
 41
3.143423856562043
 42
6.281354104201002
  0
ELLIPSE
  5
423
330
70
100
AcDbEntity
  8
Visible
100
AcDbEllipse
 10
221.035214
 20
211.900896
 30
0.0
 11
0.0000000000005442
 21
0.1999999999999169
 31
0.0
210
0.0
220
0.0
230
1.0
 40
0.9848077530125296
 41
-1.570796326792216
 42
0.5235987756009784
  0
LINE
  5
424
330
70
100
AcDbEntity
  8
Visible
100
AcDbLine
 10
221.232176
 20
211.236943
 30
0.0
 11
221.232176
 21
211.900896
 31
0.0
210
-1.0
220
-0.0000000000000002
230
0.0
  0
ELLIPSE
  5
425
330
70
100
AcDbEntity
  8
Visible
100
AcDbEllipse
 10
221.429137
 20
211.236943
 30
0.0
 11
0.0000000000244455
 21
0.1999999999994847
 31
0.0
210
0.0
220
0.0
230
-0.9999999999999998
 40
0.9848077530147996
 41
3.665191429063978
 42
4.712388980264319
  0
LINE
  5
426
330
70
100
AcDbEntity
  8
Visible
100
AcDbLine
 10
221.896921
 20
210.731761
 30
0.0
 11
221.330657
 21
211.063738
 31
0.0
210
-1.0
220
-0.0000000000000002
230
0.0
  0
ELLIPSE
  5
427
330
70
100
AcDbEntity
  8
Visible
100
AcDbEllipse
 10
221.79844
 20
210.558556
 30
0.0
 11
0.0000000000005442
 21
0.1999999999999265
 31
0.0
210
0.0
220
0.0
230
0.9999999999999998
 40
0.9848077530126241
 41
3.665191429190854
 42
5.759586531583884
  0
LINE
  5
428
330
70
100
AcDbEntity
  8
Visible
100
AcDbLine
 10
221.330657
 20
210.053375
 30
0.0
 11
221.896921
 21
210.385351
 31
0.0
210
-1.0
220
-0.0000000000000002
230
0.0
  0
ELLIPSE
  5
429
330
70
100
AcDbEntity
  8
Visible
100
AcDbEllipse
 10
221.429137
 20
209.88017
 30
0.0
 11
-0.0000000000221643
 21
0.1999999999995058
 31
0.0
210
0.0
220
0.0
230
-1.0
 40
0.9848077530146957
 41
-1.570796326685758
 42
-0.5235987754856013
  0
LINE
  5
42A
330
70
100
AcDbEntity
  8
Visible
100
AcDbLine
 10
221.232176
 20
209.216217
 30
0.0
 11
221.232176
 21
209.88017
 31
0.0
210
-1.0
220
-0.0000000000000002
230
0.0
  0
ELLIPSE
  5
42B
330
70
100
AcDbEntity
  8
Visible
100
AcDbEllipse
 10
221.035214
 20
209.216217
 30
0.0
 11
0.0000000000010884
 21
0.1999999999999264
 31
0.0
210
0.0
220
0.0
230
1.0
 40
0.9848077530124824
 41
2.61799387799677
 42
4.712388980390048
  0
LINE
  5
42C
330
70
100
AcDbEntity
  8
Visible
100
AcDbLine
 10
220.370469
 20
209.374988
 30
0.0
 11
220.936734
 21
209.043012
 31
0.0
210
-1.0
220
-0.0000000000000002
230
0.0
  0
ELLIPSE
  5
42D
330
70
100
AcDbEntity
  8
Visible
100
AcDbEllipse
 10
220.271988
 20
209.201783
 30
0.0
 11
0.0000000000005445
 21
0.2000000000007276
 31
0.0
210
0.0
220
0.0
230
-1.0
 40
0.9848077529965612
 41
-0.5235987756080015
 42
0.5235987756026388
  0
LINE
  5
42E
330
70
100
AcDbEntity
  8
Visible
100
AcDbLine
 10
219.607243
 20
209.043012
 30
0.0
 11
220.173507
 21
209.374988
 31
0.0
210
-1.0
220
-0.0000000000000002
230
0.0
  0
ELLIPSE
  5
42F
330
70
100
AcDbEntity
  8
Visible
100
AcDbEllipse
 10
219.508762
 20
209.216217
 30
0.0
 11
0.0000000000005442
 21
0.1999999999999169
 31
0.0
210
0.0
220
0.0
230
1.0
 40
0.9848077530125296
 41
1.570796326797575
 42
3.665191429190771
  0
LINE
  5
430
330
70
100
AcDbEntity
  8
Visible
100
AcDbLine
 10
219.311801
 20
209.88017
 30
0.0
 11
219.311801
 21
209.216217
 31
0.0
210
-1.0
220
-0.0000000000000002
230
0.0
  0
ELLIPSE
  5
431
330
70
100
AcDbEntity
  8
Visible
100
AcDbEllipse
 10
219.114839
 20
209.88017
 30
0.0
 11
0.0000000000237971
 21
0.1999999999995058
 31
0.0
210
0.0
220
0.0
230
-1.0
 40
0.9848077530145536
 41
0.5235987754775611
 42
1.570796326677718
  0
LINE
  5
432
330
70
100
AcDbEntity
  8
Visible
100
AcDbLine
 10
218.647055
 20
210.385351
 30
0.0
 11
219.21332
 21
210.053375
 31
0.0
210
-1.0
220
-0.0000000000000002
230
0.0
  0
ELLIPSE
  5
433
330
70
100
AcDbEntity
  8
Visible
100
AcDbEllipse
 10
218.745536
 20
210.558556
 30
0.0
 11
0.0000000000005442
 21
0.1999999999999169
 31
0.0
210
0.0
220
0.0
230
1.0
 40
0.9848077530125296
 41
0.5235987756009784
 42
2.617993877994173
  0
LINE
  5
434
330
70
100
AcDbEntity
  8
Visible
100
AcDbLine
 10
219.21332
 20
211.063738
 30
0.0
 11
218.647055
 21
210.731761
 31
0.0
210
-1.0
220
-0.0000000000000002
230
0.0
  0
ELLIPSE
  5
435
330
70
100
AcDbEntity
  8
Visible
100
AcDbEllipse
 10
219.114839
 20
211.236943
 30
0.0
 11
-0.0000000000243411
 21
0.1999999999994769
 31
0.0
210
0.0
220
0.0
230
-1.0
 40
0.9848077530146957
 41
1.570796326914752
 42
2.61799387811516
  0
LINE
  5
436
330
70
100
AcDbEntity
  8
Visible
100
AcDbLine
 10
219.311801
 20
211.900896
 30
0.0
 11
219.311801
 21
211.236943
 31
0.0
210
-1.0
220
-0.0000000000000002
230
0.0
  0
ELLIPSE
  5
437
330
70
100
AcDbEntity
  8
Visible
100
AcDbEllipse
 10
219.508762
 20
211.900896
 30
0.0
 11
0.0000000000010884
 21
0.1999999999999169
 31
0.0
210
0.0
220
0.0
230
1.0
 40
0.9848077530126715
 41
-0.5235987755929397
 42
1.570796326800255
  0
LINE
  5
438
330
70
100
AcDbEntity
  8
Visible
100
AcDbLine
 10
220.173507
 20
211.742124
 30
0.0
 11
219.607243
 21
212.074101
 31
0.0
210
-1.0
220
-0.0000000000000002
230
0.0
  0
ELLIPSE
  5
439
330
70
100
AcDbEntity
  8
Visible
100
AcDbEllipse
 10
220.271988
 20
211.91533
 30
0.0
 11
0.0000000000010891
 21
0.2000000000007276
 31
0.0
210
0.0
220
0.0
230
-1.0
 40
0.9848077529967035
 41
2.61799387797911
 42
3.665191429189749
  0
LINE
  5
43A
330
70
100
AcDbEntity
  8
Visible
100
AcDbLine
 10
220.936734
 20
212.074101
 30
0.0
 11
220.370469
 21
211.742124
 31
0.0
210
-1.0
220
-0.0000000000000002
230
0.0
  0
ELLIPSE
  5
43B
330
70
100
AcDbEntity
  8
Visible
100
AcDbEllipse
 10
220.671379
 20
209.201783
 30
0.0
 11
-0.0000000002946427
 21
0.2000000000007275
 31
0.0
210
0.0
220
0.0
230
1.0
 40
0.9848077530736459
 41
-0.5235987770561519
 42
-0.0000000014959403
  0
LINE
  5
43C
330
70
100
AcDbEntity
  8
Visible
100
AcDbLine
 10
221.207138
 20
209.118631
 30
0.0
 11
220.76986
 21
209.374988
 31
0.0
210
-1.0
220
-0.0000000000000002
230
0.0
  0
ELLIPSE
  5
43D
330
70
100
AcDbEntity
  8
Visible
100
AcDbEllipse
 10
219.908153
 20
209.216217
 30
0.0
 11
-0.000000000003163
 21
0.1999999999997118
 31
0.0
210
0.0
220
0.0
230
-0.9999999999999998
 40
0.9848077530135391
 41
4.202670789602175
 42
4.712388980400263
  0
LINE
  5
43E
330
70
100
AcDbEntity
  8
Visible
100
AcDbLine
 10
219.711192
 20
209.216217
 30
0.0
 11
219.711192
 21
209.88017
 31
0.0
210
-1.0
220
-0.0000000000000002
230
0.0
  0
ELLIPSE
  5
43F
330
70
100
AcDbEntity
  8
Visible
100
AcDbEllipse
 10
219.51423
 20
209.88017
 30
0.0
 11
0.0000000000244468
 21
0.1999999999994848
 31
0.0
210
0.0
220
0.0
230
1.0
 40
0.9848077530147993
 41
-1.570796326674519
 42
-0.5235987754741789
  0
LINE
  5
440
330
70
100
AcDbEntity
  8
Visible
100
AcDbLine
 10
219.612711
 20
210.053375
 30
0.0
 11
219.046446
 21
210.385351
 31
0.0
210
-1.0
220
-0.0000000000000002
230
0.0
  0
ELLIPSE
  5
441
330
70
100
AcDbEntity
  8
Visible
100
AcDbEllipse
 10
219.144927
 20
210.558556
 30
0.0
 11
0.0000000000005442
 21
0.1999999999999169
 31
0.0
210
0.0
220
0.0
230
-1.0
 40
0.9848077530125296
 41
3.66519142918541
 42
5.759586531578607
  0
LINE
  5
442
330
70
100
AcDbEntity
  8
Visible
100
AcDbLine
 10
219.046446
 20
210.731761
 30
0.0
 11
219.612711
 21
211.063738
 31
0.0
210
-1.0
220
-0.0000000000000002
230
0.0
  0
ELLIPSE
  5
443
330
70
100
AcDbEntity
  8
Visible
100
AcDbEllipse
 10
219.51423
 20
211.236943
 30
0.0
 11
-0.0000000000221627
 21
0.1999999999995058
 31
0.0
210
0.0
220
0.0
230
1.0
 40
0.9848077530146957
 41
3.665191429075401
 42
4.71238898027556
  0
LINE
  5
444
330
70
100
AcDbEntity
  8
Visible
100
AcDbLine
 10
219.711192
 20
211.236943
 30
0.0
 11
219.711192
 21
211.900896
 31
0.0
210
-1.0
220
-0.0000000000000002
230
0.0
  0
ELLIPSE
  5
445
330
70
100
AcDbEntity
  8
Visible
100
AcDbEllipse
 10
219.908153
 20
211.900896
 30
0.0
 11
0.0000000000014719
 21
0.1999999999995136
 31
0.0
210
0.0
220
0.0
230
-1.0
 40
0.9848077530145154
 41
4.712388980377442
 42
5.222107171176085
  0
ELLIPSE
  5
446
330
70
100
AcDbEntity
  8
Visible
100
AcDbEllipse
 10
220.671379
 20
211.91533
 30
0.0
 11
0.0000000002973417
 21
0.2000000000007275
 31
0.0
210
0.0
220
0.0
230
1.0
 40
0.9848077530740667
 41
3.141592655099292
 42
3.665191430659234
  0
LINE
  5
447
330
70
100
AcDbEntity
  8
Visible
100
AcDbLine
 10
220.76986
 20
211.742124
 30
0.0
 11
221.207138
 21
211.998482
 31
0.0
210
-1.0
220
-0.0000000000000002
230
0.0
  0
ELLIPSE
  5
448
330
70
100
AcDbEntity
  8
Visible
100
AcDbEllipse
 10
220.471312
 20
210.558556
 30
0.0
 11
-0.0000000000503557
 21
3.5
 31
0.0
210
0.0
220
0.0
230
1.0
 40
0.9848077530122136
 41
3.141592653575075
 42
6.283185307164869
  0
ELLIPSE
  5
449
330
70
100
AcDbEntity
  8
Visible
100
AcDbEllipse
 10
220.327861
 20
210.558556
 30
0.0
 11
-0.0000000000270686
 21
3.499999999999999
 31
0.0
210
0.0
220
0.0
230
1.0
 40
0.9848077530122056
 41
-0.0000000000078531
 42
6.283185307171732
  0
LINE
  5
44A
330
70
100
AcDbEntity
  8
Visible
100
AcDbLine
 10
220.271988
 20
209.401783
 30
0.0
 11
220.671379
 21
209.401783
 31
0.0
210
-1.0
220
-0.0000000000000002
230
0.0
  0
LINE
  5
44B
330
70
100
AcDbEntity
  8
Visible
100
AcDbLine
 10
220.271988
 20
211.71533
 30
0.0
 11
220.671379
 21
211.71533
 31
0.0
210
-1.0
220
-0.0000000000000002
230
0.0
  0
LINE
  5
44C
330
70
100
AcDbEntity
  8
Visible
100
AcDbLine
 10
220.471312
 20
207.058556
 30
0.0
 11
220.327861
 21
207.058556
 31
0.0
210
-1.0
220
-0.0000000000000002
230
0.0
  0
LINE
  5
44D
330
70
100
AcDbEntity
  8
Visible
100
AcDbLine
 10
220.471312
 20
214.058556
 30
0.0
 11
220.327861
 21
214.058556
 31
0.0
210
-1.0
220
-0.0000000000000002
230
0.0
  0
ELLIPSE
  5
44E
330
70
100
AcDbEntity
  8
Visible
100
AcDbEllipse
 10
241.753541
 20
205.845335
 30
0.0
 11
-0.0396338499232554
 21
0.0715762682070697
 31
0.0
210
0.0
220
-0.0000000000000001
230
1.0
 40
0.7367204011298237
 41
4.094399375337212
 42
5.093623321812145
  0
ELLIPSE
  5
44F
330
70
100
AcDbEntity
  8
Visible
100
AcDbEllipse
 10
241.751995
 20
205.818917
 30
0.0
 11
0.0444465528322092
 21
0.070128967701861
 31
0.0
210
0.0
220
0.0
230
1.0
 40
0.7399428978695572
 41
4.408567905755193
 42
5.264048988209985
  0
LINE
  5
450
330
70
100
AcDbEntity
  8
Visible
100
AcDbLine
 10
215.504535
 20
220.444271
 30
0.0
 11
241.476901
 21
206.184425
 31
0.0
210
-1.0
220
-0.0000000000000002
230
0.0
  0
LINE
  5
451
330
70
100
AcDbEntity
  8
Visible
100
AcDbLine
 10
241.418579
 20
205.463217
 30
0.0
 11
240.706219
 21
205.25471
 31
0.0
210
-1.0
220
-0.0000000000000002
230
0.0
  0
ELLIPSE
  5
452
330
70
100
AcDbEntity
  8
Visible
100
AcDbEllipse
 10
240.64256
 20
205.216837
 30
0.0
 11
0.3336797578029989
 21
0.1016353696967857
 31
0.0
210
-0.0000000000000001
220
0.0000000000000002
230
1.0
 40
0.0518029616427078
 41
1.363087901325148
 42
2.933884228116996
  0
LINE
  5
453
330
70
100
AcDbEntity
  8
Visible
100
AcDbLine
 10
240.314967
 20
205.120951
 30
0.0
 11
240.3123
 21
205.119364
 31
0.0
210
-1.0
220
-0.0000000000000002
230
0.0
  0
LINE
  5
454
330
70
100
AcDbEntity
  8
Visible
100
AcDbLine
 10
227.364116
 20
201.199796
 30
0.0
 11
240.3123
 21
205.119364
 31
0.0
210
-1.0
220
-0.0000000000000002
230
0.0
  0
LINE
  5
455
330
70
100
AcDbEntity
  8
Visible
100
AcDbLine
 10
227.364116
 20
201.199796
 30
0.0
 11
227.361928
 21
201.199913
 31
0.0
210
-1.0
220
-0.0000000000000002
230
0.0
  0
ELLIPSE
  5
456
330
70
100
AcDbEntity
  8
Visible
100
AcDbEllipse
 10
227.032319
 20
201.096856
 30
0.0
 11
0.3336797578006147
 21
0.1016353696966302
 31
0.0
210
-0.0000000000000001
220
0.0000000000000002
230
0.9999999999999998
 40
0.0518029616393068
 41
0.1413574248881246
 42
1.712153751726013
  0
LINE
  5
457
330
70
100
AcDbEntity
  8
Visible
100
AcDbLine
 10
226.980095
 20
201.09965
 30
0.0
 11
225.522272
 21
200.643842
 31
0.0
210
-1.0
220
-0.0000000000000002
230
0.0
  0
LINE
  5
458
330
70
100
AcDbEntity
  8
Visible
100
AcDbLine
 10
225.219467
 20
200.672842
 30
0.0
 11
199.2471
 21
214.932687
 31
0.0
210
-1.0
220
-0.0000000000000002
230
0.0
  0
LINE
  5
459
330
70
100
AcDbEntity
  8
Visible
100
AcDbLine
 10
199.346606
 20
215.653896
 30
0.0
 11
200.091751
 21
215.862403
 31
0.0
210
-1.0
220
-0.0000000000000002
230
0.0
  0
ELLIPSE
  5
45A
330
70
100
AcDbEntity
  8
Visible
100
AcDbEllipse
 10
200.069905
 20
215.900276
 30
0.0
 11
0.3431812598672887
 21
0.0946716005751653
 31
0.0
210
0.0
220
0.0000000000000001
230
1.0
 40
0.1189300395892806
 41
-1.539926870518696
 42
0.0308694562202603
  0
LINE
  5
45B
330
70
100
AcDbEntity
  8
Visible
100
AcDbLine
 10
200.412575
 20
215.996162
 30
0.0
 11
200.41166
 21
215.997748
 31
0.0
210
-1.0
220
-0.0000000000000002
230
0.0
  0
LINE
  5
45C
330
70
100
AcDbEntity
  8
Visible
100
AcDbLine
 10
213.359844
 20
219.917317
 30
0.0
 11
200.41166
 21
215.997748
 31
0.0
210
-1.0
220
-0.0000000000000002
230
0.0
  0
LINE
  5
45D
330
70
100
AcDbEntity
  8
Visible
100
AcDbLine
 10
213.359844
 20
219.917317
 30
0.0
 11
213.365614
 21
219.9172
 31
0.0
210
-1.0
220
-0.0000000000000002
230
0.0
  0
ELLIPSE
  5
45E
330
70
100
AcDbEntity
  8
Visible
100
AcDbEllipse
 10
213.680147
 20
220.020257
 30
0.0
 11
0.343181259858943
 21
0.0946716005712785
 31
0.0
210
0.0
220
0.0000000000000001
230
1.0
 40
0.1189300395893407
 41
3.521527960201266
 42
5.09232428707221
  0
LINE
  5
45F
330
70
100
AcDbEntity
  8
Visible
100
AcDbLine
 10
213.817875
 20
220.017463
 30
0.0
 11
215.209015
 21
220.473271
 31
0.0
210
-1.0
220
-0.0000000000000002
230
0.0
  0
ELLIPSE
  5
460
330
70
100
AcDbEntity
  8
Visible
100
AcDbEllipse
 10
199.44247
 20
215.277078
 30
0.0
 11
0.2784824088603798
 21
0.2825057704242748
 31
0.0
210
0.0
220
0.0
230
-1.0
 40
0.973215379293032
 41
2.872510949739663
 42
5.243899646955575
  0
ELLIPSE
  5
461
330
70
100
AcDbEntity
  8
Visible
100
AcDbEllipse
 10
225.414836
 20
201.017233
 30
0.0
 11
0.2784824087072791
 21
0.2825057705714364
 31
0.0
210
0.0
220
0.0
230
-1.0
 40
0.9732153792833633
 41
2.071684158649818
 42
2.87251095028508
  0
LINE
  5
462
330
70
100
AcDbEntity
  8
Visible
100
AcDbLine
 10
200.41166
 20
215.997748
 30
0.0
 11
227.364116
 21
201.199796
 31
0.0
210
-1.0
220
-0.0000000000000002
230
0.0
  0
ELLIPSE
  5
463
330
70
100
AcDbEntity
  8
Visible
100
AcDbEllipse
 10
241.305506
 20
205.840035
 30
0.0
 11
-0.1429718964043285
 21
0.3666341095895667
 31
0.0
210
0.0
220
0.0
230
-0.9999999999999998
 40
0.9601073086525936
 41
0.8538212959384559
 42
3.22520999315415
  0
ELLIPSE
  5
464
330
70
100
AcDbEntity
  8
Visible
100
AcDbEllipse
 10
215.33314
 20
220.09988
 30
0.0
 11
-0.1429718964660714
 21
0.3666341095667565
 31
0.0
210
0.0
220
0.0
230
-0.9999999999999998
 40
0.9601073086589849
 41
0.052994504500089
 42
0.8538212961016689
  0
LINE
  5
465
330
70
100
AcDbEntity
  8
Visible
100
AcDbLine
 10
240.3123
 20
205.119364
 30
0.0
 11
213.359844
 21
219.917317
 31
0.0
210
-1.0
220
-0.0000000000000002
230
0.0
  0
ELLIPSE
  5
466
330
70
100
AcDbEntity
  8
Visible
100
AcDbEllipse
 10
220.492216
 20
210.558556
 30
0.0
 11
0.0000000000140316
 21
3.999999999999375
 31
0.0
210
0.0
220
0.0
230
-1.0
 40
0.9848077530123591
 41
3.158124060988445
 42
6.266653899774025
  0
ELLIPSE
  5
467
330
70
100
AcDbEntity
  8
Visible
100
AcDbEllipse
 10
220.36198
 20
210.558556
 30
0.0
 11
-0.0000000000049448
 21
3.999999999999999
 31
0.0
210
0.0
220
0.0
230
-1.0
 40
0.9848077530122056
 41
3.141592653591048
 42
9.424777960770633
  0
LINE
  5
468
330
70
100
AcDbEntity
  8
Visible
100
AcDbLine
 10
241.788213
 20
205.766555
 30
0.0
 11
241.571994
 21
205.553535
 31
0.0
210
-1.0
220
-0.0000000000000002
230
0.0
  0
LINE
  5
469
330
70
100
AcDbEntity
  8
Visible
100
AcDbLine
 10
241.78774
 20
205.899069
 30
0.0
 11
241.564087
 21
206.119413
 31
0.0
210
-1.0
220
-0.0000000000000002
230
0.0
  0
LINE
  5
46A
330
70
100
AcDbEntity
  8
Visible
100
AcDbLine
 10
329.274779
 20
231.396293
 30
0.0
 11
329.274779
 21
203.396293
 31
0.0
210
-1.0
220
-0.0000000000000002
230
0.0
  0
LINE
  5
46B
330
70
100
AcDbEntity
  8
Visible
100
AcDbLine
 10
249.77478
 20
201.396293
 30
0.0
 11
249.77478
 21
233.396293
 31
0.0
210
-1.0
220
-0.0000000000000002
230
0.0
  0
ELLIPSE
  5
46C
330
70
100
AcDbEntity
  8
Visible
100
AcDbEllipse
 10
219.919345
 20
217.137924
 30
0.0
 11
-3.82988925874907
 21
2.964886317224032
 31
-0.0000000000000008
210
-0.0000000000000005
220
-0.0000000000000009
230
-0.9999999999999998
 40
0.1194959151789487
 41
0.0318262207247964
 42
0.0719518893746114
  0
ELLIPSE
  5
46D
330
70
100
AcDbEntity
  8
Visible
100
AcDbEllipse
 10
219.919345
 20
217.137924
 30
0.0
 11
-3.829889275610868
 21
2.964886328223551
 31
-0.0000000000000008
210
-0.0000000000000005
220
-0.0000000000000009
230
-1.0
 40
0.1194959147146452
 41
1.226801921447205
 42
1.26343597626664
  0
ELLIPSE
  5
46E
330
70
100
AcDbEntity
  8
Visible
100
AcDbEllipse
 10
216.364465
 20
217.137924
 30
0.0
 11
0.0000000000243333
 21
2.99999999999944
 31
0.0
210
0.0
220
0.0
230
-1.0
 40
0.9848077530122372
 41
-0.0811981367590027
 42
1.073651893797173
  0
ELLIPSE
  5
46F
330
70
100
AcDbEntity
  8
Visible
100
AcDbEllipse
 10
217.232706
 20
217.137924
 30
0.0
 11
0.0000000001631032
 21
2.999999999999501
 31
0.0
210
0.0
220
0.0
230
-1.0
 40
0.9848077530186859
 41
-0.3118900669094915
 42
-0.1474731184461571
  0
ELLIPSE
  5
470
330
70
100
AcDbEntity
  8
Visible
100
AcDbEllipse
 10
241.78619
 20
205.844677
 30
0.0
 11
4.391102916427676
 21
2.882021198542602
 31
-0.0000000000000003
210
0.0000000000000001
220
-0.0000000000000002
230
-1.0
 40
0.1897106344366988
 41
3.978330870206045
 42
3.989112360788253
  0
ELLIPSE
  5
471
330
70
100
AcDbEntity
  8
Visible
100
AcDbEllipse
 10
241.09555
 20
205.844677
 30
0.0
 11
0.0000000000755389
 21
3.000000000001644
 31
0.0
210
0.0
220
0.0
230
-1.0
 40
0.9848077530113148
 41
1.232986806326091
 42
4.259708785447111
  0
ELLIPSE
  5
472
330
70
100
AcDbEntity
  8
Visible
100
AcDbEllipse
 10
241.09555
 20
205.844677
 30
0.0
 11
0.0000000002026511
 21
3.000000000001326
 31
0.0
210
0.0
220
0.0
230
-1.0
 40
0.9848077530129385
 41
-0.9110605382922706
 42
-0.1093027834511333
  0
ELLIPSE
  5
473
330
70
100
AcDbEntity
  8
Visible
100
AcDbEllipse
 10
241.78619
 20
205.844677
 30
0.0
 11
-3.829889281079612
 21
2.964886345764237
 31
-0.0000000000000008
210
-0.0000000000000005
220
-0.0000000000000009
230
-0.9999999999999998
 40
0.1194959152302092
 41
-0.7653101341498781
 42
-0.7579105199907698
  0
ELLIPSE
  5
474
330
70
100
AcDbEntity
  8
Visible
100
AcDbEllipse
 10
241.96379
 20
205.844677
 30
0.0
 11
0.0000000000612657
 21
2.999999999999007
 31
0.0
210
0.0
220
0.0
230
-1.0
 40
0.9848077530124161
 41
3.28906577196119
 42
4.350604075122079
  0
ELLIPSE
  5
475
330
70
100
AcDbEntity
  8
Visible
100
AcDbEllipse
 10
241.96379
 20
205.844677
 30
0.0
 11
0.0000000000386788
 21
3.000000000001069
 31
0.0
210
0.0
220
0.0
230
-1.0
 40
0.9848077530119011
 41
-1.053884502097701
 42
-0.3271136318554817
  0
LINE
  5
476
330
70
100
AcDbEntity
  8
Visible
100
AcDbLine
 10
218.96125
 20
218.568676
 30
0.0
 11
238.7611
 21
207.683402
 31
0.0
210
-1.0
220
-0.0000000000000002
230
0.0
  0
LINE
  5
477
330
70
100
AcDbEntity
  8
Visible
100
AcDbLine
 10
238.438701
 20
204.532545
 30
0.0
 11
228.264295
 21
201.458856
 31
0.0
210
-1.0
220
-0.0000000000000002
230
0.0
  0
LINE
  5
478
330
70
100
AcDbEntity
  8
Visible
100
AcDbLine
 10
233.915795
 20
198.351856
 30
0.0
 11
228.264295
 21
201.458856
 31
0.0
210
-1.0
220
-0.0000000000000002
230
0.0
  0
ELLIPSE
  5
479
330
70
100
AcDbEntity
  8
Visible
100
AcDbEllipse
 10
199.274779
 20
217.396293
 30
0.0
 11
113.4256363942523
 21
0.0000000002659664
 31
0.0
210
0.0
220
0.0
230
-1.0
 40
0.1763269807059292
 41
1.159031209615395
 42
1.260430201575081
  0
LINE
  5
47A
330
70
100
AcDbEntity
  8
Visible
100
AcDbLine
 10
201.074779
 20
218.385871
 30
0.0
 11
213.988026
 21
225.485128
 31
0.0
210
-1.0
220
-0.0000000000000002
230
0.0
  0
LINE
  5
47B
330
70
100
AcDbEntity
  8
Visible
100
AcDbLine
 10
201.074779
 20
218.385871
 30
0.0
 11
201.074779
 21
216.406715
 31
0.0
210
-1.0
220
-0.0000000000000002
230
0.0
  0
LINE
  5
47C
330
70
100
AcDbEntity
  8
Visible
100
AcDbLine
 10
201.319046
 20
216.272425
 30
0.0
 11
201.074779
 21
216.406715
 31
0.0
210
-1.0
220
-0.0000000000000002
230
0.0
  0
LINE
  5
47D
330
70
100
AcDbEntity
  8
Visible
100
AcDbLine
 10
213.388427
 20
219.917852
 30
0.0
 11
214.996927
 21
220.40378
 31
0.0
210
-1.0
220
-0.0000000000000002
230
0.0
  0
LINE
  5
47E
330
70
100
AcDbEntity
  8
Visible
100
AcDbLine
 10
215.277722
 20
220.488608
 30
0.0
 11
215.401151
 21
220.525896
 31
0.0
210
-1.0
220
-0.0000000000000002
230
0.0
  0
LINE
  5
47F
330
70
100
AcDbEntity
  8
Visible
100
AcDbLine
 10
215.401151
 20
220.525896
 30
0.0
 11
216.124835
 21
220.128039
 31
0.0
210
-1.0
220
-0.0000000000000002
230
0.0
  0
SPLINE
  5
480
330
70
100
AcDbEntity
  8
Visible
100
AcDbSpline
210
0.0
220
0.0
230
1.0
 70
    12
 71
     2
 72
     6
 73
     3
 74
     0
 42
0.000000001
 43
0.0000000001
 40
0.8928385452833133
 40
0.8928385452833133
 40
0.8928385452833133
 40
0.9149627994451156
 40
0.9149627994451156
 40
0.9149627994451156
 10
228.2642949993777
 20
201.4588562529498
 30
0.000000000001819
 41
1.046084622246825
 10
228.2226321070016
 20
201.452959516957
 30
0.000000000001819
 41
1.04644013574392
 10
228.1822476658906
 20
201.4474540894971
 30
0.000000000001819
 41
1.046784970803443
  0
LINE
  5
481
330
70
100
AcDbEntity
  8
Visible
100
AcDbLine
 10
215.401151
 20
220.525896
 30
0.0
 11
215.492114
 21
220.450801
 31
0.0
210
-1.0
220
-0.0000000000000002
230
0.0
  0
LINE
  5
482
330
70
100
AcDbEntity
  8
Visible
100
AcDbLine
 10
201.074779
 20
216.357062
 30
0.0
 11
201.074779
 21
216.406715
 31
0.0
210
-1.0
220
-0.0000000000000002
230
0.0
  0
LINE
  5
483
330
70
100
AcDbEntity
  8
Visible
100
AcDbLine
 10
201.074779
 20
218.385871
 30
0.0
 11
201.074779
 21
218.435523
 31
0.0
210
-1.0
220
-0.0000000000000002
230
0.0
  0
SPLINE
  5
484
330
70
100
AcDbEntity
  8
Visible
100
AcDbSpline
210
0.0000000000032662
220
0.0000000000045636
230
-1.0
 70
    12
 71
     2
 72
     6
 73
     3
 74
     0
 42
0.000000001
 43
0.0000000001
 40
3.317067815432736
 40
3.317067815432736
 40
3.317067815432736
 40
4.931035540947722
 40
4.931035540947722
 40
4.931035540947722
 10
213.9880257456792
 20
225.4851284242032
 30
0.000000000001819
 41
1.0
 10
214.9354380517396
 20
224.4084806966693
 30
0.0
 41
1.0
 10
221.5226065812192
 20
220.0926348944268
 30
0.000000000001819
 41
1.0
  0
SPLINE
  5
485
330
70
100
AcDbEntity
  8
Visible
100
AcDbSpline
210
-0.000000000002893
220
0.0000000000061309
230
1.0
 70
    12
 71
     2
 72
     6
 73
     3
 74
     0
 42
0.000000001
 43
0.0000000001
 40
4.065515423029146
 40
4.065515423029146
 40
4.065515423029146
 40
4.801006126233074
 40
4.801006126233074
 40
4.801006126233074
 10
221.5226065812192
 20
220.0926348944268
 30
0.000000000001819
 41
1.434012653310201
 10
225.5628143363164
 20
222.2958101987606
 30
0.0
 41
1.256264850897112
 10
233.9157951543078
 20
225.9407016299501
 30
0.000000000001819
 41
1.0
  0
LINE
  5
486
330
70
100
AcDbEntity
  8
Visible
100
AcDbLine
 10
233.915795
 20
197.396293
 30
0.0
 11
233.915795
 21
198.351856
 31
0.0
210
-1.0
220
-0.0000000000000002
230
0.0
  0
LINE
  5
487
330
70
100
AcDbEntity
  8
Visible
100
AcDbLine
 10
233.915795
 20
225.940702
 30
0.0
 11
233.915795
 21
237.396293
 31
0.0
210
-1.0
220
-0.0000000000000002
230
0.0
  0
SPLINE
  5
488
330
70
100
AcDbEntity
  8
Visible
100
AcDbSpline
210
-0.0000000000018314
220
0.0000000000005602
230
-1.0
 70
     8
 71
     3
 72
    14
 73
    10
 74
     0
 42
0.000000001
 43
0.0000000001
 40
2.357828024248279
 40
2.357828024248279
 40
2.357828024248279
 40
2.357828024248279
 40
2.645931274186898
 40
2.645931274186898
 40
2.934034524125517
 40
2.934034524125517
 40
3.034389924807454
 40
3.034389924807454
 40
3.097336140204965
 40
3.097336140204965
 40
3.097336140204965
 40
3.097336140204965
 10
249.2747790029302
 20
208.3913918696398
 30
0.000000000001819
 10
249.2747790029302
 20
207.4927294176851
 30
0.000000000001819
 10
249.2595816567807
 20
206.5066216090108
 30
0.0
 10
249.0313070618995
 20
204.5999453908771
 30
0.0
 10
248.8261863491824
 20
203.6778039599849
 30
0.0
 10
248.2519725483795
 20
202.6509235483664
 30
0.0
 10
248.0366454838538
 20
202.356990043867
 30
0.000000000001819
 10
247.6597083640937
 20
202.0336283454508
 30
0.000000000001819
 10
247.4627354087205
 20
201.9117483589052
 30
0.000000000001819
 10
247.2747790029302
 20
201.8530607665907
 30
0.000000000001819
  0
LINE
  5
489
330
70
100
AcDbEntity
  8
Visible
100
AcDbLine
 10
249.274779
 20
213.876724
 30
0.0
 11
249.274779
 21
208.391392
 31
0.0
210
-1.0
220
-0.0000000000000002
230
0.0
  0
SPLINE
  5
48A
330
70
100
AcDbEntity
  8
Visible
100
AcDbSpline
210
-0.0000000000019304
220
-0.0000000000005602
230
-1.0
 70
     8
 71
     3
 72
    14
 73
    10
 74
     0
 42
0.000000001
 43
0.0000000001
 40
1.068762037833086
 40
1.068762037833086
 40
1.068762037833086
 40
1.068762037833086
 40
1.131708253230598
 40
1.131708253230598
 40
1.232063653912534
 40
1.232063653912534
 40
1.520166903851154
 40
1.520166903851154
 40
1.808270153789773
 40
1.808270153789773
 40
1.808270153789773
 40
1.808270153789773
 10
247.2747790029302
 20
220.7687056086779
 30
0.000000000001819
 10
247.4627354087206
 20
220.6767826051018
 30
0.000000000001819
 10
247.6597083640937
 20
220.5200728549626
 30
0.000000000001819
 10
248.0366454838537
 20
220.1300592106218
 30
0.000000000001819
 10
248.2519725483795
 20
219.798050475245
 30
0.000000000001819
 10
248.8261863491824
 20
218.6696346477838
 30
0.0
 10
249.0313070618995
 20
217.7112227252473
 30
0.0
 10
249.2595816567807
 20
215.7641818278171
 30
0.0
 10
249.2747790029302
 20
214.7753867468073
 30
0.000000000001819
 10
249.2747790029302
 20
213.8767242948524
 30
0.000000000001819
  0
ELLIPSE
  5
48B
330
70
100
AcDbEntity
  8
Visible
100
AcDbEllipse
 10
178.445079
 20
217.396293
 30
0.0
 11
-79.74528759249053
 21
7.457688235482712
 31
0.0000000000000005
210
0.0
220
0.0
230
-1.0
 40
0.2327103782602809
 41
2.318060642381042
 42
2.590046844185129
  0
LINE
  5
48C
330
70
100
AcDbEntity
  8
Visible
100
AcDbLine
 10
242.893255
 20
207.586115
 30
0.0
 11
221.522607
 21
220.092635
 31
0.0
210
-1.0
220
-0.0000000000000002
230
0.0
  0
ELLIPSE
  5
48D
330
70
100
AcDbEntity
  8
Visible
100
AcDbEllipse
 10
240.705115
 20
203.278485
 30
0.0
 11
-2.788489146501627
 21
4.273098431673052
 31
-0.0000000000000001
210
0.0
220
0.0
230
1.0
 40
0.9310677401112512
 41
3.75304466837657
 42
5.204678483928439
  0
ELLIPSE
  5
48E
330
70
100
AcDbEntity
  8
Visible
100
AcDbEllipse
 10
178.445079
 20
217.396293
 30
0.0
 11
-79.74528759196975
 21
7.457688235856266
 31
0.0000000000000005
210
0.0
220
0.0
230
-0.9999999999999998
 40
0.2327103782573565
 41
3.649619714870958
 42
3.697370411416706
  0
SPLINE
  5
48F
330
70
100
AcDbEntity
  8
Visible
100
AcDbSpline
210
0.0000000000552382
220
-0.0000000000113259
230
-1.0
 70
     8
 71
     3
 72
     8
 73
     4
 74
     0
 42
0.000000001
 43
0.0000000001
 40
3.219460806174655
 40
3.219460806174655
 40
3.219460806174655
 40
3.219460806174655
 40
3.306150425736514
 40
3.306150425736514
 40
3.306150425736514
 40
3.306150425736514
 10
245.2722841618377
 20
201.2700147466749
 30
0.000000000001819
 10
245.234614333541
 20
201.0862929743725
 30
0.000000000001819
 10
245.1870250327857
 20
200.9091061994149
 30
0.000000000001819
 10
245.1306647292248
 20
200.739918498406
 30
0.0
  0
ELLIPSE
  5
490
330
70
100
AcDbEntity
  8
Visible
100
AcDbEllipse
 10
257.050103
 20
217.396293
 30
0.0
 11
12.2087989868345
 21
19.93785262840819
 31
0.0000000000000003
210
0.0
220
0.0
230
1.0
 40
0.1290419135541927
 41
2.633830801506857
 42
2.808681568689816
  0
LINE
  5
491
330
70
100
AcDbEntity
  8
Visible
100
AcDbLine
 10
249.274779
 20
235.396293
 30
0.0
 11
249.274779
 21
213.876724
 31
0.0
210
-1.0
220
-0.0000000000000002
230
0.0
  0
LINE
  5
492
330
70
100
AcDbEntity
  8
Visible
100
AcDbLine
 10
249.274779
 20
208.391392
 30
0.0
 11
249.274779
 21
199.396293
 31
0.0
210
-1.0
220
-0.0000000000000002
230
0.0
  0
ARC
  5
493
330
70
100
AcDbEntity
  8
Visible
100
AcDbCircle
 10
-327.274779
 20
203.396293
 30
0.0
 40
2.0
210
0.0
220
0.0
230
-1.0
100
AcDbArc
 50
180.0
 51
270.0
  0
ARC
  5
494
330
70
100
AcDbEntity
  8
Visible
100
AcDbCircle
 10
-327.274779
 20
231.396293
 30
0.0
 40
2.0
210
0.0
220
0.0
230
-1.0
100
AcDbArc
 50
90.0
 51
180.0
  0
LINE
  5
495
330
70
100
AcDbEntity
  8
Visible
100
AcDbLine
 10
249.77478
 20
233.396293
 30
0.0
 11
327.274779
 21
233.396293
 31
0.0
210
-1.0
220
-0.0000000000000002
230
0.0
  0
LINE
  5
496
330
70
100
AcDbEntity
  8
Visible
100
AcDbLine
 10
249.77478
 20
201.396293
 30
0.0
 11
327.274779
 21
201.396293
 31
0.0
210
-1.0
220
-0.0000000000000002
230
0.0
  0
LINE
  5
497
330
70
100
AcDbEntity
  8
Visible
100
AcDbLine
 10
201.074779
 20
218.435523
 30
0.0
 11
233.915795
 21
237.396293
 31
0.0
210
-1.0
220
-0.0000000000000002
230
0.0
  0
LINE
  5
498
330
70
100
AcDbEntity
  8
Visible
100
AcDbLine
 10
201.074779
 20
216.357062
 30
0.0
 11
201.254971
 21
216.253028
 31
0.0
210
-1.0
220
-0.0000000000000002
230
0.0
  0
LINE
  5
499
330
70
100
AcDbEntity
  8
Visible
100
AcDbLine
 10
227.333663
 20
201.196489
 30
0.0
 11
233.915795
 21
197.396293
 31
0.0
210
-1.0
220
-0.0000000000000002
230
0.0
  0
LINE
  5
49A
330
70
100
AcDbEntity
  8
Visible
100
AcDbLine
 10
233.915795
 20
237.396293
 30
0.0
 11
247.274779
 21
237.396293
 31
0.0
210
-1.0
220
-0.0000000000000002
230
0.0
  0
LINE
  5
49B
330
70
100
AcDbEntity
  8
Visible
100
AcDbLine
 10
233.915795
 20
197.396293
 30
0.0
 11
247.274779
 21
197.396293
 31
0.0
210
-1.0
220
-0.0000000000000002
230
0.0
  0
ARC
  5
49C
330
70
100
AcDbEntity
  8
Visible
100
AcDbCircle
 10
-247.274779
 20
199.396293
 30
0.0
 40
2.0
210
0.0
220
0.0
230
-1.0
100
AcDbArc
 50
180.0
 51
270.0
  0
ARC
  5
49D
330
70
100
AcDbEntity
  8
Visible
100
AcDbCircle
 10
-247.274779
 20
235.396293
 30
0.0
 40
2.0
210
0.0
220
0.0
230
-1.0
100
AcDbArc
 50
90.0
 51
180.0
  0
ARC
  5
49E
330
70
100
AcDbEntity
  8
Visible
100
AcDbCircle
 10
-249.474779
 20
201.696292
 30
0.0
 40
0.1999999999999957
210
0.0
220
0.0
230
-1.0
100
AcDbArc
 50
0.0
 51
90.0
  0
ARC
  5
49F
330
70
100
AcDbEntity
  8
Visible
100
AcDbCircle
 10
-249.474779
 20
233.096293
 30
0.0
 40
0.1999999999999957
210
0.0
220
0.0
230
-1.0
100
AcDbArc
 50
270.0
 51
0.0
  0
LINE
  5
4A0
330
70
100
AcDbEntity
  8
Visible
100
AcDbLine
 10
249.474779
 20
232.896293
 30
0.0
 11
249.57478
 21
232.896293
 31
0.0
210
-1.0
220
-0.0000000000000002
230
0.0
  0
LINE
  5
4A1
330
70
100
AcDbEntity
  8
Visible
100
AcDbLine
 10
249.474779
 20
201.896292
 30
0.0
 11
249.57478
 21
201.896292
 31
0.0
210
-1.0
220
-0.0000000000000002
230
0.0
  0
ARC
  5
4A2
330
70
100
AcDbEntity
  8
Visible
100
AcDbCircle
 10
-249.57478
 20
201.696292
 30
0.0
 40
0.1999999999999957
210
0.0
220
0.0
230
-1.0
100
AcDbArc
 50
90.0
 51
180.0
  0
ARC
  5
4A3
330
70
100
AcDbEntity
  8
Visible
100
AcDbCircle
 10
-249.57478
 20
233.096293
 30
0.0
 40
0.1999999999999957
210
0.0
220
0.0
230
-1.0
100
AcDbArc
 50
180.0
 51
270.0
  0
ELLIPSE
  5
4A4
330
70
100
AcDbEntity
  8
Visible
100
AcDbEllipse
 10
114.165286
 20
210.558556
 30
0.0
 11
-0.0000000000037257
 21
1.950000000000727
 31
0.0
210
0.0
220
0.0
230
-0.9999999999999998
 40
0.1736481776671173
 41
3.141592653600794
 42
9.42477796078038
  0
ELLIPSE
  5
4A5
330
70
100
AcDbEntity
  8
Visible
100
AcDbEllipse
 10
114.125399
 20
210.558556
 30
0.0
 11
-0.0000000000000001
 21
1.950000000000737
 31
0.0
210
0.0
220
0.0
230
-1.0
 40
0.1736481776671165
 41
0.0589318549333382
 42
3.082660798656451
  0
ELLIPSE
  5
4A6
330
70
100
AcDbEntity
  8
Visible
100
AcDbEllipse
 10
114.259976
 20
211.900896
 30
0.0
 11
0.0
 21
0.1999999999964251
 31
0.0
210
0.0
220
0.0
230
1.0
 40
0.1736481776728512
 41
4.712388980384689
 42
6.806784082747645
  0
LINE
  5
4A7
330
70
100
AcDbEntity
  8
Visible
100
AcDbLine
 10
114.294706
 20
211.236943
 30
0.0
 11
114.294706
 21
211.900896
 31
0.0
  0
ELLIPSE
  5
4A8
330
70
100
AcDbEntity
  8
Visible
100
AcDbEllipse
 10
114.329435
 20
211.236943
 30
0.0
 11
-0.000000000000984
 21
0.1999999999995981
 31
0.0
210
0.0
220
0.0
230
-1.0
 40
0.1736481776700963
 41
3.665191429186181
 42
4.712388980385544
  0
LINE
  5
4A9
330
70
100
AcDbEntity
  8
Visible
100
AcDbLine
 10
114.411918
 20
210.731761
 30
0.0
 11
114.31207
 21
211.063738
 31
0.0
  0
ELLIPSE
  5
4AA
330
70
100
AcDbEntity
  8
Visible
100
AcDbEllipse
 10
114.394553
 20
210.558556
 30
0.0
 11
0.0
 21
0.1999999999964251
 31
0.0
210
0.0
220
0.0
230
1.0
 40
0.1736481776728512
 41
3.66519142915785
 42
5.759586531611526
  0
LINE
  5
4AB
330
70
100
AcDbEntity
  8
Visible
100
AcDbLine
 10
114.31207
 20
210.053375
 30
0.0
 11
114.411918
 21
210.385351
 31
0.0
  0
ELLIPSE
  5
4AC
330
70
100
AcDbEntity
  8
Visible
100
AcDbEllipse
 10
114.329435
 20
209.88017
 30
0.0
 11
0.000000000000984
 21
0.1999999999995981
 31
0.0
210
0.0
220
0.0
230
-1.0
 40
0.1736481776700963
 41
4.712388980383835
 42
5.759586531583194
  0
LINE
  5
4AD
330
70
100
AcDbEntity
  8
Visible
100
AcDbLine
 10
114.294706
 20
209.216217
 30
0.0
 11
114.294706
 21
209.88017
 31
0.0
  0
ELLIPSE
  5
4AE
330
70
100
AcDbEntity
  8
Visible
100
AcDbEllipse
 10
114.259976
 20
209.216217
 30
0.0
 11
0.0
 21
0.1999999999964251
 31
0.0
210
0.0
220
0.0
230
0.9999999999999998
 40
0.1736481776728512
 41
2.61799387802173
 42
4.712388980384689
  0
LINE
  5
4AF
330
70
100
AcDbEntity
  8
Visible
100
AcDbLine
 10
114.142763
 20
209.374988
 30
0.0
 11
114.242611
 21
209.043012
 31
0.0
  0
ELLIPSE
  5
4B0
330
70
100
AcDbEntity
  8
Visible
100
AcDbEllipse
 10
114.125399
 20
209.201783
 30
0.0
 11
0.0
 21
0.2000000000007276
 31
0.0
210
0.0
220
0.0
230
-1.0
 40
0.1736481776579089
 41
-0.5235987756053198
 42
0.5235987756053202
  0
LINE
  5
4B1
330
70
100
AcDbEntity
  8
Visible
100
AcDbLine
 10
114.008186
 20
209.043012
 30
0.0
 11
114.108034
 21
209.374988
 31
0.0
  0
ELLIPSE
  5
4B2
330
70
100
AcDbEntity
  8
Visible
100
AcDbEllipse
 10
113.990821
 20
209.216217
 30
0.0
 11
0.0
 21
0.1999999999964251
 31
0.0
210
0.0
220
0.0
230
1.0
 40
0.1736481776728512
 41
1.570796326794896
 42
3.66519142915785
  0
LINE
  5
4B3
330
70
100
AcDbEntity
  8
Visible
100
AcDbLine
 10
113.956092
 20
209.88017
 30
0.0
 11
113.956092
 21
209.216217
 31
0.0
  0
ELLIPSE
  5
4B4
330
70
100
AcDbEntity
  8
Visible
100
AcDbEllipse
 10
113.921362
 20
209.88017
 30
0.0
 11
-0.000000000000984
 21
0.1999999999995981
 31
0.0
210
0.0
220
0.0
230
-1.0
 40
0.1736481776700963
 41
0.5235987755963923
 42
1.57079632679575
  0
LINE
  5
4B5
330
70
100
AcDbEntity
  8
Visible
100
AcDbLine
 10
113.838879
 20
210.385351
 30
0.0
 11
113.938727
 21
210.053375
 31
0.0
  0
ELLIPSE
  5
4B6
330
70
100
AcDbEntity
  8
Visible
100
AcDbEllipse
 10
113.856244
 20
210.558556
 30
0.0
 11
-0.0000000000026563
 21
0.1999999999893434
 31
0.0
210
0.0
220
0.0
230
1.0
 40
0.1736481776751353
 41
0.5235987755044245
 42
0.9900332166355365
  0
ELLIPSE
  5
4B7
330
70
100
AcDbEntity
  8
Visible
100
AcDbEllipse
 10
113.856244
 20
210.558556
 30
0.0
 11
0.0000000000026563
 21
0.1999999999893434
 31
0.0
210
0.0
220
0.0
230
1.0
 40
0.1736481776751353
 41
2.151559436954256
 42
2.617993878085368
  0
LINE
  5
4B8
330
70
100
AcDbEntity
  8
Visible
100
AcDbLine
 10
113.938727
 20
211.063738
 30
0.0
 11
113.838879
 21
210.731761
 31
0.0
  0
ELLIPSE
  5
4B9
330
70
100
AcDbEntity
  8
Visible
100
AcDbEllipse
 10
113.921362
 20
211.236943
 30
0.0
 11
0.000000000000984
 21
0.1999999999995981
 31
0.0
210
0.0
220
0.0
230
-1.0
 40
0.1736481776700963
 41
1.570796326794042
 42
2.617993877993399
  0
LINE
  5
4BA
330
70
100
AcDbEntity
  8
Visible
100
AcDbLine
 10
113.956092
 20
211.900896
 30
0.0
 11
113.956092
 21
211.236943
 31
0.0
  0
ELLIPSE
  5
4BB
330
70
100
AcDbEntity
  8
Visible
100
AcDbEllipse
 10
113.990821
 20
211.900896
 30
0.0
 11
0.0
 21
0.1999999999964251
 31
0.0
210
0.0
220
0.0
230
0.9999999999999998
 40
0.1736481776728512
 41
-0.5235987755680594
 42
1.570796326794896
  0
LINE
  5
4BC
330
70
100
AcDbEntity
  8
Visible
100
AcDbLine
 10
114.108034
 20
211.742124
 30
0.0
 11
114.008186
 21
212.074101
 31
0.0
  0
ELLIPSE
  5
4BD
330
70
100
AcDbEntity
  8
Visible
100
AcDbEllipse
 10
114.125399
 20
211.91533
 30
0.0
 11
0.0
 21
0.2000000000007276
 31
0.0
210
0.0
220
0.0
230
-1.0
 40
0.1736481776579089
 41
2.617993877984469
 42
3.66519142919511
  0
LINE
  5
4BE
330
70
100
AcDbEntity
  8
Visible
100
AcDbLine
 10
114.242611
 20
212.074101
 30
0.0
 11
114.142763
 21
211.742124
 31
0.0
  0
ELLIPSE
  5
4BF
330
70
100
AcDbEntity
  8
Visible
100
AcDbEllipse
 10
113.808527
 20
210.558556
 30
0.0
 11
-0.0000000000011494
 21
3.49999999999814
 31
0.0
210
0.0
220
0.0
230
1.0
 40
0.1736481776669812
 41
-0.6165990475877914
 42
3.758191701177467
  0
LINE
  5
4C0
330
70
100
AcDbEntity
  8
Visible
100
AcDbLine
 10
114.125399
 20
209.401783
 30
0.0
 11
113.956092
 21
209.401783
 31
0.0
  0
LINE
  5
4C1
330
70
100
AcDbEntity
  8
Visible
100
AcDbLine
 10
114.125399
 20
211.71533
 30
0.0
 11
113.956092
 21
211.71533
 31
0.0
  0
LINE
  5
4C2
330
70
100
AcDbEntity
  8
Visible
100
AcDbLine
 10
113.278761
 20
214.058556
 30
0.0
 11
113.808527
 21
214.058556
 31
0.0
  0
LINE
  5
4C3
330
70
100
AcDbEntity
  8
Visible
100
AcDbLine
 10
113.278761
 20
207.058556
 30
0.0
 11
113.808527
 21
207.058556
 31
0.0
  0
ARC
  5
4C4
330
70
100
AcDbEntity
  8
Visible
100
AcDbCircle
 10
-102.504667
 20
210.558556
 30
0.0
 40
12.0
210
0.0
220
0.0
230
-1.0
100
AcDbArc
 50
166.234055
 51
193.765945
  0
LINE
  5
4C5
330
70
100
AcDbEntity
  8
Visible
100
AcDbLine
 10
107.266828
 20
209.93561
 30
0.0
 11
105.894314
 21
215.147335
 31
0.0
  0
LINE
  5
4C6
330
70
100
AcDbEntity
  8
Visible
100
AcDbLine
 10
107.454548
 20
215.202769
 30
0.0
 11
107.266828
 21
209.93561
 31
0.0
  0
ELLIPSE
  5
4C7
330
70
100
AcDbEntity
  8
Visible
100
AcDbEllipse
 10
107.338908
 20
215.271778
 30
0.0
 11
-0.1144943839897262
 21
0.0729565989035267
 31
0.0
210
0.0
220
0.0
230
-1.0
 40
0.2232028671441322
 41
1.677069179208424
 42
3.011049354766155
  0
LINE
  5
4C8
330
70
100
AcDbEntity
  8
Visible
100
AcDbLine
 10
107.367245
 20
215.289451
 30
0.0
 11
105.894314
 21
215.147335
 31
0.0
  0
LINE
  5
4C9
330
70
100
AcDbEntity
  8
Visible
100
AcDbLine
 10
105.894314
 20
215.147335
 30
0.0
 11
106.414769
 21
216.648211
 31
0.0
  0
ELLIPSE
  5
4CA
330
70
100
AcDbEntity
  8
Visible
100
AcDbEllipse
 10
107.339181
 20
215.298196
 30
0.0
 11
0.1164527934644185
 21
0.0750565839395282
 31
0.0
210
0.0
220
0.0
230
-1.0
 40
0.1643262315520948
 41
-0.005934107786483
 42
1.434305728856274
  0
LINE
  5
4CB
330
70
100
AcDbEntity
  8
Visible
100
AcDbLine
 10
106.599377
 20
216.602
 30
0.0
 11
107.455558
 21
215.373365
 31
0.0
  0
LINE
  5
4CC
330
70
100
AcDbEntity
  8
Visible
100
AcDbLine
 10
112.75841
 20
220.444271
 30
0.0
 11
117.338039
 21
206.184425
 31
0.0
  0
LINE
  5
4CD
330
70
100
AcDbEntity
  8
Visible
100
AcDbLine
 10
117.207343
 20
205.463217
 30
0.0
 11
117.065321
 21
205.329506
 31
0.0
  0
LINE
  5
4CE
330
70
100
AcDbEntity
  8
Visible
100
AcDbLine
 10
114.849695
 20
201.199796
 30
0.0
 11
117.132809
 21
205.119364
 31
0.0
  0
LINE
  5
4CF
330
70
100
AcDbEntity
  8
Visible
100
AcDbLine
 10
114.849695
 20
201.199796
 30
0.0
 11
114.838837
 21
201.199913
 31
0.0
  0
ELLIPSE
  5
4D0
330
70
100
AcDbEntity
  8
Visible
100
AcDbEllipse
 10
114.8248
 20
201.096856
 30
0.0
 11
0.2595849477914006
 21
0.003303413219379
 31
0.0
210
0.0
220
0.0
230
1.0
 40
0.3969485705795736
 41
1.511643081221786
 42
3.082439408019927
  0
LINE
  5
4D1
330
70
100
AcDbEntity
  8
Visible
100
AcDbLine
 10
114.565591
 20
201.09965
 30
0.0
 11
114.503506
 21
200.643842
 31
0.0
  0
LINE
  5
4D2
330
70
100
AcDbEntity
  8
Visible
100
AcDbLine
 10
111.296321
 20
201.024689
 30
0.0
 11
110.075879
 21
201.188912
 31
0.0
  0
LINE
  5
4D3
330
70
100
AcDbEntity
  8
Visible
100
AcDbLine
 10
107.266828
 20
209.93561
 30
0.0
 11
110.075879
 21
201.188912
 31
0.0
  0
LINE
  5
4D4
330
70
100
AcDbEntity
  8
Visible
100
AcDbLine
 10
114.471415
 20
200.672842
 30
0.0
 11
109.891786
 21
214.932687
 31
0.0
  0
LINE
  5
4D5
330
70
100
AcDbEntity
  8
Visible
100
AcDbLine
 10
109.788919
 20
215.653896
 30
0.0
 11
109.824451
 21
215.862403
 31
0.0
  0
ELLIPSE
  5
4D6
330
70
100
AcDbEntity
  8
Visible
100
AcDbEllipse
 10
110.070599
 20
215.900276
 30
0.0
 11
0.24598870469365
 21
0.0510345186491627
 31
0.0
210
0.0
220
0.0
230
-1.0
 40
0.3641503971083141
 41
3.283285227436266
 42
4.854081554211223
  0
LINE
  5
4D7
330
70
100
AcDbEntity
  8
Visible
100
AcDbLine
 10
110.086939
 20
215.996162
 30
0.0
 11
110.09725
 21
215.997748
 31
0.0
  0
LINE
  5
4D8
330
70
100
AcDbEntity
  8
Visible
100
AcDbLine
 10
112.380364
 20
219.917317
 30
0.0
 11
110.09725
 21
215.997748
 31
0.0
  0
LINE
  5
4D9
330
70
100
AcDbEntity
  8
Visible
100
AcDbLine
 10
112.380364
 20
219.917317
 30
0.0
 11
112.370909
 21
219.9172
 31
0.0
  0
ELLIPSE
  5
4DA
330
70
100
AcDbEntity
  8
Visible
100
AcDbEllipse
 10
112.470452
 20
220.020257
 30
0.0
 11
0.2459887046932837
 21
0.0510345186472364
 31
0.0
210
0.0
220
0.0
230
-1.0
 40
0.3641503971113051
 41
2.061554751022756
 42
3.632351077811058
  0
LINE
  5
4DB
330
70
100
AcDbEntity
  8
Visible
100
AcDbLine
 10
112.244737
 20
220.017463
 30
0.0
 11
112.685
 21
220.473271
 31
0.0
  0
ELLIPSE
  5
4DC
330
70
100
AcDbEntity
  8
Visible
100
AcDbEllipse
 10
109.856137
 20
215.277078
 30
0.0
 11
-0.0602751634689597
 21
0.3914516907275298
 31
0.0
210
0.0
220
0.0
230
-1.0
 40
0.0889532639787386
 41
3.650864127922996
 42
6.02225282511803
  0
ELLIPSE
  5
4DD
330
70
100
AcDbEntity
  8
Visible
100
AcDbEllipse
 10
114.435765
 20
201.017233
 30
0.0
 11
-0.0602751634716309
 21
0.3914516907267787
 31
0.0
210
0.0
220
0.0
230
-1.0
 40
0.0889532639823292
 41
2.850037336306118
 42
3.650864127920669
  0
LINE
  5
4DE
330
70
100
AcDbEntity
  8
Visible
100
AcDbLine
 10
110.09725
 20
215.997748
 30
0.0
 11
114.849695
 21
201.199796
 31
0.0
  0
ELLIPSE
  5
4DF
330
70
100
AcDbEntity
  8
Visible
100
AcDbEllipse
 10
117.237719
 20
205.840035
 30
0.0
 11
0.063859355582281
 21
0.3911628265143669
 31
0.0
210
0.0
220
0.0
230
-1.0
 40
0.2499709531015038
 41
0.4547890161620347
 42
2.826177713383467
  0
ELLIPSE
  5
4E0
330
70
100
AcDbEntity
  8
Visible
100
AcDbEllipse
 10
112.65809
 20
220.09988
 30
0.0
 11
0.0638593555824944
 21
0.3911628265150182
 31
0.0
210
0.0
220
0.0
230
-0.9999999999999998
 40
0.2499709530987786
 41
-0.3460377754578161
 42
0.4547890161654631
  0
LINE
  5
4E1
330
70
100
AcDbEntity
  8
Visible
100
AcDbLine
 10
117.132809
 20
205.119364
 30
0.0
 11
112.380364
 21
219.917317
 31
0.0
  0
ELLIPSE
  5
4E2
330
70
100
AcDbEntity
  8
Visible
100
AcDbEllipse
 10
113.61503
 20
210.558556
 30
0.0
 11
-0.0000000000011319
 21
3.999999999993613
 31
0.0
210
0.0
220
0.0
230
-1.0
 40
0.1736481776672961
 41
2.547263417406506
 42
6.87751454336297
  0
LINE
  5
4E3
330
70
100
AcDbEntity
  8
Visible
100
AcDbLine
 10
111.296321
 20
201.024689
 30
0.0
 11
114.495142
 21
200.625771
 31
0.0
  0
LINE
  5
4E4
330
70
100
AcDbEntity
  8
Visible
100
AcDbLine
 10
112.501425
 20
220.464575
 30
0.0
 11
112.714613
 21
220.491161
 31
0.0
  0
ELLIPSE
  5
4E5
330
70
100
AcDbEntity
  8
Visible
100
AcDbEllipse
 10
117.067832
 20
205.844677
 30
0.0
 11
-0.000000000001887
 21
2.99999999998558
 31
0.0
210
0.0
220
0.0
230
-1.0
 40
0.1736481776682907
 41
0.7232619146883393
 42
4.152044832224598
  0
ELLIPSE
  5
4E6
330
70
100
AcDbEntity
  8
Visible
100
AcDbEllipse
 10
117.067832
 20
205.844677
 30
0.0
 11
-0.0000000000019776
 21
3.000000000000154
 31
0.0
210
0.0
220
0.0
230
-1.0
 40
0.1736481776673599
 41
-0.721477365546404
 42
0.3417950281994981
  0
LINE
  5
4E7
330
70
100
AcDbEntity
  8
Visible
100
AcDbLine
 10
117.412611
 20
208.09363
 30
0.0
 11
117.242442
 21
208.671141
 31
0.0
  0
LINE
  5
4E8
330
70
100
AcDbEntity
  8
Visible
100
AcDbLine
 10
115.801848
 20
198.351856
 30
0.0
 11
114.874672
 21
201.242675
 31
0.0
  0
ELLIPSE
  5
4E9
330
70
100
AcDbEntity
  8
Visible
100
AcDbEllipse
 10
109.693702
 20
217.396293
 30
0.0
 11
14.14213562404588
 21
14.14213562404588
 31
0.0
210
0.0
220
0.0
230
-0.9999999999999998
 40
0.9999999999822074
 41
1.944429372999061
 42
2.045828364959531
  0
LINE
  5
4EA
330
70
100
AcDbEntity
  8
Visible
100
AcDbLine
 10
117.869349
 20
200.739918
 30
0.0
 11
117.698252
 21
199.067977
 31
0.0
  0
ELLIPSE
  5
4EB
330
70
100
AcDbEntity
  8
Visible
100
AcDbEllipse
 10
117.121337
 20
203.278485
 30
0.0
 11
-0.0000000000028512
 21
4.999999999997235
 31
0.0
210
0.0
220
0.0
230
1.0
 40
0.173648177667265
 41
4.179860508938377
 42
5.750656835734442
  0
LINE
  5
4EC
330
70
100
AcDbEntity
  8
Visible
100
AcDbLine
 10
117.562154
 20
207.586115
 30
0.0
 11
117.412611
 21
208.09363
 31
0.0
  0
LINE
  5
4ED
330
70
100
AcDbEntity
  8
Visible
100
AcDbLine
 10
117.242442
 20
208.671141
 30
0.0
 11
112.288044
 21
225.485128
 31
0.0
  0
LINE
  5
4EE
330
70
100
AcDbEntity
  8
Visible
100
AcDbLine
 10
110.01109
 20
218.385871
 30
0.0
 11
112.288044
 21
225.485128
 31
0.0
  0
LINE
  5
4EF
330
70
100
AcDbEntity
  8
Visible
100
AcDbLine
 10
110.01109
 20
218.385871
 30
0.0
 11
110.01109
 21
216.406715
 31
0.0
  0
LINE
  5
4F0
330
70
100
AcDbEntity
  8
Visible
100
AcDbLine
 10
110.054313
 20
216.271951
 30
0.0
 11
110.01109
 21
216.406715
 31
0.0
  0
LINE
  5
4F1
330
70
100
AcDbEntity
  8
Visible
100
AcDbLine
 10
110.054313
 20
216.271951
 30
0.0
 11
112.537216
 21
220.525896
 31
0.0
  0
LINE
  5
4F2
330
70
100
AcDbEntity
  8
Visible
100
AcDbLine
 10
112.537216
 20
220.525896
 30
0.0
 11
112.554751
 21
220.471225
 31
0.0
  0
SPLINE
  5
4F3
330
70
100
AcDbEntity
  8
Visible
100
AcDbSpline
210
0.0
220
0.0
230
1.0
 70
     9
 71
     3
 72
    46
 73
    42
 74
     0
 42
0.000000001
 43
0.0000000001
 40
0.0
 40
0.0
 40
0.0
 40
0.0
 40
0.1227159133736985
 40
0.1227159133736985
 40
0.2454318267473971
 40
0.2454318267473971
 40
0.3754557719797244
 40
0.3754557719797244
 40
0.5054797172120518
 40
0.5054797172120518
 40
0.6123625024269844
 40
0.6123625024269844
 40
0.6520817614253151
 40
0.6520817614253151
 40
0.6918010204236458
 40
0.6918010204236458
 40
0.7392669066770483
 40
0.7392669066770483
 40
0.7867327929304507
 40
0.7867327929304507
 40
0.8816645654372553
 40
0.8816645654372553
 40
0.9783032987659282
 40
0.9783032987659282
 40
1.074942032094601
 40
1.074942032094601
 40
1.182188822939681
 40
1.182188822939681
 40
1.289435613784762
 40
1.289435613784762
 40
1.387867484708481
 40
1.387867484708481
 40
1.486299355632201
 40
1.486299355632201
 40
1.520122682627073
 40
1.520122682627073
 40
1.553946009621944
 40
1.553946009621944
 40
1.590388835300061
 40
1.590388835300061
 40
1.626831660978177
 40
1.626831660978177
 40
1.626831660978177
 40
1.626831660978177
 10
99.9895784135333
 20
208.6260038834462
 30
0.0
 10
99.83783976915766
 20
208.4888671556055
 30
0.0
 10
99.59659035737969
 20
208.4473216353053
 30
0.0
 10
99.05440400776207
 20
208.4744317846598
 30
0.0
 10
98.75209270798769
 20
208.5471300422469
 30
0.0
 10
98.16959457456869
 20
208.7585541219723
 30
0.0
 10
97.83628312459951
 20
208.9209992127926
 30
0.0
 10
97.1854626957902
 20
209.3498816461178
 30
0.0
 10
96.86814269448223
 20
209.6160321368061
 30
0.0
 10
96.37390295617116
 20
210.1711257327843
 30
0.0
 10
96.13573699937115
 20
210.5153069002099
 30
0.0
 10
95.93926188535624
 20
210.9619341437228
 30
0.0
 10
95.8907275705369
 20
211.0967787610571
 30
0.0
 10
95.82214317200305
 20
211.3627195236932
 30
0.0
 10
95.80217061830808
 20
211.4937728624846
 30
0.0
 10
95.78806499480378
 20
211.7452814265962
 30
0.0
 10
95.79781773881222
 20
211.8717228188507
 30
0.0
 10
95.84651529354596
 20
212.0976390154101
 30
0.0
 10
95.8854814822971
 20
212.1970873987993
 30
0.0
 10
96.03469822278748
 20
212.4501068478094
 30
0.0
 10
96.1782652871534
 20
212.5567793401478
 30
0.0
 10
96.4788599128351
 20
212.6644141686465
 30
0.0
 10
96.65985752010421
 20
212.6728304612643
 30
0.0
 10
97.04325827472894
 20
212.5966916385696
 30
0.0
 10
97.24592473323902
 20
212.5122691641827
 30
0.0
 10
97.64891558008095
 20
212.2843237154484
 30
0.0
 10
97.88528871864947
 20
212.1131896586103
 30
0.0
 10
98.36460764480216
 20
211.6946852854326
 30
0.0
 10
98.60815317118067
 20
211.447711746745
 30
0.0
 10
99.03724426444206
 20
210.9657883004948
 30
0.0
 10
99.25865291411538
 20
210.6950799421884
 30
0.0
 10
99.66479340572005
 20
210.132923412777
 30
0.0
 10
99.85040758364085
 20
209.8422245424572
 30
0.0
 10
100.0213642698982
 20
209.473299718913
 30
0.0
 10
100.0617069050804
 20
209.3719536206936
 30
0.0
 10
100.1177465457403
 20
209.1803284983798
 30
0.0
 10
100.1331739560137
 20
209.0900779242675
 30
0.0
 10
100.138763406685
 20
208.9322486109377
 30
0.0
 10
100.1273719693399
 20
208.8533645991756
 30
0.0
 10
100.075153377822
 20
208.7207579111509
 30
0.0
 10
100.0346400914659
 20
208.6667292443981
 30
0.0
 10
99.9895784135333
 20
208.6260038834462
 30
0.0
  0
SPLINE
  5
4F4
330
70
100
AcDbEntity
  8
Visible
100
AcDbSpline
210
0.0
220
0.0
230
1.0
 70
    12
 71
     2
 72
     6
 73
     3
 74
     0
 42
0.000000001
 43
0.0000000001
 40
3.127232385479349
 40
3.127232385479349
 40
3.127232385479349
 40
3.187657137934981
 40
3.187657137934981
 40
3.187657137934981
 10
106.3747454148724
 20
216.5327917957057
 30
0.0
 41
2.705556884412862
 10
106.3709570756091
 20
216.5966168001978
 30
0.0
 41
2.709015562701196
 10
106.3677274476286
 20
216.6601424990586
 30
0.0
 41
2.711971139137326
  0
SPLINE
  5
4F5
330
70
100
AcDbEntity
  8
Visible
100
AcDbSpline
210
0.0
220
0.0
230
1.0
 70
    12
 71
     2
 72
     6
 73
     3
 74
     0
 42
0.000000001
 43
0.0000000001
 40
0.5097123336913745
 40
0.5097123336913745
 40
0.5097123336913745
 40
1.880516684525864
 40
1.880516684525864
 40
1.880516684525864
 10
106.3677274476285
 20
216.6601424990585
 30
0.0
 41
1.955813521183218
 10
108.9010015738786
 20
216.0159904801385
 30
0.0
 41
3.027795916273421
 10
110.0543131920803
 20
216.2719513314478
 30
0.0
 41
2.952574096667915
  0
ARC
  5
4F6
330
70
100
AcDbEntity
  8
Visible
100
AcDbCircle
 10
-109.693702
 20
217.396293
 30
0.0
 40
1.039230461312717
210
0.0
220
0.0
230
-1.0
100
AcDbArc
 50
252.217331
 51
107.782669
  0
SPLINE
  5
4F7
330
70
100
AcDbEntity
  8
Visible
100
AcDbSpline
210
0.0
220
0.0
230
1.0
 70
    12
 71
     2
 72
     6
 73
     3
 74
     0
 42
0.000000001
 43
0.0000000001
 40
3.317067815432736
 40
3.317067815432736
 40
3.317067815432736
 40
4.931035540947722
 40
4.931035540947722
 40
4.931035540947722
 10
112.2880441756278
 20
225.485128424205
 30
0.0
 41
1.0
 10
117.4359114976832
 20
224.4084806966693
 30
0.0
 41
1.0
 10
122.2522984241386
 20
220.0926348944268
 30
0.0
 41
1.0
  0
SPLINE
  5
4F8
330
70
100
AcDbEntity
  8
Visible
100
AcDbSpline
210
0.0
220
0.0
230
1.0
 70
    12
 71
     2
 72
     6
 73
     3
 74
     0
 42
0.000000001
 43
0.0000000001
 40
4.065515423029146
 40
4.065515423029146
 40
4.065515423029146
 40
4.801006126233074
 40
4.801006126233074
 40
4.801006126233074
 10
122.2522984241386
 20
220.0926348944268
 30
0.0
 41
1.434012653310201
 10
124.1650466854989
 20
222.2958101987606
 30
0.0
 41
1.256264850897112
 10
127.776651647504
 20
225.9407016299501
 30
0.0
 41
1.0
  0
ARC
  5
4F9
330
70
100
AcDbEntity
  8
Visible
100
AcDbCircle
 10
-109.693702
 20
217.396293
 30
0.0
 40
20.00000000000001
210
0.0
220
0.0
230
-1.0
100
AcDbArc
 50
252.217331
 51
154.708708
  0
SPLINE
  5
4FA
330
70
100
AcDbEntity
  8
Visible
100
AcDbSpline
210
0.0
220
0.0
230
1.0
 70
     8
 71
     3
 72
    14
 73
    10
 74
     0
 42
0.000000001
 43
0.0000000001
 40
2.357828024248279
 40
2.357828024248279
 40
2.357828024248279
 40
2.357828024248279
 40
2.645931274186898
 40
2.645931274186898
 40
2.934034524125517
 40
2.934034524125517
 40
3.034389924807454
 40
3.034389924807454
 40
3.097336140204965
 40
3.097336140204965
 40
3.097336140204965
 40
3.097336140204965
 10
125.2793285761399
 20
208.3913918696398
 30
0.0
 10
124.9407038347126
 20
207.4927294176869
 30
0.0
 10
124.5650567168122
 20
206.5066216090126
 30
0.0
 10
123.7854366031788
 20
204.5999453908753
 30
0.0
 10
123.3830028250922
 20
203.677803959983
 30
0.0
 10
122.8422041867597
 20
202.6509235483664
 30
0.0
 10
122.6737504739703
 20
202.356990043867
 30
0.0
 10
122.4509046480634
 20
202.0336283454508
 30
0.0
 10
122.3522003408779
 20
201.9117483589052
 30
0.0
 10
122.2797235188627
 20
201.8530607665907
 30
0.0
  0
LINE
  5
4FB
330
70
100
AcDbEntity
  8
Visible
100
AcDbLine
 10
127.346255
 20
213.876724
 30
0.0
 11
125.279329
 21
208.391392
 31
0.0
  0
SPLINE
  5
4FC
330
70
100
AcDbEntity
  8
Visible
100
AcDbSpline
210
0.0
220
0.0
230
1.0
 70
     8
 71
     3
 72
    14
 73
    10
 74
     0
 42
0.000000001
 43
0.0000000001
 40
1.068762037833086
 40
1.068762037833086
 40
1.068762037833086
 40
1.068762037833086
 40
1.131708253230598
 40
1.131708253230598
 40
1.232063653912534
 40
1.232063653912534
 40
1.520166903851154
 40
1.520166903851154
 40
1.808270153789773
 40
1.808270153789773
 40
1.808270153789773
 40
1.808270153789773
 10
129.407322240304
 20
220.7687056086779
 30
0.0
 10
129.4230475267686
 20
220.6767826051
 30
0.0
 10
129.4167765149741
 20
220.5200728549626
 30
0.0
 10
129.3708155820641
 20
220.1300592106199
 30
0.0
 10
129.303408178519
 20
219.7980504752432
 30
0.0
 10
129.0320702576064
 20
218.6696346477838
 30
0.0
 10
128.7258932645872
 20
217.7112227252473
 30
0.0
 10
128.0533953343983
 20
215.7641818278153
 30
0.0
 10
127.684879859431
 20
214.7753867468073
 30
0.0
 10
127.3462551180055
 20
213.8767242948524
 30
0.0
  0
ELLIPSE
  5
4FD
330
70
100
AcDbEntity
  8
Visible
100
AcDbEllipse
 10
109.693702
 20
217.396293
 30
0.0
 11
14.14213562372295
 21
14.14213562372295
 31
0.0
210
0.0
220
0.0
230
-1.0
 40
0.9999999999976942
 41
0.3439818502622016
 42
0.6159680520666138
  0
LINE
  5
4FE
330
70
100
AcDbEntity
  8
Visible
100
AcDbLine
 10
123.265968
 20
207.586115
 30
0.0
 11
122.252298
 21
220.092635
 31
0.0
  0
ELLIPSE
  5
4FF
330
70
100
AcDbEntity
  8
Visible
100
AcDbEllipse
 10
121.056501
 20
203.278485
 30
0.0
 11
1.905271579723002
 21
4.981031155355989
 31
0.0
210
0.0
220
0.0
230
1.0
 40
0.2283764175377605
 41
4.386157056437001
 42
5.837790871992527
  0
ELLIPSE
  5
500
330
70
100
AcDbEntity
  8
Visible
100
AcDbEllipse
 10
109.693702
 20
217.396293
 30
0.0
 11
-14.14213562370808
 21
14.14213562370808
 31
0.0
210
0.0
220
0.0
230
-1.0
 40
0.9999999998902014
 41
3.246337249570021
 42
3.294087946119585
  0
SPLINE
  5
501
330
70
100
AcDbEntity
  8
Visible
100
AcDbSpline
210
0.0
220
0.0
230
1.0
 70
     8
 71
     3
 72
     8
 73
     4
 74
     0
 42
0.000000001
 43
0.0000000001
 40
3.219460806174655
 40
3.219460806174655
 40
3.219460806174655
 40
3.219460806174655
 40
3.306150425736514
 40
3.306150425736514
 40
3.306150425736514
 40
3.306150425736514
 10
121.5234592393826
 20
201.2700147466749
 30
0.0
 10
121.2730104561215
 20
201.0862929743725
 30
0.0
 10
121.019164306952
 20
200.9091061994149
 30
0.0
 10
120.7646186641323
 20
200.739918498406
 30
0.0
  0
ELLIPSE
  5
502
330
70
100
AcDbEntity
  8
Visible
100
AcDbEllipse
 10
109.693702
 20
217.396293
 30
0.0
 11
14.14213562380357
 21
14.14213562380357
 31
0.0
210
0.0
220
0.0
230
-1.0
 40
0.9999999999952022
 41
1.769578605821661
 42
1.944429373003477
  0
ELLIPSE
  5
503
330
70
100
AcDbEntity
  8
Visible
100
AcDbEllipse
 10
79.669985
 20
120.81124
 30
0.0
 11
-1.238629415106688
 21
1.506086708006658
 31
0.0
210
-0.0000000000000001
220
-0.0000000000000001
230
-0.9999999999999998
 40
0.6696953986173568
 41
1.570796326795261
 42
7.853981633974846
  0
ELLIPSE
  5
504
330
70
100
AcDbEntity
  8
Visible
100
AcDbEllipse
 10
79.646754
 20
120.792134
 30
0.0
 11
-1.238629415102215
 21
1.506086708010032
 31
0.0000000000000001
210
-0.0000000000000001
220
0.0
230
-0.9999999999999998
 40
0.6696953986177339
 41
0.0115166374131293
 42
3.130076016168406
  0
ELLIPSE
  5
505
330
70
100
AcDbEntity
  8
Visible
100
AcDbEllipse
 10
80.281596
 20
121.633577
 30
0.0
 11
-0.1270389143693874
 21
0.1544704315920391
 31
0.0
210
0.0000000000000002
220
0.0
230
0.9999999999999998
 40
0.6696953986092745
 41
3.824994142261415
 42
5.919389244643486
  0
LINE
  5
506
330
70
100
AcDbEntity
  8
Visible
100
AcDbLine
 10
80.445427
 20
121.024704
 30
0.0
 11
80.445427
 21
121.567517
 31
0.0
210
-0.7071067811866527
220
0.4071957137922734
230
0.578093115915639
  0
ELLIPSE
  5
507
330
70
100
AcDbEntity
  8
Visible
100
AcDbEllipse
 10
80.609257
 20
120.958644
 30
0.0
 11
-0.1270389143730076
 21
0.1544704315797319
 31
0.0
210
0.0
220
-0.0000000000000001
230
-1.0
 40
0.6696953986338508
 41
4.552586267351075
 42
5.599783818587748
  0
LINE
  5
508
330
70
100
AcDbEntity
  8
Visible
100
AcDbLine
 10
80.998354
 20
120.388742
 30
0.0
 11
80.527342
 21
120.850071
 31
0.0
210
-0.7071067811866527
220
0.4071957137922734
230
0.578093115915639
  0
ELLIPSE
  5
509
330
70
100
AcDbEntity
  8
Visible
100
AcDbEllipse
 10
80.916439
 20
120.280168
 30
0.0
 11
-0.127038914370168
 21
0.1544704315921292
 31
0.0
210
0.0000000000000001
220
0.0000000000000001
230
1.0
 40
0.6696953986026776
 41
2.777796591052556
 42
4.872191693445753
  0
LINE
  5
50A
330
70
100
AcDbEntity
  8
Visible
100
AcDbLine
 10
80.527342
 20
120.024052
 30
0.0
 11
80.998354
 21
120.105535
 31
0.0
210
-0.7071067811866527
220
0.4071957137922734
230
0.578093115915639
  0
ELLIPSE
  5
50B
330
70
100
AcDbEntity
  8
Visible
100
AcDbEllipse
 10
80.609257
 20
119.849418
 30
0.0
 11
-0.1270389143676676
 21
0.1544704315919069
 31
0.0
210
0.0
220
0.0000000000000002
230
-1.0
 40
0.6696953986235204
 41
-0.6834014886712364
 42
0.3637960625130641
  0
LINE
  5
50C
330
70
100
AcDbEntity
  8
Visible
100
AcDbLine
 10
80.445427
 20
119.372666
 30
0.0
 11
80.445427
 21
119.915478
 31
0.0
210
-0.7071067811866527
220
0.4071957137922734
230
0.578093115915639
  0
ELLIPSE
  5
50D
330
70
100
AcDbEntity
  8
Visible
100
AcDbEllipse
 10
80.281596
 20
119.438726
 30
0.0
 11
-0.1270389143680333
 21
0.1544704315932704
 31
0.0
210
0.0000000000000002
220
0.0
230
1.0
 40
0.6696953986147012
 41
1.730599039863775
 42
3.824994142268095
  0
LINE
  5
50E
330
70
100
AcDbEntity
  8
Visible
100
AcDbLine
 10
79.728669
 20
119.791482
 30
0.0
 11
80.199681
 21
119.330152
 31
0.0
210
-0.7071067811866527
220
0.4071957137922734
230
0.578093115915639
  0
ELLIPSE
  5
50F
330
70
100
AcDbEntity
  8
Visible
100
AcDbEllipse
 10
79.646754
 20
119.682909
 30
0.0
 11
-0.1270389143696287
 21
0.1544704315912102
 31
0.0
210
-0.0000000000000002
220
-0.0000000000000001
230
-1.0
 40
0.6696953986145738
 41
0.363796062537028
 42
1.410993613731134
  0
LINE
  5
510
330
70
100
AcDbEntity
  8
Visible
100
AcDbLine
 10
79.093826
 20
119.776058
 30
0.0
 11
79.564838
 21
119.857542
 31
0.0
210
-0.7071067811866527
220
0.4071957137922734
230
0.578093115915639
  0
ELLIPSE
  5
511
330
70
100
AcDbEntity
  8
Visible
100
AcDbEllipse
 10
79.011911
 20
119.950692
 30
0.0
 11
-0.1270389143694716
 21
0.1544704315916231
 31
0.0
210
0.0000000000000001
220
0.0
230
1.0
 40
0.6696953986104087
 41
0.6834014886688769
 42
2.777796591059289
  0
LINE
  5
512
330
70
100
AcDbEntity
  8
Visible
100
AcDbLine
 10
78.84808
 20
120.559565
 30
0.0
 11
78.84808
 21
120.016752
 31
0.0
210
-0.7071067811866527
220
0.4071957137922734
230
0.578093115915639
  0
ELLIPSE
  5
513
330
70
100
AcDbEntity
  8
Visible
100
AcDbEllipse
 10
78.68425
 20
120.625625
 30
0.0
 11
-0.1270389143720473
 21
0.154470431580378
 31
0.0
210
0.0
220
-0.0000000000000001
230
-0.9999999999999998
 40
0.6696953986386848
 41
1.410993613751998
 42
2.458191164994778
  0
LINE
  5
514
330
70
100
AcDbEntity
  8
Visible
100
AcDbLine
 10
78.295153
 20
121.195527
 30
0.0
 11
78.766165
 21
120.734198
 31
0.0
210
-0.7071067811866527
220
0.4071957137922734
230
0.578093115915639
  0
ELLIPSE
  5
515
330
70
100
AcDbEntity
  8
Visible
100
AcDbEllipse
 10
78.377068
 20
121.304101
 30
0.0
 11
-0.1270389143690559
 21
0.1544704315923042
 31
0.0
210
0.0000000000000001
220
0.0000000000000001
230
1.0
 40
0.6696953986107605
 41
-0.3637960625264847
 42
1.7305990398603
  0
LINE
  5
516
330
70
100
AcDbEntity
  8
Visible
100
AcDbLine
 10
78.766165
 20
121.560217
 30
0.0
 11
78.295153
 21
121.478734
 31
0.0
210
-0.7071067811866527
220
0.4071957137922734
230
0.578093115915639
  0
ELLIPSE
  5
517
330
70
100
AcDbEntity
  8
Visible
100
AcDbEllipse
 10
78.68425
 20
121.734851
 30
0.0
 11
-0.127038914370084
 21
0.1544704315908631
 31
0.0
210
-0.0000000000000001
220
-0.0000000000000001
230
-0.9999999999999998
 40
0.66969539861816
 41
2.458191164929907
 42
3.505388716129012
  0
LINE
  5
518
330
70
100
AcDbEntity
  8
Visible
100
AcDbLine
 10
78.84808
 20
122.211603
 30
0.0
 11
78.84808
 21
121.668791
 31
0.0
210
-0.7071067811866527
220
0.4071957137922734
230
0.578093115915639
  0
ELLIPSE
  5
519
330
70
100
AcDbEntity
  8
Visible
100
AcDbEllipse
 10
79.011911
 20
122.145543
 30
0.0
 11
-0.1270389143689602
 21
0.154470431592722
 31
0.0
210
-0.0000000000000002
220
-0.0000000000000001
230
1.0
 40
0.6696953986097101
 41
-1.410993613728567
 42
0.683401488678534
  0
LINE
  5
51A
330
70
100
AcDbEntity
  8
Visible
100
AcDbLine
 10
79.564838
 20
121.792787
 30
0.0
 11
79.093826
 21
122.254116
 31
0.0
210
-0.7071067811866527
220
0.4071957137922734
230
0.578093115915639
  0
ELLIPSE
  5
51B
330
70
100
AcDbEntity
  8
Visible
100
AcDbEllipse
 10
79.646754
 20
121.90136
 30
0.0
 11
-0.1270389143723857
 21
0.1544704315898858
 31
0.0
210
-0.0000000000000003
220
-0.0000000000000003
230
-1.0
 40
0.6696953986084954
 41
3.50538871614315
 42
4.552586267330314
  0
LINE
  5
51C
330
70
100
AcDbEntity
  8
Visible
100
AcDbLine
 10
80.199681
 20
121.808211
 30
0.0
 11
79.728669
 21
121.726727
 31
0.0
210
-0.7071067811866527
220
0.4071957137922734
230
0.578093115915639
  0
LINE
  5
51D
330
70
100
AcDbEntity
  8
Visible Narrow
100
AcDbLine
 10
80.445427
 20
119.372666
 30
0.0
 11
80.314785
 21
119.265224
 31
0.0
210
-0.7071067811866527
220
0.4071957137922734
230
0.578093115915639
  0
LINE
  5
51E
330
70
100
AcDbEntity
  8
Visible Narrow
100
AcDbLine
 10
80.445427
 20
119.915478
 30
0.0
 11
79.987
 21
119.538461
 31
0.0
210
-0.7071067811866527
220
0.4071957137922734
230
0.578093115915639
  0
LINE
  5
51F
330
70
100
AcDbEntity
  8
Visible Narrow
100
AcDbLine
 10
80.998354
 20
120.388742
 30
0.0
 11
80.562262
 21
120.030093
 31
0.0
210
-0.7071067811866527
220
0.4071957137922734
230
0.578093115915639
  0
LINE
  5
520
330
70
100
AcDbEntity
  8
Visible Narrow
100
AcDbLine
 10
80.527342
 20
120.850071
 30
0.0
 11
79.255407
 21
119.804011
 31
0.0
210
-0.7071067811866527
220
0.4071957137922734
230
0.578093115915639
  0
LINE
  5
521
330
70
100
AcDbEntity
  8
Visible Narrow
100
AcDbLine
 10
80.445427
 20
121.024704
 30
0.0
 11
79.126201
 21
119.939752
 31
0.0
210
-0.7071067811866527
220
0.4071957137922734
230
0.578093115915639
  0
ELLIPSE
  5
522
330
70
100
AcDbEntity
  8
Visible
100
AcDbEllipse
 10
79.290031
 20
119.873692
 30
0.0
 11
-0.127038914369771
 21
0.1544704315897534
 31
0.0
210
0.0000000000000001
220
0.0000000000000001
230
1.0
 40
0.6696953986161343
 41
0.6834014886564264
 42
1.55108734366069
  0
LINE
  5
523
330
70
100
AcDbEntity
  8
Visible Narrow
100
AcDbLine
 10
80.445427
 20
121.567517
 30
0.0
 11
79.126201
 21
120.482565
 31
0.0
210
-0.7071067811866527
220
0.4071957137922734
230
0.578093115915639
  0
LINE
  5
524
330
70
100
AcDbEntity
  8
Visible
100
AcDbLine
 10
79.126201
 20
120.482565
 30
0.0
 11
79.126201
 21
119.939752
 31
0.0
210
-0.7071067811866527
220
0.4071957137922734
230
0.578093115915639
  0
LINE
  5
525
330
70
100
AcDbEntity
  8
Visible Narrow
100
AcDbLine
 10
80.199681
 20
121.808211
 30
0.0
 11
78.880455
 21
120.723258
 31
0.0
210
-0.7071067811866527
220
0.4071957137922734
230
0.578093115915639
  0
ELLIPSE
  5
526
330
70
100
AcDbEntity
  8
Visible
100
AcDbEllipse
 10
78.962371
 20
120.548625
 30
0.0
 11
-0.1270389143698147
 21
0.1544704315913561
 31
0.0
210
-0.0000000000000003
220
-0.0000000000000004
230
-1.0
 40
0.6696953986088391
 41
0.3637960625402294
 42
2.45819116492508
  0
LINE
  5
527
330
70
100
AcDbEntity
  8
Visible Narrow
100
AcDbLine
 10
78.295153
 20
121.478734
 30
0.0
 11
78.221534
 21
121.418189
 31
0.0
210
-0.7071067811866527
220
0.4071957137922734
230
0.578093115915639
  0
LINE
  5
528
330
70
100
AcDbEntity
  8
Visible Narrow
100
AcDbLine
 10
78.766165
 20
121.560217
 30
0.0
 11
78.307739
 21
121.1832
 31
0.0
210
-0.7071067811866527
220
0.4071957137922734
230
0.578093115915639
  0
LINE
  5
529
330
70
100
AcDbEntity
  8
Visible Narrow
100
AcDbLine
 10
79.093826
 20
122.254116
 30
0.0
 11
78.84808
 21
122.052011
 31
0.0
210
-0.7071067811866527
220
0.4071957137922734
230
0.578093115915639
  0
LINE
  5
52A
330
70
100
AcDbEntity
  8
Visible Narrow
100
AcDbLine
 10
79.564838
 20
121.792787
 30
0.0
 11
78.543202
 21
120.952577
 31
0.0
210
-0.7071067811866527
220
0.4071957137922734
230
0.578093115915639
  0
LINE
  5
52B
330
70
100
AcDbEntity
  8
Visible Narrow
100
AcDbLine
 10
79.728669
 20
121.726727
 30
0.0
 11
78.654641
 21
120.84343
 31
0.0
210
-0.7071067811866527
220
0.4071957137922734
230
0.578093115915639
  0
LINE
  5
52C
330
70
100
AcDbEntity
  8
Visible
100
AcDbLine
 10
78.790182
 20
120.707641
 30
0.0
 11
78.880455
 21
120.723258
 31
0.0
210
-0.7071067811866527
220
0.4071957137922734
230
0.578093115915639
  0
ELLIPSE
  5
52D
330
70
100
AcDbEntity
  8
Visible
100
AcDbEllipse
 10
78.988369
 20
120.250669
 30
0.0
 11
-2.223181001463266
 21
2.703232552839037
 31
0.0000000000000002
210
0.0000000000000001
220
0.0
230
1.0
 40
0.6696953986189537
 41
0.0000000000037406
 42
0.7309098386722451
  0
ELLIPSE
  5
52E
330
70
100
AcDbEntity
  8
Visible
100
AcDbEllipse
 10
78.988369
 20
120.250669
 30
0.0
 11
-2.223181001473925
 21
2.703232552832516
 31
-0.0000000000000002
210
0.0000000000000001
220
0.0000000000000002
230
1.0
 40
0.6696953986168309
 41
2.410682814919377
 42
3.141592653589151
  0
ELLIPSE
  5
52F
330
70
100
AcDbEntity
  8
Visible
100
AcDbEllipse
 10
79.4622
 20
120.640355
 30
0.0
 11
-2.22318100146774
 21
2.703232552835814
 31
0.0000000000000002
210
0.0000000000000002
220
0.0000000000000001
230
1.0
 40
0.6696953986170957
 41
0.0000000000012699
 42
6.283185307180856
  0
LINE
  5
530
330
70
100
AcDbEntity
  8
Visible
100
AcDbLine
 10
80.482218
 20
120.003889
 30
0.0
 11
79.954727
 21
119.570071
 31
0.0
210
-0.7071067811866527
220
0.4071957137922734
230
0.578093115915639
  0
LINE
  5
531
330
70
100
AcDbEntity
  8
Visible
100
AcDbLine
 10
78.811289
 20
121.58038
 30
0.0
 11
78.317144
 21
121.173988
 31
0.0
210
-0.7071067811866527
220
0.4071957137922734
230
0.578093115915639
  0
LINE
  5
532
330
70
100
AcDbEntity
  8
Visible
100
AcDbLine
 10
76.115768
 20
121.324296
 30
0.0
 11
76.123561
 21
121.518504
 31
0.0
210
-0.7071067811866527
220
0.4071957137922734
230
0.578093115915639
  0
LINE
  5
533
330
70
100
AcDbEntity
  8
Visible
100
AcDbLine
 10
79.487227
 20
117.224838
 30
0.0
 11
79.679286
 21
117.194991
 31
0.0
210
-0.7071067811866527
220
0.4071957137922734
230
0.578093115915639
  0
LINE
  5
534
330
70
100
AcDbEntity
  8
Visible
100
AcDbLine
 10
76.765188
 20
122.953901
 30
0.0
 11
77.239019
 21
123.343587
 31
0.0
210
-0.7071067811866527
220
0.4071957137922734
230
0.578093115915639
  0
LINE
  5
535
330
70
100
AcDbEntity
  8
Visible
100
AcDbLine
 10
81.21155
 20
117.547436
 30
0.0
 11
81.685381
 21
117.937122
 31
0.0
210
-0.7071067811866527
220
0.4071957137922734
230
0.578093115915639
  0
ELLIPSE
  5
536
330
70
100
AcDbEntity
  8
Visible
100
AcDbEllipse
 10
95.257088
 20
108.413516
 30
0.0
 11
-0.1144454526373567
 21
0.0058245175163522
 31
0.0
210
-0.0000000000000002
220
-0.0000000000000021
230
1.0
 40
0.0820255542129785
 41
2.423309941170672
 42
3.015486341272307
  0
LINE
  5
537
330
70
100
AcDbEntity
  8
Visible
100
AcDbLine
 10
94.897757
 20
108.383922
 30
0.0
 11
95.342944
 21
108.402953
 31
0.0
210
-0.7071067811866527
220
0.4071957137922734
230
0.578093115915639
  0
LINE
  5
538
330
70
100
AcDbEntity
  8
Visible
100
AcDbLine
 10
67.727373
 20
121.5612
 30
0.0
 11
61.252799
 21
128.432726
 31
0.0
210
-0.7071067811866527
220
0.4071957137922734
230
0.578093115915639
  0
LINE
  5
539
330
70
100
AcDbEntity
  8
Visible
100
AcDbLine
 10
60.471642
 20
130.198526
 30
0.0
 11
67.727373
 21
121.5612
 31
0.0
210
-0.7071067811866527
220
0.4071957137922734
230
0.578093115915639
  0
ELLIPSE
  5
53A
330
70
100
AcDbEntity
  8
Visible
100
AcDbEllipse
 10
60.429995
 20
130.184751
 30
0.0
 11
-0.0579852376322003
 21
0.0506938982259154
 31
0.0
210
-0.0000000000000006
220
-0.0000000000000007
230
-1.0
 40
0.5124717386069515
 41
0.5303898551827673
 42
1.864370030764236
  0
LINE
  5
53B
330
70
100
AcDbEntity
  8
Visible
100
AcDbLine
 10
60.393119
 20
130.243512
 30
0.0
 11
61.252799
 21
128.432726
 31
0.0
210
-0.7071067811866527
220
0.4071957137922734
230
0.578093115915639
  0
ELLIPSE
  5
53C
330
70
100
AcDbEntity
  8
Visible
100
AcDbEllipse
 10
60.431281
 20
130.20583
 30
0.0
 11
0.0529456206818002
 21
0.1256470955237326
 31
0.0
210
-0.0000000000000001
220
0.0000000000000003
230
0.9999999999999998
 40
0.3692005114270636
 41
0.8411781701102579
 42
1.424279396505992
  0
LINE
  5
53D
330
70
100
AcDbEntity
  8
Visible
100
AcDbLine
 10
75.309048
 20
130.258827
 30
0.0
 11
96.912571
 21
109.8897
 31
0.0
210
-0.7071067811866527
220
0.4071957137922734
230
0.578093115915639
  0
LINE
  5
53E
330
70
100
AcDbEntity
  8
Visible Narrow
100
AcDbLine
 10
96.778915
 20
109.270608
 30
0.0
 11
95.342944
 21
108.402953
 31
0.0
210
-0.7071067811866527
220
0.4071957137922734
230
0.578093115915639
  0
LINE
  5
53F
330
70
100
AcDbEntity
  8
Visible
100
AcDbLine
 10
96.778915
 20
109.270608
 30
0.0
 11
96.118601
 21
109.300034
 31
0.0
210
-0.7071067811866527
220
0.4071957137922734
230
0.578093115915639
  0
ELLIPSE
  5
540
330
70
100
AcDbEntity
  8
Visible
100
AcDbEllipse
 10
96.242426
 20
109.392221
 30
0.0
 11
0.3278686978453754
 21
0.0240992295655422
 31
-0.0000000000000001
210
-0.0000000000000001
220
-0.000000000000001
230
-0.9999999999999998
 40
0.2745130022801116
 41
1.978165713988047
 42
3.548962040801576
  0
LINE
  5
541
330
70
100
AcDbEntity
  8
Visible
100
AcDbLine
 10
95.938767
 20
109.405753
 30
0.0
 11
95.943954
 21
109.409614
 31
0.0
210
-0.7071067811866527
220
0.4071957137922734
230
0.578093115915639
  0
LINE
  5
542
330
70
100
AcDbEntity
  8
Visible
100
AcDbLine
 10
85.1738
 20
110.547953
 30
0.0
 11
95.943954
 21
109.409614
 31
0.0
210
-0.7071067811866527
220
0.4071957137922734
230
0.578093115915639
  0
LINE
  5
543
330
70
100
AcDbEntity
  8
Visible
100
AcDbLine
 10
85.1738
 20
110.547953
 30
0.0
 11
85.164575
 21
110.544518
 31
0.0
210
-0.7071067811866527
220
0.4071957137922734
230
0.578093115915639
  0
ELLIPSE
  5
544
330
70
100
AcDbEntity
  8
Visible
100
AcDbEllipse
 10
84.92158
 20
110.588764
 30
0.0
 11
0.3278686978467515
 21
0.0240992295644849
 31
0.0
210
0.0
220
-0.0000000000000005
230
-1.0
 40
0.2745130022816327
 41
0.7564352376045403
 42
2.327231564383486
  0
LINE
  5
545
330
70
100
AcDbEntity
  8
Visible
100
AcDbLine
 10
84.701364
 20
110.506765
 30
0.0
 11
83.626627
 21
110.702459
 31
0.0
210
-0.7071067811866527
220
0.4071957137922734
230
0.578093115915639
  0
LINE
  5
546
330
70
100
AcDbEntity
  8
Visible Narrow
100
AcDbLine
 10
83.626627
 20
110.702459
 30
0.0
 11
81.677163
 21
109.524537
 31
0.0
210
-0.7071067811866527
220
0.4071957137922734
230
0.578093115915639
  0
LINE
  5
547
330
70
100
AcDbEntity
  8
Visible
100
AcDbLine
 10
81.677163
 20
109.524537
 30
0.0
 11
80.978533
 21
109.067194
 31
0.0
210
-0.7071067811866527
220
0.4071957137922734
230
0.578093115915639
  0
LINE
  5
548
330
70
100
AcDbEntity
  8
Visible
100
AcDbLine
 10
80.978533
 20
109.067194
 30
0.0
 11
81.678699
 21
108.993191
 31
0.0
210
-0.7071067811866527
220
0.4071957137922734
230
0.578093115915639
  0
LINE
  5
549
330
70
100
AcDbEntity
  8
Visible
100
AcDbLine
 10
67.727373
 20
121.5612
 30
0.0
 11
80.978533
 21
109.067194
 31
0.0
210
-0.7071067811866527
220
0.4071957137922734
230
0.578093115915639
  0
LINE
  5
54A
330
70
100
AcDbEntity
  8
Visible Narrow
100
AcDbLine
 10
83.38982
 20
110.836402
 30
0.0
 11
81.677163
 21
109.524537
 31
0.0
210
-0.7071067811866527
220
0.4071957137922734
230
0.578093115915639
  0
LINE
  5
54B
330
70
100
AcDbEntity
  8
Visible
100
AcDbLine
 10
83.38982
 20
110.836402
 30
0.0
 11
61.786297
 21
131.205528
 31
0.0
210
-0.7071067811866527
220
0.4071957137922734
230
0.578093115915639
  0
LINE
  5
54C
330
70
100
AcDbEntity
  8
Visible Narrow
100
AcDbLine
 10
61.786297
 20
131.205528
 30
0.0
 11
60.471642
 21
130.198526
 31
0.0
210
-0.7071067811866527
220
0.4071957137922734
230
0.578093115915639
  0
LINE
  5
54D
330
70
100
AcDbEntity
  8
Visible
100
AcDbLine
 10
61.783919
 20
131.712744
 30
0.0
 11
62.335942
 21
131.594257
 31
0.0
210
-0.7071067811866527
220
0.4071957137922734
230
0.578093115915639
  0
ELLIPSE
  5
54E
330
70
100
AcDbEntity
  8
Visible
100
AcDbEllipse
 10
62.494547
 20
131.734346
 30
0.0
 11
0.2987930480586897
 21
0.0368287245856522
 31
0.0
210
0.0
220
0.0000000000000005
230
1.0
 40
0.4877332005722234
 41
4.093904400844626
 42
5.664700727612481
  0
LINE
  5
54F
330
70
100
AcDbEntity
  8
Visible
100
AcDbLine
 10
62.748406
 20
131.679858
 30
0.0
 11
62.75505
 21
131.685726
 31
0.0
210
-0.7071067811866527
220
0.4071957137922734
230
0.578093115915639
  0
LINE
  5
550
330
70
100
AcDbEntity
  8
Visible
100
AcDbLine
 10
73.525204
 20
130.547387
 30
0.0
 11
62.75505
 21
131.685726
 31
0.0
210
-0.7071067811866527
220
0.4071957137922734
230
0.578093115915639
  0
ELLIPSE
  5
551
330
70
100
AcDbEntity
  8
Visible
100
AcDbEllipse
 10
73.815393
 20
130.537803
 30
0.0
 11
0.298793047965344
 21
0.0368287246199668
 31
0.0
210
-0.0000000000000001
220
0.0000000000000002
230
1.0
 40
0.4877332006908102
 41
4.220270578649921
 42
4.442970251091994
  0
LINE
  5
552
330
70
100
AcDbEntity
  8
Visible
100
AcDbLine
 10
73.753178
 20
130.387526
 30
0.0
 11
75.048175
 21
130.372978
 31
0.0
210
-0.7071067811866527
220
0.4071957137922734
230
0.578093115915639
  0
LINE
  5
553
330
70
100
AcDbEntity
  8
Visible Narrow
100
AcDbLine
 10
62.335942
 20
131.594257
 30
0.0
 11
84.701364
 21
110.506765
 31
0.0
210
-0.7071067811866527
220
0.4071957137922734
230
0.578093115915639
  0
ELLIPSE
  5
554
330
70
100
AcDbEntity
  8
Visible
100
AcDbEllipse
 10
61.899236
 20
131.393013
 30
0.0
 11
-0.2590075035693677
 21
0.2936904065111292
 31
0.0
210
0.0
220
0.0
230
-0.9999999999999996
 40
0.5407125190767549
 41
4.543260471729984
 42
6.914649168943009
  0
ELLIPSE
  5
555
330
70
100
AcDbEntity
  8
Visible
100
AcDbEllipse
 10
83.502759
 20
111.023887
 30
0.0
 11
-0.2590075035803473
 21
0.2936904065153182
 31
0.0
210
0.0
220
0.0000000000000001
230
-0.9999999999999998
 40
0.5407125190636558
 41
3.742433680153581
 42
4.543260471742065
  0
LINE
  5
556
330
70
100
AcDbEntity
  8
Visible
100
AcDbLine
 10
62.75505
 20
131.685726
 30
0.0
 11
85.1738
 21
110.547953
 31
0.0
210
-0.7071067811866527
220
0.4071957137922734
230
0.578093115915639
  0
LINE
  5
557
330
70
100
AcDbEntity
  8
Visible Narrow
100
AcDbLine
 10
62.748406
 20
131.679858
 30
0.0
 11
85.164575
 21
110.544518
 31
0.0
210
-0.7071067811866527
220
0.4071957137922734
230
0.578093115915639
  0
LINE
  5
558
330
70
100
AcDbEntity
  8
Visible Narrow
100
AcDbLine
 10
73.753178
 20
130.387526
 30
0.0
 11
96.118601
 21
109.300034
 31
0.0
210
-0.7071067811866527
220
0.4071957137922734
230
0.578093115915639
  0
ELLIPSE
  5
559
330
70
100
AcDbEntity
  8
Visible
100
AcDbEllipse
 10
96.72044
 20
109.637086
 30
0.0
 11
-0.2279131326745904
 21
0.3186202715278088
 31
0.0
210
0.0
220
0.0
230
-1.0
 40
0.7971982101576009
 41
1.329319469046448
 42
3.700708166261156
  0
ELLIPSE
  5
55A
330
70
100
AcDbEntity
  8
Visible
100
AcDbEllipse
 10
75.116917
 20
130.006212
 30
0.0
 11
-0.2279131326659629
 21
0.3186202715281871
 31
0.0
210
0.0000000000000003
220
0.0000000000000002
230
-1.0
 40
0.7971982101661125
 41
0.5284926774091008
 42
1.329319469028758
  0
LINE
  5
55B
330
70
100
AcDbEntity
  8
Visible
100
AcDbLine
 10
95.943954
 20
109.409614
 30
0.0
 11
73.525204
 21
130.547387
 31
0.0
210
-0.7071067811866527
220
0.4071957137922734
230
0.578093115915639
  0
ELLIPSE
  5
55C
330
70
100
AcDbEntity
  8
Visible
100
AcDbEllipse
 10
78.91932
 20
120.193881
 30
0.0
 11
-2.540778287404861
 21
3.089408631803827
 31
-0.0000000000000002
210
0.0000000000000001
220
0.0
230
-1.0
 40
0.6696953986184049
 41
0.1041490508485297
 42
0.6160402215259469
  0
ELLIPSE
  5
55D
330
70
100
AcDbEntity
  8
Visible
100
AcDbEllipse
 10
78.91932
 20
120.193881
 30
0.0
 11
-2.540778287393138
 21
3.089408631814518
 31
0.0000000000000007
210
-0.0000000000000001
220
0.0000000000000001
230
-1.0
 40
0.6696953986173066
 41
2.525552432064973
 42
3.037443602742856
  0
ELLIPSE
  5
55E
330
70
100
AcDbEntity
  8
Visible
100
AcDbEllipse
 10
79.349502
 20
120.54767
 30
0.0
 11
-2.540778287392909
 21
3.089408631811149
 31
0.0
210
0.0000000000000002
220
0.0000000000000001
230
-1.0
 40
0.669695398617226
 41
1.570796326794445
 42
7.853981633974031
  0
LINE
  5
55F
330
70
100
AcDbEntity
  8
Visible
100
AcDbLine
 10
60.431994
 20
130.304156
 30
0.0
 11
61.629646
 21
131.676064
 31
0.0
210
-0.7071067811866527
220
0.4071957137922734
230
0.578093115915639
  0
LINE
  5
560
330
70
100
AcDbEntity
  8
Visible
100
AcDbLine
 10
95.370565
 20
108.406557
 30
0.0
 11
96.927914
 21
109.305303
 31
0.0
210
-0.7071067811866527
220
0.4071957137922734
230
0.578093115915639
  0
SPLINE
  5
561
330
70
100
AcDbEntity
  8
Visible
100
AcDbSpline
210
0.00000000052884
220
-0.000000000245691
230
1.0
 70
     8
 71
     3
 72
     8
 73
     4
 74
     0
 42
0.000000001
 43
0.0000000001
 40
3.193395322347749
 40
3.193395322347749
 40
3.193395322347749
 40
3.193395322347749
 40
3.264960293261515
 40
3.264960293261515
 40
3.264960293261515
 40
3.264960293261515
 10
76.12483178222373
 20
121.5465514770403
 30
-0.000000000001819
 10
76.11456693016589
 20
121.5291461149854
 30
0.0
 10
76.1042939621393
 20
121.5097482114338
 30
0.0
 10
76.09419435474683
 20
121.4880092132571
 30
0.0
  0
SPLINE
  5
562
330
70
100
AcDbEntity
  8
Visible
100
AcDbSpline
210
0.0
220
0.0
230
1.0
 70
     8
 71
     3
 72
     8
 73
     4
 74
     0
 42
0.000000001
 43
0.0000000001
 40
5.784361705320417
 40
5.784361705320417
 40
5.784361705320417
 40
5.784361705320417
 40
5.855926676234224
 40
5.855926676234224
 40
5.855926676234224
 40
5.855926676234224
 10
79.64369552962125
 20
117.1720641256142
 30
0.0
 10
79.66697535623461
 20
117.1777768993715
 30
0.0
 10
79.6879915976333
 20
117.1841117341578
 30
0.0
 10
79.70705121479841
 20
117.1908232771716
 30
0.0
  0
ELLIPSE
  5
563
330
70
100
AcDbEntity
  8
Visible Narrow
100
AcDbEllipse
 10
152.17547
 20
81.00666
 30
0.0
 11
7.984515385343499
 21
13.86533497832624
 31
-0.0000000000000016
210
-0.0000000000000002
220
0.0
230
-1.0
 40
0.578093115915727
 41
0.0000000000003917
 42
3.141592653590184
  0
ELLIPSE
  5
564
330
70
100
AcDbEntity
  8
Visible
100
AcDbEllipse
 10
75.880811
 20
127.184668
 30
0.0
 11
-1.905583715548873
 21
2.317056473858148
 31
0.0000000000000002
210
0.0
220
0.0
230
-1.0
 40
0.6696953986169855
 41
0.9536550733220096
 42
1.812481618080485
  0
ELLIPSE
  5
565
330
70
100
AcDbEntity
  8
Visible
100
AcDbEllipse
 10
96.45185
 20
109.657197
 30
0.0
 11
-1.905583715541313
 21
2.317056473859917
 31
0.0000000000000002
210
0.0
220
0.0000000000000001
230
-1.0
 40
0.6696953986179956
 41
1.610656752826703
 42
5.147103623605467
  0
ELLIPSE
  5
566
330
70
100
AcDbEntity
  8
Visible
100
AcDbEllipse
 10
96.45185
 20
109.657197
 30
0.0
 11
-1.905583715542841
 21
2.317056473860415
 31
0.0000000000000002
210
0.0
220
0.0
230
-0.9999999999999998
 40
0.6696953986172899
 41
0.053799291854943
 42
1.229189866332517
  0
ELLIPSE
  5
567
330
70
100
AcDbEntity
  8
Visible
100
AcDbEllipse
 10
93.583967
 20
107.298606
 30
0.0
 11
-1.905583715561725
 21
2.317056473920078
 31
0.0000000000000003
210
-0.0000000000000001
220
0.0000000000000001
230
-1.0
 40
0.6696953986042815
 41
1.644810105578963
 42
1.962927774410191
  0
LINE
  5
568
330
70
100
AcDbEntity
  8
Visible
100
AcDbLine
 10
98.078276
 20
110.84001
 30
0.0
 11
97.275537
 21
111.635835
 31
0.0
210
-0.7071067811866527
220
0.4071957137922734
230
0.578093115915639
  0
LINE
  5
569
330
70
100
AcDbEntity
  8
Visible
100
AcDbLine
 10
94.241913
 20
109.475564
 30
0.0
 11
85.778956
 21
110.375135
 31
0.0
210
-0.7071067811866527
220
0.4071957137922734
230
0.578093115915639
  0
LINE
  5
56A
330
70
100
AcDbEntity
  8
Visible
100
AcDbLine
 10
90.47981
 20
105.939525
 30
0.0
 11
85.778956
 21
110.375135
 31
0.0
210
-0.7071067811866527
220
0.4071957137922734
230
0.578093115915639
  0
ELLIPSE
  5
56B
330
70
100
AcDbEntity
  8
Visible
100
AcDbEllipse
 10
61.665802
 20
133.127712
 30
0.0
 11
-94.16843134361664
 21
38.97404306641337
 31
0.0
210
-0.0000000000000001
220
-0.0000000000000001
230
-0.9999999999999996
 40
0.1485219914275419
 41
4.239231438635426
 42
4.340630430600683
  0
LINE
  5
56C
330
70
100
AcDbEntity
  8
Visible
100
AcDbLine
 10
100.232853
 20
103.95923
 30
0.0
 11
99.425737
 21
102.917786
 31
0.0
210
-0.7071067811866527
220
0.4071957137922734
230
0.578093115915639
  0
ELLIPSE
  5
56D
330
70
100
AcDbEntity
  8
Visible
100
AcDbEllipse
 10
96.704249
 20
107.457441
 30
0.0
 11
-3.175972859242967
 21
3.861760789762521
 31
-0.0000000000000006
210
0.0
220
0.0000000000000001
230
0.9999999999999998
 40
0.6696953986172824
 41
3.29246567080427
 42
4.863261997599058
  0
LINE
  5
56E
330
70
100
AcDbEntity
  8
Visible
100
AcDbLine
 10
98.783721
 20
110.140642
 30
0.0
 11
98.078276
 21
110.84001
 31
0.0
210
-0.7071067811866527
220
0.4071957137922734
230
0.578093115915639
  0
LINE
  5
56F
330
70
100
AcDbEntity
  8
Visible
100
AcDbLine
 10
97.275537
 20
111.635835
 30
0.0
 11
73.904115
 21
134.80595
 31
0.0
210
-0.7071067811866527
220
0.4071957137922734
230
0.578093115915639
  0
LINE
  5
570
330
70
100
AcDbEntity
  8
Visible
100
AcDbLine
 10
63.163021
 20
133.333025
 30
0.0
 11
73.904115
 21
134.80595
 31
0.0
210
-0.7071067811866527
220
0.4071957137922734
230
0.578093115915639
  0
LINE
  5
571
330
70
100
AcDbEntity
  8
Visible
100
AcDbLine
 10
63.163021
 20
133.333025
 30
0.0
 11
63.163021
 21
131.714972
 31
0.0
210
-0.7071067811866527
220
0.4071957137922734
230
0.578093115915639
  0
LINE
  5
572
330
70
100
AcDbEntity
  8
Visible
100
AcDbLine
 10
63.24939
 20
131.633477
 30
0.0
 11
63.163021
 21
131.714972
 31
0.0
210
-0.7071067811866527
220
0.4071957137922734
230
0.578093115915639
  0
LINE
  5
573
330
70
100
AcDbEntity
  8
Visible
100
AcDbLine
 10
73.650217
 20
130.429517
 30
0.0
 11
74.079778
 21
130.383857
 31
0.0
210
-0.7071067811866527
220
0.4071957137922734
230
0.578093115915639
  0
SPLINE
  5
574
330
70
100
AcDbEntity
  8
Visible
100
AcDbSpline
210
-0.0000000000025922
220
-0.0000000000002465
230
-1.0
 70
     9
 71
     3
 72
    46
 73
    42
 74
     0
 42
0.000000001
 43
0.0000000001
 40
0.0
 40
0.0
 40
0.0
 40
0.0
 40
0.1227159133736985
 40
0.1227159133736985
 40
0.2454318267473971
 40
0.2454318267473971
 40
0.3754557719797244
 40
0.3754557719797244
 40
0.5054797172120518
 40
0.5054797172120518
 40
0.6123625024269844
 40
0.6123625024269844
 40
0.6520817614253151
 40
0.6520817614253151
 40
0.6918010204236458
 40
0.6918010204236458
 40
0.7392669066770483
 40
0.7392669066770483
 40
0.7867327929304507
 40
0.7867327929304507
 40
0.8816645654372553
 40
0.8816645654372553
 40
0.9783032987659282
 40
0.9783032987659282
 40
1.074942032094601
 40
1.074942032094601
 40
1.182188822939681
 40
1.182188822939681
 40
1.289435613784762
 40
1.289435613784762
 40
1.387867484708481
 40
1.387867484708481
 40
1.486299355632201
 40
1.486299355632201
 40
1.520122682627073
 40
1.520122682627073
 40
1.553946009621944
 40
1.553946009621944
 40
1.590388835300061
 40
1.590388835300061
 40
1.626831660978177
 40
1.626831660978177
 40
1.626831660978177
 40
1.626831660978177
 10
70.82368685583424
 20
112.7809571106145
 30
0.000000000001819
 10
70.96688424066451
 20
112.4628048322406
 30
-0.000000000001819
 10
71.04880821683128
 20
112.1851910784403
 30
0.0
 10
71.14676376729858
 20
111.7093941379053
 30
0.000000000001819
 10
71.16093047914728
 20
111.5144705915945
 30
0.0
 10
71.15261679676587
 20
111.2177257849334
 30
0.0
 10
71.12647828006356
 20
111.094138484997
 30
0.0
 10
71.03121071106034
 20
110.9696084514744
 30
-0.000000000001819
 10
70.9625522390952
 20
110.9683141154974
 30
-0.000000000001819
 10
70.80176094257058
 20
111.1122182323756
 30
0.0
 10
70.69499298338723
 20
111.2611258212546
 30
0.0
 10
70.53704561120776
 20
111.5572128338885
 30
0.000000000001819
 10
70.48737549309135
 20
111.6565318518633
 30
0.0
 10
70.38302139682946
 20
111.8781899388809
 30
-0.000000000001819
 10
70.32824285880088
 20
112.0006116047816
 30
0.0
 10
70.21579233333887
 20
112.2595001602517
 30
0.000000000001819
 10
70.15415405702242
 20
112.4063096307109
 30
0.0
 10
70.0324567947664
 20
112.7007464312296
 30
0.0
 10
69.97239714560601
 20
112.8483699529511
 30
0.0
 10
69.79862882902216
 20
113.2768126286896
 30
0.0
 10
69.69109114678213
 20
113.5428690372205
 30
0.000000000001819
 10
69.51260198743693
 20
113.9784523390321
 30
0.0
 10
69.42807369488946
 20
114.1814125609653
 30
-0.000000000001819
 10
69.29131824804244
 20
114.5101559975201
 30
0.0
 10
69.23938869650283
 20
114.6360907126627
 30
0.000000000001819
 10
69.172550550511
 20
114.8164163859319
 30
0.000000000001819
 10
69.15571994775746
 20
114.8786985870952
 30
0.0
 10
69.18416303373033
 20
114.9105254807387
 30
0.000000000001819
 10
69.23005656135592
 20
114.8805260382983
 30
0.0
 10
69.36965301195414
 20
114.7555907689343
 30
0.0
 10
69.46981214507014
 20
114.6569094264528
 30
0.0
 10
69.73420905495277
 20
114.3758212526172
 30
0.0
 10
69.89771863429087
 20
114.195164917845
 30
0.0
 10
70.13905572630483
 20
113.8938003605299
 30
-0.000000000001819
 10
70.20863377291698
 20
113.8037325133027
 30
0.0
 10
70.3473774082613
 20
113.6128110026156
 30
-0.000000000001819
 10
70.41645595854061
 20
113.511811164446
 30
0.000000000001819
 10
70.54271510935269
 20
113.3146224544798
 30
0.0
 10
70.60943707209208
 20
113.2024313455858
 30
-0.000000000001819
 10
70.72858820585498
 20
112.982878181202
 30
0.0
 10
70.78116166745712
 20
112.8754384839035
 30
-0.000000000001819
 10
70.82368685583424
 20
112.7809571106145
 30
0.000000000001819
  0
SPLINE
  5
575
330
70
100
AcDbEntity
  8
Visible
100
AcDbSpline
210
0.0000000000020944
220
-0.0000000000074989
230
1.0
 70
    12
 71
     2
 72
     6
 73
     3
 74
     0
 42
0.000000001
 43
0.0000000001
 40
0.8928385452833133
 40
0.8928385452833133
 40
0.8928385452833133
 40
1.426998421938602
 40
1.426998421938602
 40
1.426998421938602
 10
85.77895590615298
 20
110.3751351673572
 30
0.0
 41
1.046084622246825
 10
83.42768110531233
 20
109.7184413133886
 30
0.0
 41
1.054668009707886
 10
81.63555526968321
 20
108.9753469866441
 30
-0.000000000001819
 41
1.057026775489376
  0
SPLINE
  5
576
330
70
100
AcDbEntity
  8
Visible
100
AcDbSpline
210
-0.0000028120084671
220
-0.0000029128294123
230
-0.999999999991804
 70
    12
 71
     2
 72
     6
 73
     3
 74
     0
 42
0.000000001
 43
0.0000000001
 40
0.1886368487237236
 40
0.1886368487237236
 40
0.1886368487237236
 40
0.1896732123880869
 40
0.1896732123880869
 40
0.1896732123880869
 10
81.63555526968321
 20
108.9753469866441
 30
-0.000000000001819
 41
1.179262646274091
 10
81.62251745334742
 20
108.987932904235
 30
0.0
 41
1.179741608365544
 10
81.6094942428308
 20
109.000505346029
 30
0.0
 41
1.180220422460814
  0
ELLIPSE
  5
577
330
70
100
AcDbEntity
  8
Visible
100
AcDbEllipse
 10
62.938594
 20
132.394759
 30
0.0
 11
0.5186094758970757
 21
0.9005799042177587
 31
0.0000000000000002
210
0.0
220
0.0000000000000002
230
-1.0
 40
0.5780931158055426
 41
2.047762073053196
 42
2.150956462297046
  0
ELLIPSE
  5
578
330
70
100
AcDbEntity
  8
Visible
100
AcDbEllipse
 10
62.938594
 20
132.394759
 30
0.0
 11
0.5186094754597172
 21
0.9005799041090819
 31
0.0
210
-0.0000000000000001
220
0.0
230
-0.9999999999999998
 40
0.5780931159152834
 41
3.400874249220253
 42
5.81008697742169
  0
SPLINE
  5
579
330
70
100
AcDbEntity
  8
Visible
100
AcDbSpline
210
0.0
220
0.0
230
1.0
 70
    12
 71
     2
 72
     6
 73
     3
 74
     0
 42
0.000000001
 43
0.0000000001
 40
3.317067815432736
 40
3.317067815432736
 40
3.317067815432736
 40
4.931035540947722
 40
4.931035540947722
 40
4.931035540947722
 10
73.90411524997034
 20
134.8059502605538
 30
0.0
 41
1.0
 10
78.21412880823846
 20
135.6361472849312
 30
0.0
 41
1.0
 10
86.27766020076796
 20
131.3866852792316
 30
0.0
 41
1.0
  0
SPLINE
  5
57A
330
70
100
AcDbEntity
  8
Visible
100
AcDbSpline
210
-0.0000000000015201
220
0.0000000000087897
230
1.0
 70
    12
 71
     2
 72
     6
 73
     3
 74
     0
 42
0.000000001
 43
0.0000000001
 40
4.065515423029146
 40
4.065515423029146
 40
4.065515423029146
 40
4.801006126233074
 40
4.801006126233074
 40
4.801006126233074
 10
86.27766020076796
 20
131.3866852792316
 30
0.0
 41
1.434012653310201
 10
90.48703576811021
 20
132.3215925276963
 30
-0.000000000001819
 41
1.256264850897112
 10
98.94727550723656
 20
133.3707951115943
 30
0.000000000001819
 41
1.0
  0
ELLIPSE
  5
57B
330
70
100
AcDbEntity
  8
Visible
100
AcDbEllipse
 10
86.160699
 20
119.022038
 30
0.0
 11
9.980644231683756
 21
17.33166872290833
 31
-0.0000000000000008
210
0.0
220
0.0
230
-1.0
 40
0.5780931159155204
 41
2.047762073389725
 42
3.562991099986777
  0
ELLIPSE
  5
57C
330
70
100
AcDbEntity
  8
Visible
100
AcDbEllipse
 10
86.160699
 20
119.022038
 30
0.0
 11
9.98064423168534
 21
17.33166872290365
 31
-0.0000000000000008
210
0.0
220
0.0
230
-1.0
 40
0.5780931159159489
 41
-0.4213984463969358
 42
0.3459155586841254
  0
SPLINE
  5
57D
330
70
100
AcDbEntity
  8
Visible
100
AcDbSpline
210
0.0000000000003861
220
-0.0000000000005535
230
1.0
 70
     8
 71
     3
 72
    14
 73
    10
 74
     0
 42
0.000000001
 43
0.0000000001
 40
2.357828024248279
 40
2.357828024248279
 40
2.357828024248279
 40
2.357828024248279
 40
2.645931274186898
 40
2.645931274186898
 40
2.934034524125517
 40
2.934034524125517
 40
3.034389924807454
 40
3.034389924807454
 40
3.097336140204965
 40
3.097336140204965
 40
3.097336140204965
 40
3.097336140204965
 10
108.0418430601576
 20
111.7523957321023
 30
0.0
 10
107.8023992092176
 20
110.8798102850105
 30
0.0
 10
107.5260304382973
 20
109.9268470791494
 30
-0.000000000001819
 10
106.8133412551851
 20
108.143543886953
 30
0.0
 10
106.3837353547978
 20
107.3093047769366
 30
-0.000000000001819
 10
105.5953024979771
 20
106.4833881597928
 30
0.0
 10
105.3239285078498
 20
106.2621702962137
 30
0.0
 10
104.8998179197278
 20
106.060552183781
 30
-0.000000000001819
 10
104.6907425223298
 20
106.0009241235443
 30
0.0
 10
104.5065884209034
 20
105.9999670427287
 30
-0.000000000001819
  0
LINE
  5
57E
330
70
100
AcDbEntity
  8
Visible
100
AcDbLine
 10
109.503381
 20
117.078557
 30
0.0
 11
108.041843
 21
111.752396
 31
0.0
210
-0.7071067811866527
220
0.4071957137922734
230
0.578093115915639
  0
SPLINE
  5
57F
330
70
100
AcDbEntity
  8
Visible
100
AcDbSpline
210
-0.0000000000021489
220
0.0000000000000127
230
-1.0
 70
     8
 71
     3
 72
    14
 73
    10
 74
     0
 42
0.000000001
 43
0.0000000001
 40
1.068762037833086
 40
1.068762037833086
 40
1.068762037833086
 40
1.068762037833086
 40
1.131708253230598
 40
1.131708253230598
 40
1.232063653912534
 40
1.232063653912534
 40
1.520166903851154
 40
1.520166903851154
 40
1.808270153789773
 40
1.808270153789773
 40
1.808270153789773
 40
1.808270153789773
 10
109.5465618104099
 20
124.3667257469219
 30
0.000000000001819
 10
109.6905865162071
 20
124.2214425860702
 30
-0.000000000001819
 10
109.8254331536964
 20
124.0105649081238
 30
0.0
 10
110.0594686598306
 20
123.5195081001266
 30
0.000000000001819
 10
110.1640636551792
 20
123.1329470495557
 30
0.0
 10
110.3782292437072
 20
121.8661088973167
 30
0.0
 10
110.3067716626237
 20
120.8743637513848
 30
0.0
 10
109.9926583298675
 20
118.9157753524277
 30
0.0
 10
109.7428246850659
 20
117.9511425608052
 30
0.0
 10
109.503380834125
 20
117.078557113713
 30
0.000000000001819
  0
ELLIPSE
  5
580
330
70
100
AcDbEntity
  8
Visible
100
AcDbEllipse
 10
46.93698
 20
141.609476
 30
0.0
 11
-69.39243180322856
 21
31.3001764411479
 31
0.0000000000000042
210
0.0
220
0.0000000000000002
230
-0.9999999999999998
 40
0.2447198100838424
 41
2.301369953614309
 42
2.573356155418283
  0
LINE
  5
581
330
70
100
AcDbEntity
  8
Visible
100
AcDbLine
 10
102.105763
 20
112.872742
 30
0.0
 11
86.27766
 21
131.386685
 31
0.0
210
-0.7071067811866527
220
0.4071957137922734
230
0.578093115915639
  0
ELLIPSE
  5
582
330
70
100
AcDbEntity
  8
Visible
100
AcDbEllipse
 10
98.996186
 20
109.342367
 30
0.0
 11
-0.826186433153656
 21
5.106895667886113
 31
-0.0000000000000003
210
0.0000000000000002
220
0.0000000000000001
230
1.0
 40
0.8604410497767659
 41
3.876626755189314
 42
5.328260570741594
  0
ELLIPSE
  5
583
330
70
100
AcDbEntity
  8
Visible
100
AcDbEllipse
 10
46.93698
 20
141.609476
 30
0.0
 11
-69.39243180370997
 21
31.30017644096953
 31
0.0000000000000042
210
0.0
220
0.0000000000000002
230
-1.0
 40
0.2447198100866761
 41
3.632929026126771
 42
3.680679722670452
  0
ELLIPSE
  5
584
330
70
100
AcDbEntity
  8
Visible Narrow
100
AcDbEllipse
 10
95.606927
 20
113.582317
 30
0.0
 11
9.980644231682248
 21
17.33166872290812
 31
-0.0000000000000008
210
0.0
220
0.0
230
-1.0
 40
0.5780931159155959
 41
1.67747463118669
 42
3.141592653589966
  0
ELLIPSE
  5
585
330
70
100
AcDbEntity
  8
Visible Narrow
100
AcDbEllipse
 10
95.606927
 20
113.582317
 30
0.0
 11
9.980644231685719
 21
17.33166872290416
 31
-0.0000000000000016
210
0.0
220
-0.0000000000000001
230
-0.9999999999999998
 40
0.5780931159155363
 41
-0.000000000000355
 42
0.6179017604884121
  0
SPLINE
  5
586
330
70
100
AcDbEntity
  8
Visible
100
AcDbSpline
210
0.0
220
0.0
230
1.0
 70
     8
 71
     3
 72
     8
 73
     4
 74
     0
 42
0.000000001
 43
0.0000000001
 40
3.219460806174655
 40
3.219460806174655
 40
3.219460806174655
 40
3.219460806174655
 40
3.306150425736514
 40
3.306150425736514
 40
3.306150425736514
 40
3.306150425736514
 10
102.5558511390845
 20
106.0307591885812
 30
0.0
 10
102.3521205150664
 20
105.7939153034162
 30
0.0
 10
102.1389734643335
 20
105.5650698603754
 30
0.0
 10
101.919129761337
 20
105.3460507211748
 30
0.0
  0
ELLIPSE
  5
587
330
70
100
AcDbEntity
  8
Visible
100
AcDbEllipse
 10
102.519125
 20
109.601848
 30
0.0
 11
14.27992837801809
 21
14.84492609950138
 31
-0.0000000000000031
210
-0.0000000000000008
220
0.0000000000000005
230
-1.0
 40
0.1240274472381596
 41
1.740707377191616
 42
1.915558144379286
  0
LINE
  5
588
330
70
100
AcDbEntity
  8
Visible Narrow
100
AcDbLine
 10
98.783721
 20
110.140642
 30
0.0
 11
102.105763
 21
112.872742
 31
0.0
210
-0.7071067811866527
220
0.4071957137922734
230
0.578093115915639
  0
LINE
  5
589
330
70
100
AcDbEntity
  8
Visible Narrow
100
AcDbLine
 10
100.232853
 20
103.95923
 30
0.0
 11
101.91913
 21
105.346051
 31
0.0
210
-0.7071067811866527
220
0.4071957137922734
230
0.578093115915639
  0
SPLINE
  5
58A
330
70
100
AcDbEntity
  8
Visible
100
AcDbSpline
210
-0.0000000000000929
220
0.0000000000001022
230
1.0
 70
     8
 71
     3
 72
    26
 73
    22
 74
     0
 42
0.000000001
 43
0.0000000001
 40
3.925057108564504
 40
3.925057108564504
 40
3.925057108564504
 40
3.925057108564504
 40
4.185211611779801
 40
4.185211611779801
 40
4.469756876956237
 40
4.469756876956237
 40
4.797186891424168
 40
4.797186891424168
 40
5.138598224884455
 40
5.138598224884455
 40
5.477350987091822
 40
5.477350987091822
 40
5.814237148279995
 40
5.814237148279995
 40
6.152627069106857
 40
6.152627069106857
 40
6.494018175485709
 40
6.494018175485709
 40
6.824163654496889
 40
6.824163654496889
 40
7.066649762154297
 40
7.066649762154297
 40
7.066649762154297
 40
7.066649762154297
 10
160.1599849963631
 20
94.87199535588388
 30
-0.000000000001819
 10
161.0281724722681
 20
94.37203943923533
 30
0.0
 10
161.7771688878392
 20
93.67384061127678
 30
0.0
 10
163.0024663365557
 20
91.94584846959742
 30
0.0
 10
163.4516151350572
 20
90.89632555636853
 30
0.0
 10
164.045861624947
 20
88.4626233170734
 30
0.0
 10
164.1382024531458
 20
87.04795257000752
 30
-0.000000000001819
 10
163.926241523367
 20
84.0428186705658
 30
0.0
 10
163.6034978124135
 20
82.44615163137359
 30
-0.000000000001819
 10
162.5885605303665
 20
79.27721490408294
 30
0.0
 10
161.8988520022203
 20
77.70551680340668
 30
0.000000000001819
 10
160.2273555356832
 20
74.72975720232489
 30
0.0
 10
159.2475326338835
 20
73.32545086433674
 30
0.000000000001819
 10
157.0781534267016
 20
70.80542236989777
 30
0.0
 10
155.8884217802297
 20
69.69110901816248
 30
0.0
 10
153.3825757356089
 20
67.8676677607441
 30
0.0
 10
152.0653970679013
 20
67.16056971088483
 30
0.0
 10
149.4342835826064
 20
66.29645293445583
 30
0.0
 10
148.1146567053292
 20
66.12245216338578
 30
0.0
 10
145.9066945457271
 20
66.38460146042916
 30
0.0
 10
145.0001787408982
 20
66.67532399341553
 30
-0.000000000001819
 10
144.190954225669
 20
67.14132539923366
 30
0.0
  0
LINE
  5
58B
330
70
100
AcDbEntity
  8
Visible
100
AcDbLine
 10
110.113023
 20
123.692124
 30
0.0
 11
160.159985
 21
94.871995
 31
0.0
210
-0.7071067811866527
220
0.4071957137922734
230
0.578093115915639
  0
LINE
  5
58C
330
70
100
AcDbEntity
  8
Visible
100
AcDbLine
 10
94.143993
 20
95.961454
 30
0.0
 11
144.190954
 21
67.141325
 31
0.0
210
-0.7071067811866527
220
0.4071957137922734
230
0.578093115915639
  0
LINE
  5
58D
330
70
100
AcDbEntity
  8
Visible
100
AcDbLine
 10
74.273702
 20
134.866854
 30
0.0
 11
91.169943
 21
137.197533
 31
0.0
210
-0.7071067811866527
220
0.4071957137922734
230
0.578093115915639
  0
LINE
  5
58E
330
70
100
AcDbEntity
  8
Visible
100
AcDbLine
 10
62.252401
 20
131.695595
 30
0.0
 11
62.289858
 21
131.604149
 31
0.0
210
-0.7071067811866527
220
0.4071957137922734
230
0.578093115915639
  0
LINE
  5
58F
330
70
100
AcDbEntity
  8
Visible
100
AcDbLine
 10
65.38538
 20
124.046779
 30
0.0
 11
69.284249
 21
114.528129
 31
0.0
210
-0.7071067811866527
220
0.4071957137922734
230
0.578093115915639
  0
LINE
  5
590
330
70
100
AcDbEntity
  8
Visible
100
AcDbLine
 10
70.033516
 20
112.698878
 30
0.0
 11
72.954912
 21
105.56662
 31
0.0
210
-0.7071067811866527
220
0.4071957137922734
230
0.578093115915639
  0
LINE
  5
591
330
70
100
AcDbEntity
  8
Visible
100
AcDbLine
 10
96.141343
 20
136.353707
 30
0.0
 11
105.587571
 21
130.913986
 31
0.0
210
-0.7071067811866527
220
0.4071957137922734
230
0.578093115915639
  0
LINE
  5
592
330
70
100
AcDbEntity
  8
Visible
100
AcDbLine
 10
76.180055
 20
101.69037
 30
0.0
 11
85.626283
 21
96.250649
 31
0.0
210
-0.7071067811866527
220
0.4071957137922734
230
0.578093115915639
  0
SPLINE
  5
593
330
70
100
AcDbEntity
  8
Visible
100
AcDbSpline
210
0.0000000000007947
220
0.000000000000221
230
1.0
 70
     8
 71
     3
 72
    16
 73
    12
 74
     0
 42
0.000000001
 43
0.0000000001
 40
3.925057108564504
 40
3.925057108564504
 40
3.925057108564504
 40
3.925057108564504
 40
4.066013996308915
 40
4.066013996308915
 40
4.206970884053325
 40
4.206970884053325
 40
4.347927771797736
 40
4.347927771797736
 40
4.488884659542146
 40
4.488884659542146
 40
4.629841547286556
 40
4.629841547286556
 40
4.629841547286556
 40
4.629841547286556
 10
105.5875713477689
 20
130.9139862038464
 30
0.000000000001819
 10
106.1521253976125
 20
130.5888811484046
 30
-0.000000000001819
 10
106.6765090075396
 20
130.194501666424
 30
0.0
 10
107.6229383354566
 20
129.2892180423264
 30
0.0
 10
108.0449951278861
 20
128.7787206453645
 30
0.0
 10
108.7793695244072
 20
127.6672183657019
 30
0.0
 10
109.0919476081189
 20
127.0663406618378
 30
-0.000000000001819
 10
109.6101174790828
 20
125.7943719185377
 30
0.0
 10
109.8158801257377
 20
125.1232006724099
 30
0.0
 10
110.1258315883715
 20
123.7251009739166
 30
0.0
 10
110.2300636427253
 20
122.9980772731219
 30
-0.000000000001819
 10
110.2859621253465
 20
122.2491138451855
 30
0.0
  0
SPLINE
  5
594
330
70
100
AcDbEntity
  8
Visible
100
AcDbSpline
210
-0.000000000000008
220
0.0000000000001717
230
1.0
 70
     8
 71
     3
 72
    18
 73
    14
 74
     0
 42
0.000000001
 43
0.0000000001
 40
5.469625820005376
 40
5.469625820005376
 40
5.469625820005376
 40
5.469625820005376
 40
5.78903060843516
 40
5.78903060843516
 40
6.108435396864944
 40
6.108435396864944
 40
6.427840185294728
 40
6.427840185294728
 40
6.747244973724512
 40
6.747244973724512
 40
7.047144227650765
 40
7.047144227650765
 40
7.066649762154297
 40
7.066649762154297
 40
7.066649762154297
 40
7.066649762154297
 10
106.6048789828455
 20
107.8287320715944
 30
0.0
 10
105.6141933755034
 20
106.0464167147743
 30
-0.000000000001819
 10
104.455908305611
 20
104.352265540037
 30
-0.000000000001819
 10
101.9029015818205
 20
101.2918698756657
 30
0.000000000001819
 10
100.5088184582018
 20
99.92585554065545
 30
0.0
 10
97.59093835776548
 20
97.64994637179462
 30
0.0
 10
96.06747880786043
 20
96.73916208142555
 30
0.000000000001819
 10
92.98617462657057
 20
95.48372376828638
 30
0.0
 10
91.42415496341801
 20
95.13792405959065
 30
0.0
 10
88.47761451227688
 20
95.14625409668132
 30
0.0
 10
87.08679469470553
 20
95.46880912509232
 30
0.0
 10
85.78328731680448
 20
96.16199125995809
 30
-0.000000000001819
 10
85.70440555491769
 20
96.20566090410557
 30
0.0
 10
85.626282884401
 20
96.25064875803401
 30
0.000000000001819
  0
ENDSEC
  0
SECTION
  2
OBJECTS
  0
DICTIONARY
  5
C
330
0
100
AcDbDictionary
281
     1
  3
ACAD_COLOR
350
63
  3
ACAD_DETAILVIEWSTYLE
350
6A
  3
ACAD_GROUP
350
D
  3
ACAD_LAYOUT
350
62
  3
ACAD_MATERIAL
350
10
  3
ACAD_MLEADERSTYLE
350
66
  3
ACAD_MLINESTYLE
350
5F
  3
ACAD_PLOTSETTINGS
350
61
  3
ACAD_PLOTSTYLENAME
350
E
  3
ACAD_SCALELIST
350
42
  3
ACAD_SECTIONVIEWSTYLE
350
68
  3
ACAD_TABLESTYLE
350
64
  3
ACAD_VISUALSTYLE
350
29
  3
ACDB_RECOMPOSE_DATA
350
5E8
  3
AcDbVariableDictionary
350
5DF
  0
DICTIONARY
  5
AB
330
70
100
AcDbDictionary
280
     1
281
     1
  3
ACAD_SORTENTS
360
AC
  0
DICTIONARY
  5
27A
330
279
100
AcDbDictionary
280
     1
281
     1
  0
DICTIONARY
  5
2C0
330
2BF
100
AcDbDictionary
280
     1
281
     1
  3
ACAD_SORTENTS
360
3E0
  0
DICTIONARY
  5
2DB
330
2DA
100
AcDbDictionary
280
     1
281
     1
  0
DICTIONARY
  5
2DD
330
2DC
100
AcDbDictionary
280
     1
281
     1
  0
DICTIONARY
  5
2DF
330
2DE
100
AcDbDictionary
280
     1
281
     1
  0
DICTIONARY
  5
2E1
330
2E0
100
AcDbDictionary
280
     1
281
     1
  0
DICTIONARY
  5
2E3
330
2E2
100
AcDbDictionary
280
     1
281
     1
  0
DICTIONARY
  5
2E5
330
2E4
100
AcDbDictionary
280
     1
281
     1
  0
DICTIONARY
  5
2E7
330
2E6
100
AcDbDictionary
280
     1
281
     1
  0
DICTIONARY
  5
2E9
330
2E8
100
AcDbDictionary
280
     1
281
     1
  0
DICTIONARY
  5
2EB
330
2EA
100
AcDbDictionary
280
     1
281
     1
  0
DICTIONARY
  5
2ED
330
2EC
100
AcDbDictionary
280
     1
281
     1
  0
DICTIONARY
  5
2EF
330
2EE
100
AcDbDictionary
280
     1
281
     1
  0
DICTIONARY
  5
2F1
330
2F0
100
AcDbDictionary
280
     1
281
     1
  0
DICTIONARY
  5
2F3
330
2F2
100
AcDbDictionary
280
     1
281
     1
  0
DICTIONARY
  5
2F5
330
2F4
100
AcDbDictionary
280
     1
281
     1
  0
DICTIONARY
  5
2F7
330
2F6
100
AcDbDictionary
280
     1
281
     1
  0
DICTIONARY
  5
63
102
{ACAD_REACTORS
330
C
102
}
330
C
100
AcDbDictionary
281
     1
  0
DICTIONARY
  5
6A
102
{ACAD_REACTORS
330
C
102
}
330
C
100
AcDbDictionary
281
     1
  3
Imperial24
350
6B
  0
DICTIONARY
  5
D
102
{ACAD_REACTORS
330
C
102
}
330
C
100
AcDbDictionary
281
     1
  0
DICTIONARY
  5
62
102
{ACAD_REACTORS
330
C
102
}
330
C
100
AcDbDictionary
281
     1
  3
Model
350
73
  3
シート1
350
6F
  3
シート2
350
77
  0
DICTIONARY
  5
10
102
{ACAD_REACTORS
330
C
102
}
330
C
100
AcDbDictionary
281
     1
  3
ByBlock
350
19
  3
ByLayer
350
11
  3
Global
350
21
  0
DICTIONARY
  5
66
102
{ACAD_REACTORS
330
C
102
}
330
C
100
AcDbDictionary
281
     1
  3
Standard
350
67
  0
DICTIONARY
  5
5F
102
{ACAD_REACTORS
330
C
102
}
330
C
100
AcDbDictionary
281
     1
  3
Standard
350
60
  0
DICTIONARY
  5
61
102
{ACAD_REACTORS
330
C
102
}
330
C
100
AcDbDictionary
281
     1
  0
ACDBDICTIONARYWDFLT
  5
E
102
{ACAD_REACTORS
330
C
102
}
330
C
100
AcDbDictionary
281
     1
  3
Normal
350
F
100
AcDbDictionaryWithDefault
340
F
  0
DICTIONARY
  5
42
102
{ACAD_REACTORS
330
C
102
}
330
C
100
AcDbDictionary
281
     1
  3
A0
350
43
  3
A1
350
44
  3
A2
350
45
  3
A3
350
46
  3
A4
350
47
  3
A5
350
48
  3
A6
350
49
  3
A7
350
4A
  3
A8
350
4B
  3
A9
350
4C
  3
B0
350
4D
  3
B1
350
4E
  3
B2
350
4F
  3
B3
350
50
  3
B4
350
51
  3
B5
350
52
  3
B6
350
53
  0
DICTIONARY
  5
68
102
{ACAD_REACTORS
330
C
102
}
330
C
100
AcDbDictionary
281
     1
  3
Imperial24
350
69
  0
DICTIONARY
  5
64
102
{ACAD_REACTORS
330
C
102
}
330
C
100
AcDbDictionary
281
     1
  3
Standard
350
65
  0
DICTIONARY
  5
29
102
{ACAD_REACTORS
330
C
102
}
330
C
100
AcDbDictionary
281
     1
  3
2dWireframe
350
2F
  3
Basic
350
2E
  3
Brighten
350
35
  3
ColorChange
350
39
  3
Conceptual
350
32
  3
Dim
350
34
  3
EdgeColorOff
350
41
  3
Facepattern
350
38
  3
Flat
350
2A
  3
FlatWithEdges
350
2B
  3
Gouraud
350
2C
  3
GouraudWithEdges
350
2D
  3
Hidden
350
31
  3
JitterOff
350
3F
  3
Linepattern
350
37
  3
OverhangOff
350
40
  3
Realistic
350
33
  3
Shaded
350
3E
  3
Shaded with edges
350
3D
  3
Shades of Gray
350
3A
  3
Sketchy
350
3B
  3
Thicken
350
36
  3
Wireframe
350
30
  3
X-Ray
350
3C
  0
XRECORD
  5
5E8
102
{ACAD_REACTORS
330
C
102
}
330
C
100
AcDbXrecord
280
     1
 90
        1
330
65
  0
DICTIONARY
  5
5DF
102
{ACAD_REACTORS
330
C
102
}
330
C
100
AcDbDictionary
281
     1
  3
ANNOALLVISIBLE
350
5E4
  3
CANNOSCALE
350
5E5
  3
CMLEADERSTYLE
350
5E1
  3
CTABLESTYLE
350
5E0
  3
CVIEWDETAILSTYLE
350
5E2
  3
CVIEWSECTIONSTYLE
350
5E3
  0
SORTENTSTABLE
  5
AC
102
{ACAD_REACTORS
330
AB
102
}
330
AB
100
AcDbSortentsTable
330
70
  0
SORTENTSTABLE
  5
3E0
102
{ACAD_REACTORS
330
2C0
102
}
330
2C0
100
AcDbSortentsTable
330
2BF
  0
ACDBDETAILVIEWSTYLE
  5
6B
102
{ACAD_XDICTIONARY
360
5EB
102
}
102
{ACAD_REACTORS
330
6A
102
}
330
6A
100
AcDbModelDocViewStyle
 70
     0
  3
Imperial24
290
     0
100
AcDbDetailViewStyle
 70
     0
 71
     0
 90
        3
 71
     1
340
55
 62
   256
 40
0.24
340
0
 62
   256
 40
0.24
300

 40
0.36
280
     3
 71
     2
340
5D
 90
       25
 62
   256
 71
     3
340
55
 62
   256
 40
0.24
 90
        1
 40
0.75
 90
        1
300
%<\AcVar ViewType \f "%tc1">% %<\AcVar ViewDetailId>%\P尺度 %<\AcVar ViewScale \f "%sn">%
 71
     4
340
5D
 90
       25
 62
   256
340
5D
 90
       25
 62
   256
280
     0
  0
LAYOUT
  5
73
102
{ACAD_REACTORS
330
62
102
}
330
62
100
AcDbPlotSettings
  1

  2
AutoCAD PDF (High Quality Print).pc3
  4
ISO_full_bleed_A3_(420.00_x_297.00_MM)
  6

 40
0.0
 41
0.0
 42
0.0
 43
0.0
 44
420.0
 45
297.0
 46
0.0
 47
0.0
 48
0.0
 49
0.0
140
0.0
141
0.0
142
1.0
143
2.49884
 70
 11952
 72
     1
 73
     0
 74
     0
  7

 75
     0
147
0.400186
 76
     0
 77
     2
 78
   300
148
308.069537
149
230.180171
100
AcDbLayout
  1
Model
 70
     1
 71
     0
 10
0.0
 20
0.0
 11
12.0
 21
9.0
 12
0.0
 22
0.0
 32
0.0
 14
0.0
 24
0.0
 34
0.0
 15
0.0
 25
0.0
 35
0.0
146
0.0
 13
0.0
 23
0.0
 33
0.0
 16
1.0
 26
0.0
 36
0.0
 17
0.0
 27
1.0
 37
0.0
 76
     0
330
70
1001
ACAD_PSEXT
1000
AutoCAD PDF (High Quality Print).pc3
1000
DWG To PDF
1000
ファイル
1000

1070
     0
  0
LAYOUT
  5
6F
102
{ACAD_REACTORS
330
62
102
}
330
62
100
AcDbPlotSettings
  1

  2
None
  4

  6

 40
0.0
 41
0.0
 42
0.0
 43
0.0
 44
0.0
 45
0.0
 46
0.0
 47
0.0
 48
0.0
 49
0.0
140
0.0
141
0.0
142
1.0
143
1.0
 70
   688
 72
     0
 73
     0
 74
     5
  7

 75
    16
147
1.0
 76
     0
 77
     2
 78
   300
148
0.0
149
0.0
100
AcDbLayout
  1
シート1
 70
     1
 71
     1
 10
0.0
 20
0.0
 11
12.0
 21
9.0
 12
0.0
 22
0.0
 32
0.0
 14
0.0
 24
0.0
 34
0.0
 15
0.0
 25
0.0
 35
0.0
146
0.0
 13
0.0
 23
0.0
 33
0.0
 16
1.0
 26
0.0
 36
0.0
 17
0.0
 27
1.0
 37
0.0
 76
     0
330
6C
  0
LAYOUT
  5
77
102
{ACAD_REACTORS
330
62
102
}
330
62
100
AcDbPlotSettings
  1

  2
None
  4

  6

 40
0.0
 41
0.0
 42
0.0
 43
0.0
 44
0.0
 45
0.0
 46
0.0
 47
0.0
 48
0.0
 49
0.0
140
0.0
141
0.0
142
1.0
143
1.0
 70
   688
 72
     0
 73
     0
 74
     5
  7

 75
    16
147
1.0
 76
     0
 77
     2
 78
   300
148
0.0
149
0.0
100
AcDbLayout
  1
シート2
 70
     1
 71
     2
 10
0.0
 20
0.0
 11
12.0
 21
9.0
 12
0.0
 22
0.0
 32
0.0
 14
0.0
 24
0.0
 34
0.0
 15
0.0
 25
0.0
 35
0.0
146
0.0
 13
0.0
 23
0.0
 33
0.0
 16
1.0
 26
0.0
 36
0.0
 17
0.0
 27
1.0
 37
0.0
 76
     0
330
74
  0
MATERIAL
  5
19
102
{ACAD_XDICTIONARY
360
1A
102
}
102
{ACAD_REACTORS
330
10
102
}
330
10
100
AcDbMaterial
  1
ByBlock
 72
     0
 43
0.020833
 43
0.0
 43
0.0
 43
0.0
 43
0.0
 43
0.020833
 43
0.0
 43
0.0
 43
0.0
 43
0.0
 43
1.0
 43
0.0
 43
0.0
 43
0.0
 43
0.0
 43
1.0
 77
     0
 47
0.020833
 47
0.0
 47
0.0
 47
0.0
 47
0.0
 47
0.020833
 47
0.0
 47
0.0
 47
0.0
 47
0.0
 47
1.0
 47
0.0
 47
0.0
 47
0.0
 47
0.0
 47
1.0
171
     0
 49
0.020833
 49
0.0
 49
0.0
 49
0.0
 49
0.0
 49
0.020833
 49
0.0
 49
0.0
 49
0.0
 49
0.0
 49
1.0
 49
0.0
 49
0.0
 49
0.0
 49
0.0
 49
1.0
175
     0
142
0.020833
142
0.0
142
0.0
142
0.0
142
0.0
142
0.020833
142
0.0
142
0.0
142
0.0
142
0.0
142
1.0
142
0.0
142
0.0
142
0.0
142
0.0
142
1.0
179
     0
144
0.020833
144
0.0
144
0.0
144
0.0
144
0.0
144
0.020833
144
0.0
144
0.0
144
0.0
144
0.0
144
1.0
144
0.0
144
0.0
144
0.0
144
0.0
144
1.0
147
0.020833
147
0.0
147
0.0
147
0.0
147
0.0
147
0.020833
147
0.0
147
0.0
147
0.0
147
0.0
147
1.0
147
0.0
147
0.0
147
0.0
147
0.0
147
1.0
  0
MATERIAL
  5
11
102
{ACAD_XDICTIONARY
360
12
102
}
102
{ACAD_REACTORS
330
10
102
}
330
10
100
AcDbMaterial
  1
ByLayer
 72
     0
 43
0.020833
 43
0.0
 43
0.0
 43
0.0
 43
0.0
 43
0.020833
 43
0.0
 43
0.0
 43
0.0
 43
0.0
 43
1.0
 43
0.0
 43
0.0
 43
0.0
 43
0.0
 43
1.0
 77
     0
 47
0.020833
 47
0.0
 47
0.0
 47
0.0
 47
0.0
 47
0.020833
 47
0.0
 47
0.0
 47
0.0
 47
0.0
 47
1.0
 47
0.0
 47
0.0
 47
0.0
 47
0.0
 47
1.0
171
     0
 49
0.020833
 49
0.0
 49
0.0
 49
0.0
 49
0.0
 49
0.020833
 49
0.0
 49
0.0
 49
0.0
 49
0.0
 49
1.0
 49
0.0
 49
0.0
 49
0.0
 49
0.0
 49
1.0
175
     0
142
0.020833
142
0.0
142
0.0
142
0.0
142
0.0
142
0.020833
142
0.0
142
0.0
142
0.0
142
0.0
142
1.0
142
0.0
142
0.0
142
0.0
142
0.0
142
1.0
179
     0
144
0.020833
144
0.0
144
0.0
144
0.0
144
0.0
144
0.020833
144
0.0
144
0.0
144
0.0
144
0.0
144
1.0
144
0.0
144
0.0
144
0.0
144
0.0
144
1.0
147
0.020833
147
0.0
147
0.0
147
0.0
147
0.0
147
0.020833
147
0.0
147
0.0
147
0.0
147
0.0
147
1.0
147
0.0
147
0.0
147
0.0
147
0.0
147
1.0
  0
MATERIAL
  5
21
102
{ACAD_XDICTIONARY
360
22
102
}
102
{ACAD_REACTORS
330
10
102
}
330
10
100
AcDbMaterial
  1
Global
 72
     0
 43
0.020833
 43
0.0
 43
0.0
 43
0.0
 43
0.0
 43
0.020833
 43
0.0
 43
0.0
 43
0.0
 43
0.0
 43
1.0
 43
0.0
 43
0.0
 43
0.0
 43
0.0
 43
1.0
 77
     0
 47
0.020833
 47
0.0
 47
0.0
 47
0.0
 47
0.0
 47
0.020833
 47
0.0
 47
0.0
 47
0.0
 47
0.0
 47
1.0
 47
0.0
 47
0.0
 47
0.0
 47
0.0
 47
1.0
171
     0
 49
0.020833
 49
0.0
 49
0.0
 49
0.0
 49
0.0
 49
0.020833
 49
0.0
 49
0.0
 49
0.0
 49
0.0
 49
1.0
 49
0.0
 49
0.0
 49
0.0
 49
0.0
 49
1.0
175
     0
142
0.020833
142
0.0
142
0.0
142
0.0
142
0.0
142
0.020833
142
0.0
142
0.0
142
0.0
142
0.0
142
1.0
142
0.0
142
0.0
142
0.0
142
0.0
142
1.0
179
     0
144
0.020833
144
0.0
144
0.0
144
0.0
144
0.0
144
0.020833
144
0.0
144
0.0
144
0.0
144
0.0
144
1.0
144
0.0
144
0.0
144
0.0
144
0.0
144
1.0
147
0.020833
147
0.0
147
0.0
147
0.0
147
0.0
147
0.020833
147
0.0
147
0.0
147
0.0
147
0.0
147
1.0
147
0.0
147
0.0
147
0.0
147
0.0
147
1.0
  0
MLEADERSTYLE
  5
67
102
{ACAD_REACTORS
330
66
102
}
330
66
100
AcDbMLeaderStyle
179
     2
170
     2
171
     1
172
     0
 90
        2
 40
0.0
 41
0.0
173
     1
 91
-1056964608
340
5B
 92
       -2
290
     1
 42
0.09
291
     1
 43
0.36
  3
Standard
 44
0.18
300

342
55
174
     1
178
     6
175
     1
176
     0
 93
-1056964608
 45
0.18
292
     0
297
     0
 46
0.18
 94
-1056964608
 47
1.0
 49
1.0
140
1.0
293
     1
141
0.0
294
     1
177
     0
142
1.0
295
     0
296
     0
143
0.125
271
     0
272
     9
273
     9
298
     1
  0
MLINESTYLE
  5
60
102
{ACAD_REACTORS
330
5F
102
}
330
5F
100
AcDbMlineStyle
  2
STANDARD
 70
     0
  3

 62
   256
 51
90.0
 52
90.0
 71
     0
  0
ACDBPLACEHOLDER
  5
F
102
{ACAD_REACTORS
330
E
102
}
330
E
  0
SCALE
  5
43
102
{ACAD_REACTORS
330
42
102
}
330
42
100
AcDbScale
 70
     0
300
1:1
140
1.0
141
1.0
290
     1
  0
SCALE
  5
44
102
{ACAD_REACTORS
330
42
102
}
330
42
100
AcDbScale
 70
     0
300
1:2
140
1.0
141
2.0
290
     0
  0
SCALE
  5
45
102
{ACAD_REACTORS
330
42
102
}
330
42
100
AcDbScale
 70
     0
300
1:4
140
1.0
141
4.0
290
     0
  0
SCALE
  5
46
102
{ACAD_REACTORS
330
42
102
}
330
42
100
AcDbScale
 70
     0
300
1:5
140
1.0
141
5.0
290
     0
  0
SCALE
  5
47
102
{ACAD_REACTORS
330
42
102
}
330
42
100
AcDbScale
 70
     0
300
1:8
140
1.0
141
8.0
290
     0
  0
SCALE
  5
48
102
{ACAD_REACTORS
330
42
102
}
330
42
100
AcDbScale
 70
     0
300
1:10
140
1.0
141
10.0
290
     0
  0
SCALE
  5
49
102
{ACAD_REACTORS
330
42
102
}
330
42
100
AcDbScale
 70
     0
300
1:16
140
1.0
141
16.0
290
     0
  0
SCALE
  5
4A
102
{ACAD_REACTORS
330
42
102
}
330
42
100
AcDbScale
 70
     0
300
1:20
140
1.0
141
20.0
290
     0
  0
SCALE
  5
4B
102
{ACAD_REACTORS
330
42
102
}
330
42
100
AcDbScale
 70
     0
300
1:30
140
1.0
141
30.0
290
     0
  0
SCALE
  5
4C
102
{ACAD_REACTORS
330
42
102
}
330
42
100
AcDbScale
 70
     0
300
1:40
140
1.0
141
40.0
290
     0
  0
SCALE
  5
4D
102
{ACAD_REACTORS
330
42
102
}
330
42
100
AcDbScale
 70
     0
300
1:50
140
1.0
141
50.0
290
     0
  0
SCALE
  5
4E
102
{ACAD_REACTORS
330
42
102
}
330
42
100
AcDbScale
 70
     0
300
1:100
140
1.0
141
100.0
290
     0
  0
SCALE
  5
4F
102
{ACAD_REACTORS
330
42
102
}
330
42
100
AcDbScale
 70
     0
300
2:1
140
2.0
141
1.0
290
     0
  0
SCALE
  5
50
102
{ACAD_REACTORS
330
42
102
}
330
42
100
AcDbScale
 70
     0
300
4:1
140
4.0
141
1.0
290
     0
  0
SCALE
  5
51
102
{ACAD_REACTORS
330
42
102
}
330
42
100
AcDbScale
 70
     0
300
8:1
140
8.0
141
1.0
290
     0
  0
SCALE
  5
52
102
{ACAD_REACTORS
330
42
102
}
330
42
100
AcDbScale
 70
     0
300
10:1
140
10.0
141
1.0
290
     0
  0
SCALE
  5
53
102
{ACAD_REACTORS
330
42
102
}
330
42
100
AcDbScale
 70
     0
300
100:1
140
100.0
141
1.0
290
     0
  0
ACDBSECTIONVIEWSTYLE
  5
69
102
{ACAD_XDICTIONARY
360
5E9
102
}
102
{ACAD_REACTORS
330
68
102
}
330
68
100
AcDbModelDocViewStyle
 70
     0
  3
Imperial24
290
     0
100
AcDbSectionViewStyle
 70
     0
 71
     0
 90
       78
 71
     1
340
55
 62
   256
 40
0.24
340
0
340
0
 62
   256
 40
0.24
300
I, O, Q, S, X, Z
 40
0.48
 90
        3
 40
0.18
 90
        1
 71
     2
340
5D
 90
       25
 62
   256
340
5D
 90
       50
 62
   256
 40
0.24
 40
0.0
 40
0.24
 71
     3
340
55
 62
   256
 40
0.24
 90
        1
 40
0.75
 90
        1
300
%<\AcVar ViewType \f "%tc1">% %<\AcVar ViewSectionStartId>%-%<\AcVar ViewSectionEndId>%\P尺度 %<\AcVar ViewScale \f "%sn">%
 71
     4
 62
   256
 62
   257
300
ANSI31
 40
1.0
 90
        0
290
     0
290
     0
 90
        6
 40
0.0
 40
1.570796
 40
0.261799
 40
1.308997
 40
-0.261799
 40
1.832596
  0
TABLESTYLE
  5
65
102
{ACAD_XDICTIONARY
360
5E6
102
}
102
{ACAD_REACTORS
330
64
102
}
330
64
100
AcDbTableStyle
280
     0
  3
Standard
 70
     0
 71
     0
 40
1.5
 41
1.5
280
     0
281
     0
  7
Standard
140
0.18
170
     2
 62
     0
 63
     7
283
     0
 90
      512
 91
        0
  1

274
    -2
284
     1
 64
     0
275
    -2
285
     1
 65
     0
276
    -2
286
     1
 66
     0
277
    -2
287
     1
 67
     0
278
    -2
288
     1
 68
     0
279
    -2
289
     1
 69
     0
  7
Standard
140
0.25
170
     5
 62
     0
 63
     7
283
     0
 90
      512
 91
        0
  1

274
    -2
284
     1
 64
     0
275
    -2
285
     1
 65
     0
276
    -2
286
     1
 66
     0
277
    -2
287
     1
 67
     0
278
    -2
288
     1
 68
     0
279
    -2
289
     1
 69
     0
  7
Standard
140
0.18
170
     5
 62
     0
 63
     7
283
     0
 90
      512
 91
        0
  1

274
    -2
284
     1
 64
     0
275
    -2
285
     1
 65
     0
276
    -2
286
     1
 66
     0
277
    -2
287
     1
 67
     0
278
    -2
288
     1
 68
     0
279
    -2
289
     1
 69
     0
  0
VISUALSTYLE
  5
2F
102
{ACAD_REACTORS
330
29
102
}
330
29
100
AcDbVisualStyle
  2
2dWireframe
 70
     4
177
     3
291
     0
 70
    58
 90
        0
176
     1
 90
        2
176
     1
 90
        0
176
     1
 90
        0
176
     1
 40
0.6
176
     1
 40
30.0
176
     1
 62
     7
420
 16777215
176
     1
 90
        1
176
     1
 90
        4
176
     1
 62
     7
176
     1
 62
   257
176
     1
 90
        1
176
     1
 90
        1
176
     1
 40
1.0
176
     1
 90
        0
176
     1
 62
   257
176
     1
 40
1.0
176
     1
 90
        1
176
     1
 90
        6
176
     1
 90
        2
176
     1
 62
     7
176
     1
 90
        5
176
     1
 90
        0
176
     1
 90
        0
176
     1
290
     0
176
     1
 90
        1
176
     1
 40
0.0
176
     1
 90
        0
176
     1
290
     1
176
     1
290
     1
176
     1
290
     0
176
     1
290
     0
176
     1
290
     0
176
     1
290
     0
176
     1
290
     0
176
     1
290
     0
176
     1
290
     0
176
     1
 90
       50
176
     1
 40
0.0
176
     1
 40
1.0
176
     1
 90
        0
176
     1
 62
    18
420
        0
176
     1
 90
       50
176
     1
 90
        3
176
     1
 62
     5
420
      255
176
     1
290
     0
176
     1
 90
       50
176
     1
 90
       50
176
     1
 90
       50
176
     1
290
     0
176
     1
 90
       50
176
     1
 62
   256
176
     0
 40
1.0
176
     0
 90
        2
176
     1
  1
strokes_ogs.tif
176
     1
290
     0
176
     1
 40
1.0
176
     1
 40
1.0
176
     1
1001
ACAD
1000
AcDbSavedByObjectVersion
1070
     0
  0
VISUALSTYLE
  5
2E
102
{ACAD_REACTORS
330
29
102
}
330
29
100
AcDbVisualStyle
  2
Basic
 70
     7
177
     3
291
     1
 70
    58
 90
        1
176
     1
 90
        0
176
     1
 90
        1
176
     1
 90
        0
176
     1
 40
0.6
176
     1
 40
30.0
176
     1
 62
     7
420
 16777215
176
     1
 90
        0
176
     1
 90
        4
176
     1
 62
     7
176
     1
 62
   257
176
     1
 90
        1
176
     1
 90
        1
176
     1
 40
1.0
176
     1
 90
        8
176
     1
 62
     7
176
     1
 40
1.0
176
     1
 90
        1
176
     1
 90
        6
176
     1
 90
        2
176
     1
 62
     7
176
     1
 90
        5
176
     1
 90
        0
176
     1
 90
        0
176
     1
290
     0
176
     1
 90
        1
176
     1
 40
0.0
176
     1
 90
        0
176
     1
290
     0
176
     1
290
     1
176
     1
290
     1
176
     1
290
     0
176
     1
290
     0
176
     1
290
     0
176
     1
290
     0
176
     1
290
     0
176
     1
290
     0
176
     1
 90
       50
176
     1
 40
0.0
176
     1
 40
1.0
176
     1
 90
        0
176
     1
 62
    18
420
        0
176
     1
 90
       50
176
     1
 90
        3
176
     1
 62
     5
420
      255
176
     1
290
     0
176
     1
 90
       50
176
     1
 90
       50
176
     1
 90
       50
176
     1
290
     0
176
     1
 90
       50
176
     1
 62
   256
176
     0
 40
1.0
176
     0
 90
        2
176
     1
  1
strokes_ogs.tif
176
     1
290
     0
176
     1
 40
1.0
176
     1
 40
1.0
176
     1
1001
ACAD
1000
AcDbSavedByObjectVersion
1070
     0
  0
VISUALSTYLE
  5
35
102
{ACAD_REACTORS
330
29
102
}
330
29
100
AcDbVisualStyle
  2
Brighten
 70
    12
177
     3
291
     1
 70
    58
 90
        2
176
     1
 90
        2
176
     1
 90
        0
176
     1
 90
        0
176
     1
 40
0.6
176
     1
 40
30.0
176
     1
 62
     7
420
 16777215
176
     1
 90
        1
176
     1
 90
        4
176
     1
 62
     7
176
     1
 62
   257
176
     1
 90
        1
176
     1
 90
        1
176
     1
 40
1.0
176
     1
 90
        8
176
     1
 62
     7
176
     1
 40
1.0
176
     1
 90
        1
176
     1
 90
        6
176
     1
 90
        2
176
     1
 62
     7
176
     1
 90
        5
176
     1
 90
        0
176
     1
 90
        0
176
     1
290
     0
176
     1
 90
        1
176
     1
 40
50.0
176
     1
 90
        0
176
     1
290
     0
176
     1
290
     1
176
     1
290
     1
176
     1
290
     0
176
     1
290
     0
176
     1
290
     0
176
     1
290
     0
176
     1
290
     0
176
     1
290
     0
176
     1
 90
       50
176
     1
 40
0.0
176
     1
 40
1.0
176
     1
 90
        0
176
     1
 62
    18
420
        0
176
     1
 90
       50
176
     1
 90
        3
176
     1
 62
     5
420
      255
176
     1
290
     0
176
     1
 90
       50
176
     1
 90
       50
176
     1
 90
       50
176
     1
290
     0
176
     1
 90
       50
176
     1
 62
   256
176
     0
 40
1.0
176
     0
 90
        2
176
     1
  1
strokes_ogs.tif
176
     1
290
     0
176
     1
 40
1.0
176
     1
 40
1.0
176
     1
1001
ACAD
1000
AcDbSavedByObjectVersion
1070
     0
  0
VISUALSTYLE
  5
39
102
{ACAD_REACTORS
330
29
102
}
330
29
100
AcDbVisualStyle
  2
ColorChange
 70
    16
177
     3
291
     1
 70
    58
 90
        2
176
     1
 90
        2
176
     1
 90
        3
176
     1
 90
        0
176
     1
 40
0.6
176
     1
 40
30.0
176
     1
 62
     8
420
  8421504
176
     1
 90
        1
176
     1
 90
        4
176
     1
 62
     7
176
     1
 62
   257
176
     1
 90
        1
176
     1
 90
        1
176
     1
 40
1.0
176
     1
 90
        8
176
     1
 62
     8
420
  8421504
176
     1
 40
1.0
176
     1
 90
        1
176
     1
 90
        6
176
     1
 90
        2
176
     1
 62
     7
176
     1
 90
        5
176
     1
 90
        0
176
     1
 90
        0
176
     1
290
     0
176
     1
 90
        1
176
     1
 40
0.0
176
     1
 90
        0
176
     1
290
     0
176
     1
290
     1
176
     1
290
     1
176
     1
290
     0
176
     1
290
     0
176
     1
290
     0
176
     1
290
     0
176
     1
290
     0
176
     1
290
     0
176
     1
 90
       50
176
     1
 40
0.0
176
     1
 40
1.0
176
     1
 90
        0
176
     1
 62
    18
420
        0
176
     1
 90
       50
176
     1
 90
        3
176
     1
 62
     5
420
      255
176
     1
290
     0
176
     1
 90
       50
176
     1
 90
       50
176
     1
 90
       50
176
     1
290
     0
176
     1
 90
       50
176
     1
 62
   256
176
     0
 40
1.0
176
     0
 90
        2
176
     1
  1
strokes_ogs.tif
176
     1
290
     0
176
     1
 40
1.0
176
     1
 40
1.0
176
     1
1001
ACAD
1000
AcDbSavedByObjectVersion
1070
     0
  0
VISUALSTYLE
  5
32
102
{ACAD_REACTORS
330
29
102
}
330
29
100
AcDbVisualStyle
  2
Conceptual
 70
     9
177
     3
291
     0
 70
    58
 90
        3
176
     1
 90
        2
176
     1
 90
        0
176
     1
 90
        0
176
     1
 40
0.6
176
     1
 40
30.0
176
     1
 62
     7
420
 16777215
176
     1
 90
        2
176
     1
 90
        2
176
     1
 62
     7
176
     1
 62
   257
176
     1
 90
        1
176
     1
 90
        1
176
     1
 40
179.0
176
     1
 90
        8
176
     1
 62
     7
176
     1
 40
1.0
176
     1
 90
        1
176
     1
 90
        6
176
     1
 90
        2
176
     1
 62
     7
176
     1
 90
        3
176
     1
 90
        0
176
     1
 90
        0
176
     1
290
     0
176
     1
 90
        1
176
     1
 40
0.0
176
     1
 90
        0
176
     1
290
     0
176
     1
290
     1
176
     1
290
     1
176
     1
290
     0
176
     1
290
     0
176
     1
290
     0
176
     1
290
     0
176
     1
290
     0
176
     1
290
     0
176
     1
 90
       50
176
     1
 40
0.0
176
     1
 40
1.0
176
     1
 90
        0
176
     1
 62
    18
420
        0
176
     1
 90
       50
176
     1
 90
        3
176
     1
 62
     5
420
      255
176
     1
290
     0
176
     1
 90
       50
176
     1
 90
       50
176
     1
 90
       50
176
     1
290
     0
176
     1
 90
       50
176
     1
 62
   256
176
     0
 40
1.0
176
     0
 90
        2
176
     1
  1
strokes_ogs.tif
176
     1
290
     0
176
     1
 40
1.0
176
     1
 40
1.0
176
     1
1001
ACAD
1000
AcDbSavedByObjectVersion
1070
     0
  0
VISUALSTYLE
  5
34
102
{ACAD_REACTORS
330
29
102
}
330
29
100
AcDbVisualStyle
  2
Dim
 70
    11
177
     3
291
     1
 70
    58
 90
        2
176
     1
 90
        2
176
     1
 90
        0
176
     1
 90
        0
176
     1
 40
0.6
176
     1
 40
30.0
176
     1
 62
     7
420
 16777215
176
     1
 90
        1
176
     1
 90
        4
176
     1
 62
     7
176
     1
 62
   257
176
     1
 90
        1
176
     1
 90
        1
176
     1
 40
1.0
176
     1
 90
        8
176
     1
 62
     7
176
     1
 40
1.0
176
     1
 90
        1
176
     1
 90
        6
176
     1
 90
        2
176
     1
 62
     7
176
     1
 90
        5
176
     1
 90
        0
176
     1
 90
        0
176
     1
290
     0
176
     1
 90
        1
176
     1
 40
-50.0
176
     1
 90
        0
176
     1
290
     0
176
     1
290
     1
176
     1
290
     1
176
     1
290
     0
176
     1
290
     0
176
     1
290
     0
176
     1
290
     0
176
     1
290
     0
176
     1
290
     0
176
     1
 90
       50
176
     1
 40
0.0
176
     1
 40
1.0
176
     1
 90
        0
176
     1
 62
    18
420
        0
176
     1
 90
       50
176
     1
 90
        3
176
     1
 62
     5
420
      255
176
     1
290
     0
176
     1
 90
       50
176
     1
 90
       50
176
     1
 90
       50
176
     1
290
     0
176
     1
 90
       50
176
     1
 62
   256
176
     0
 40
1.0
176
     0
 90
        2
176
     1
  1
strokes_ogs.tif
176
     1
290
     0
176
     1
 40
1.0
176
     1
 40
1.0
176
     1
1001
ACAD
1000
AcDbSavedByObjectVersion
1070
     0
  0
VISUALSTYLE
  5
41
102
{ACAD_REACTORS
330
29
102
}
330
29
100
AcDbVisualStyle
  2
EdgeColorOff
 70
    22
177
     3
291
     1
 70
    58
 90
        2
176
     0
 90
        2
176
     0
 90
        0
176
     0
 90
        0
176
     0
 40
0.6
176
     0
 40
30.0
176
     0
 62
     7
420
 16777215
176
     0
 90
        1
176
     0
 90
        4
176
     0
 62
     7
176
     0
 62
   257
176
     0
 90
        1
176
     0
 90
        1
176
     0
 40
1.0
176
     0
 90
        8
176
     2
 62
     7
176
     0
 40
1.0
176
     0
 90
        1
176
     0
 90
        6
176
     0
 90
        2
176
     0
 62
     7
176
     0
 90
        5
176
     0
 90
        0
176
     0
 90
        0
176
     0
290
     0
176
     0
 90
        1
176
     0
 40
0.0
176
     0
 90
        0
176
     0
290
     0
176
     0
290
     1
176
     0
290
     1
176
     0
290
     0
176
     0
290
     0
176
     0
290
     0
176
     0
290
     0
176
     0
290
     0
176
     0
290
     0
176
     0
 90
       50
176
     0
 40
0.0
176
     0
 40
1.0
176
     0
 90
        0
176
     0
 62
    18
420
        0
176
     0
 90
       50
176
     0
 90
        3
176
     0
 62
     5
420
      255
176
     0
290
     0
176
     0
 90
       50
176
     0
 90
       50
176
     0
 90
       50
176
     0
290
     0
176
     0
 90
       50
176
     0
 62
   256
176
     0
 40
1.0
176
     0
 90
        2
176
     0
  1
strokes_ogs.tif
176
     0
290
     0
176
     0
 40
1.0
176
     0
 40
1.0
176
     0
1001
ACAD
1000
AcDbSavedByObjectVersion
1070
     0
  0
VISUALSTYLE
  5
38
102
{ACAD_REACTORS
330
29
102
}
330
29
100
AcDbVisualStyle
  2
Facepattern
 70
    15
177
     3
291
     1
 70
    58
 90
        2
176
     1
 90
        2
176
     1
 90
        0
176
     1
 90
        0
176
     1
 40
0.6
176
     1
 40
30.0
176
     1
 62
     7
420
 16777215
176
     1
 90
        1
176
     1
 90
        4
176
     1
 62
     7
176
     1
 62
   257
176
     1
 90
        1
176
     1
 90
        1
176
     1
 40
1.0
176
     1
 90
        8
176
     1
 62
     7
176
     1
 40
1.0
176
     1
 90
        1
176
     1
 90
        6
176
     1
 90
        2
176
     1
 62
     7
176
     1
 90
        5
176
     1
 90
        0
176
     1
 90
        0
176
     1
290
     0
176
     1
 90
        1
176
     1
 40
0.0
176
     1
 90
        0
176
     1
290
     0
176
     1
290
     1
176
     1
290
     1
176
     1
290
     0
176
     1
290
     0
176
     1
290
     0
176
     1
290
     0
176
     1
290
     0
176
     1
290
     0
176
     1
 90
       50
176
     1
 40
0.0
176
     1
 40
1.0
176
     1
 90
        0
176
     1
 62
    18
420
        0
176
     1
 90
       50
176
     1
 90
        3
176
     1
 62
     5
420
      255
176
     1
290
     0
176
     1
 90
       50
176
     1
 90
       50
176
     1
 90
       50
176
     1
290
     0
176
     1
 90
       50
176
     1
 62
   256
176
     0
 40
1.0
176
     0
 90
        2
176
     1
  1
strokes_ogs.tif
176
     1
290
     0
176
     1
 40
1.0
176
     1
 40
1.0
176
     1
1001
ACAD
1000
AcDbSavedByObjectVersion
1070
     0
  0
VISUALSTYLE
  5
2A
102
{ACAD_REACTORS
330
29
102
}
330
29
100
AcDbVisualStyle
  2
Flat
 70
     0
177
     3
291
     1
 70
    58
 90
        2
176
     1
 90
        1
176
     1
 90
        1
176
     1
 90
        2
176
     1
 40
0.6
176
     1
 40
30.0
176
     1
 62
     7
420
 16777215
176
     1
 90
        0
176
     1
 90
        0
176
     1
 62
     7
176
     1
 62
   257
176
     1
 90
        1
176
     1
 90
        1
176
     1
 40
1.0
176
     1
 90
        8
176
     1
 62
     7
176
     1
 40
1.0
176
     1
 90
        1
176
     1
 90
        6
176
     1
 90
        2
176
     1
 62
     7
176
     1
 90
        5
176
     1
 90
        0
176
     1
 90
        0
176
     1
290
     0
176
     1
 90
       13
176
     1
 40
0.0
176
     1
 90
        0
176
     1
290
     0
176
     1
290
     1
176
     1
290
     1
176
     1
290
     0
176
     1
290
     0
176
     1
290
     0
176
     1
290
     0
176
     1
290
     0
176
     1
290
     0
176
     1
 90
       50
176
     1
 40
0.0
176
     1
 40
1.0
176
     1
 90
        0
176
     1
 62
    18
420
        0
176
     1
 90
       50
176
     1
 90
        3
176
     1
 62
     5
420
      255
176
     1
290
     0
176
     1
 90
       50
176
     1
 90
       50
176
     1
 90
       50
176
     1
290
     0
176
     1
 90
       50
176
     1
 62
   256
176
     0
 40
1.0
176
     0
 90
        2
176
     1
  1
strokes_ogs.tif
176
     1
290
     0
176
     1
 40
1.0
176
     1
 40
1.0
176
     1
1001
ACAD
1000
AcDbSavedByObjectVersion
1070
     0
  0
VISUALSTYLE
  5
2B
102
{ACAD_REACTORS
330
29
102
}
330
29
100
AcDbVisualStyle
  2
FlatWithEdges
 70
     1
177
     3
291
     1
 70
    58
 90
        2
176
     1
 90
        1
176
     1
 90
        1
176
     1
 90
        2
176
     1
 40
0.6
176
     1
 40
30.0
176
     1
 62
     7
420
 16777215
176
     1
 90
        1
176
     1
 90
        0
176
     1
 62
     7
176
     1
 62
   257
176
     1
 90
        1
176
     1
 90
        1
176
     1
 40
1.0
176
     1
 90
        0
176
     1
 62
   257
176
     1
 40
1.0
176
     1
 90
        1
176
     1
 90
        6
176
     1
 90
        2
176
     1
 62
     7
176
     1
 90
        5
176
     1
 90
        0
176
     1
 90
        0
176
     1
290
     0
176
     1
 90
       13
176
     1
 40
0.0
176
     1
 90
        0
176
     1
290
     0
176
     1
290
     1
176
     1
290
     1
176
     1
290
     0
176
     1
290
     0
176
     1
290
     0
176
     1
290
     0
176
     1
290
     0
176
     1
290
     0
176
     1
 90
       50
176
     1
 40
0.0
176
     1
 40
1.0
176
     1
 90
        0
176
     1
 62
    18
420
        0
176
     1
 90
       50
176
     1
 90
        3
176
     1
 62
     5
420
      255
176
     1
290
     0
176
     1
 90
       50
176
     1
 90
       50
176
     1
 90
       50
176
     1
290
     0
176
     1
 90
       50
176
     1
 62
   256
176
     0
 40
1.0
176
     0
 90
        2
176
     1
  1
strokes_ogs.tif
176
     1
290
     0
176
     1
 40
1.0
176
     1
 40
1.0
176
     1
1001
ACAD
1000
AcDbSavedByObjectVersion
1070
     0
  0
VISUALSTYLE
  5
2C
102
{ACAD_REACTORS
330
29
102
}
330
29
100
AcDbVisualStyle
  2
Gouraud
 70
     2
177
     3
291
     1
 70
    58
 90
        2
176
     1
 90
        2
176
     1
 90
        1
176
     1
 90
        2
176
     1
 40
0.6
176
     1
 40
30.0
176
     1
 62
     7
420
 16777215
176
     1
 90
        0
176
     1
 90
        0
176
     1
 62
     7
176
     1
 62
   257
176
     1
 90
        1
176
     1
 90
        1
176
     1
 40
1.0
176
     1
 90
        0
176
     1
 62
     7
176
     1
 40
1.0
176
     1
 90
        1
176
     1
 90
        6
176
     1
 90
        2
176
     1
 62
     7
176
     1
 90
        5
176
     1
 90
        0
176
     1
 90
        0
176
     1
290
     0
176
     1
 90
       13
176
     1
 40
0.0
176
     1
 90
        0
176
     1
290
     0
176
     1
290
     1
176
     1
290
     1
176
     1
290
     0
176
     1
290
     0
176
     1
290
     0
176
     1
290
     0
176
     1
290
     0
176
     1
290
     0
176
     1
 90
       50
176
     1
 40
0.0
176
     1
 40
1.0
176
     1
 90
        0
176
     1
 62
    18
420
        0
176
     1
 90
       50
176
     1
 90
        3
176
     1
 62
     5
420
      255
176
     1
290
     0
176
     1
 90
       50
176
     1
 90
       50
176
     1
 90
       50
176
     1
290
     0
176
     1
 90
       50
176
     1
 62
   256
176
     0
 40
1.0
176
     0
 90
        2
176
     1
  1
strokes_ogs.tif
176
     1
290
     0
176
     1
 40
1.0
176
     1
 40
1.0
176
     1
1001
ACAD
1000
AcDbSavedByObjectVersion
1070
     0
  0
VISUALSTYLE
  5
2D
102
{ACAD_REACTORS
330
29
102
}
330
29
100
AcDbVisualStyle
  2
GouraudWithEdges
 70
     3
177
     3
291
     1
 70
    58
 90
        2
176
     1
 90
        2
176
     1
 90
        1
176
     1
 90
        2
176
     1
 40
0.6
176
     1
 40
30.0
176
     1
 62
     7
420
 16777215
176
     1
 90
        1
176
     1
 90
        0
176
     1
 62
     7
176
     1
 62
   257
176
     1
 90
        1
176
     1
 90
        1
176
     1
 40
1.0
176
     1
 90
        0
176
     1
 62
   257
176
     1
 40
1.0
176
     1
 90
        1
176
     1
 90
        6
176
     1
 90
        2
176
     1
 62
     7
176
     1
 90
        5
176
     1
 90
        0
176
     1
 90
        0
176
     1
290
     0
176
     1
 90
       13
176
     1
 40
0.0
176
     1
 90
        0
176
     1
290
     0
176
     1
290
     1
176
     1
290
     1
176
     1
290
     0
176
     1
290
     0
176
     1
290
     0
176
     1
290
     0
176
     1
290
     0
176
     1
290
     0
176
     1
 90
       50
176
     1
 40
0.0
176
     1
 40
1.0
176
     1
 90
        0
176
     1
 62
    18
420
        0
176
     1
 90
       50
176
     1
 90
        3
176
     1
 62
     5
420
      255
176
     1
290
     0
176
     1
 90
       50
176
     1
 90
       50
176
     1
 90
       50
176
     1
290
     0
176
     1
 90
       50
176
     1
 62
   256
176
     0
 40
1.0
176
     0
 90
        2
176
     1
  1
strokes_ogs.tif
176
     1
290
     0
176
     1
 40
1.0
176
     1
 40
1.0
176
     1
1001
ACAD
1000
AcDbSavedByObjectVersion
1070
     0
  0
VISUALSTYLE
  5
31
102
{ACAD_REACTORS
330
29
102
}
330
29
100
AcDbVisualStyle
  2
Hidden
 70
     6
177
     3
291
     0
 70
    58
 90
        1
176
     1
 90
        2
176
     1
 90
        2
176
     1
 90
        0
176
     1
 40
0.6
176
     1
 40
30.0
176
     1
 62
     7
420
 16777215
176
     1
 90
        2
176
     1
 90
        2
176
     1
 62
     7
176
     1
 62
   257
176
     1
 90
        2
176
     1
 90
        1
176
     1
 40
40.0
176
     1
 90
        0
176
     1
 62
   257
176
     1
 40
1.0
176
     1
 90
        1
176
     1
 90
        6
176
     1
 90
        2
176
     1
 62
     7
176
     1
 90
        3
176
     1
 90
        0
176
     1
 90
        0
176
     1
290
     0
176
     1
 90
        1
176
     1
 40
0.0
176
     1
 90
        0
176
     1
290
     0
176
     1
290
     1
176
     1
290
     1
176
     1
290
     0
176
     1
290
     0
176
     1
290
     0
176
     1
290
     0
176
     1
290
     0
176
     1
290
     0
176
     1
 90
       50
176
     1
 40
0.0
176
     1
 40
1.0
176
     1
 90
        0
176
     1
 62
    18
420
        0
176
     1
 90
       50
176
     1
 90
        3
176
     1
 62
     5
420
      255
176
     1
290
     0
176
     1
 90
       50
176
     1
 90
       50
176
     1
 90
       50
176
     1
290
     0
176
     1
 90
       50
176
     1
 62
   256
176
     0
 40
1.0
176
     0
 90
        2
176
     1
  1
strokes_ogs.tif
176
     1
290
     0
176
     1
 40
1.0
176
     1
 40
1.0
176
     1
1001
ACAD
1000
AcDbSavedByObjectVersion
1070
     0
  0
VISUALSTYLE
  5
3F
102
{ACAD_REACTORS
330
29
102
}
330
29
100
AcDbVisualStyle
  2
JitterOff
 70
    20
177
     3
291
     1
 70
    58
 90
        2
176
     0
 90
        2
176
     0
 90
        0
176
     0
 90
        0
176
     0
 40
0.6
176
     0
 40
30.0
176
     0
 62
     7
420
 16777215
176
     0
 90
        1
176
     0
 90
        4
176
     0
 62
     7
176
     0
 62
   257
176
     0
 90
        1
176
     0
 90
        1
176
     0
 40
1.0
176
     0
 90
       10
176
     2
 62
     7
176
     0
 40
1.0
176
     0
 90
        1
176
     0
 90
        6
176
     0
 90
        2
176
     0
 62
     7
176
     0
 90
        5
176
     0
 90
        0
176
     0
 90
        0
176
     0
290
     0
176
     0
 90
        1
176
     0
 40
0.0
176
     0
 90
        0
176
     0
290
     0
176
     0
290
     1
176
     0
290
     1
176
     0
290
     0
176
     0
290
     0
176
     0
290
     0
176
     0
290
     0
176
     0
290
     0
176
     0
290
     0
176
     0
 90
       50
176
     0
 40
0.0
176
     0
 40
1.0
176
     0
 90
        0
176
     0
 62
    18
420
        0
176
     0
 90
       50
176
     0
 90
        3
176
     0
 62
     5
420
      255
176
     0
290
     0
176
     0
 90
       50
176
     0
 90
       50
176
     0
 90
       50
176
     0
290
     0
176
     0
 90
       50
176
     0
 62
   256
176
     0
 40
1.0
176
     0
 90
        2
176
     0
  1
strokes_ogs.tif
176
     0
290
     0
176
     0
 40
1.0
176
     0
 40
1.0
176
     0
1001
ACAD
1000
AcDbSavedByObjectVersion
1070
     0
  0
VISUALSTYLE
  5
37
102
{ACAD_REACTORS
330
29
102
}
330
29
100
AcDbVisualStyle
  2
Linepattern
 70
    14
177
     3
291
     1
 70
    58
 90
        2
176
     1
 90
        2
176
     1
 90
        0
176
     1
 90
        0
176
     1
 40
0.6
176
     1
 40
30.0
176
     1
 62
     7
420
 16777215
176
     1
 90
        1
176
     1
 90
        4
176
     1
 62
     7
176
     1
 62
   257
176
     1
 90
        7
176
     1
 90
        7
176
     1
 40
1.0
176
     1
 90
        8
176
     1
 62
     7
176
     1
 40
1.0
176
     1
 90
        1
176
     1
 90
        6
176
     1
 90
        2
176
     1
 62
     7
176
     1
 90
        5
176
     1
 90
        0
176
     1
 90
        0
176
     1
290
     0
176
     1
 90
        1
176
     1
 40
0.0
176
     1
 90
        0
176
     1
290
     0
176
     1
290
     1
176
     1
290
     1
176
     1
290
     0
176
     1
290
     0
176
     1
290
     0
176
     1
290
     0
176
     1
290
     0
176
     1
290
     0
176
     1
 90
       50
176
     1
 40
0.0
176
     1
 40
1.0
176
     1
 90
        0
176
     1
 62
    18
420
        0
176
     1
 90
       50
176
     1
 90
        3
176
     1
 62
     5
420
      255
176
     1
290
     0
176
     1
 90
       50
176
     1
 90
       50
176
     1
 90
       50
176
     1
290
     0
176
     1
 90
       50
176
     1
 62
   256
176
     0
 40
1.0
176
     0
 90
        2
176
     1
  1
strokes_ogs.tif
176
     1
290
     0
176
     1
 40
1.0
176
     1
 40
1.0
176
     1
1001
ACAD
1000
AcDbSavedByObjectVersion
1070
     0
  0
VISUALSTYLE
  5
40
102
{ACAD_REACTORS
330
29
102
}
330
29
100
AcDbVisualStyle
  2
OverhangOff
 70
    21
177
     3
291
     1
 70
    58
 90
        2
176
     0
 90
        2
176
     0
 90
        0
176
     0
 90
        0
176
     0
 40
0.6
176
     0
 40
30.0
176
     0
 62
     7
420
 16777215
176
     0
 90
        1
176
     0
 90
        4
176
     0
 62
     7
176
     0
 62
   257
176
     0
 90
        1
176
     0
 90
        1
176
     0
 40
1.0
176
     0
 90
        9
176
     2
 62
     7
176
     0
 40
1.0
176
     0
 90
        1
176
     0
 90
        6
176
     0
 90
        2
176
     0
 62
     7
176
     0
 90
        5
176
     0
 90
        0
176
     0
 90
        0
176
     0
290
     0
176
     0
 90
        1
176
     0
 40
0.0
176
     0
 90
        0
176
     0
290
     0
176
     0
290
     1
176
     0
290
     1
176
     0
290
     0
176
     0
290
     0
176
     0
290
     0
176
     0
290
     0
176
     0
290
     0
176
     0
290
     0
176
     0
 90
       50
176
     0
 40
0.0
176
     0
 40
1.0
176
     0
 90
        0
176
     0
 62
    18
420
        0
176
     0
 90
       50
176
     0
 90
        3
176
     0
 62
     5
420
      255
176
     0
290
     0
176
     0
 90
       50
176
     0
 90
       50
176
     0
 90
       50
176
     0
290
     0
176
     0
 90
       50
176
     0
 62
   256
176
     0
 40
1.0
176
     0
 90
        2
176
     0
  1
strokes_ogs.tif
176
     0
290
     0
176
     0
 40
1.0
176
     0
 40
1.0
176
     0
1001
ACAD
1000
AcDbSavedByObjectVersion
1070
     0
  0
VISUALSTYLE
  5
33
102
{ACAD_REACTORS
330
29
102
}
330
29
100
AcDbVisualStyle
  2
Realistic
 70
     8
177
     3
291
     0
 70
    58
 90
        2
176
     1
 90
        3
176
     1
 90
        0
176
     1
 90
        2
176
     1
 40
0.6
176
     1
 40
30.0
176
     1
 62
     7
420
 16777215
176
     1
 90
        0
176
     1
 90
        0
176
     1
 62
     7
176
     1
 62
   257
176
     1
 90
        1
176
     1
 90
        1
176
     1
 40
1.0
176
     1
 90
        8
176
     1
 62
   257
176
     1
 40
1.0
176
     1
 90
        1
176
     1
 90
        6
176
     1
 90
        2
176
     1
 62
     7
176
     1
 90
        3
176
     1
 90
        0
176
     1
 90
        0
176
     1
290
     0
176
     1
 90
       13
176
     1
 40
0.0
176
     1
 90
        0
176
     1
290
     0
176
     1
290
     1
176
     1
290
     1
176
     1
290
     0
176
     1
290
     0
176
     1
290
     0
176
     1
290
     0
176
     1
290
     0
176
     1
290
     0
176
     1
 90
       50
176
     1
 40
0.0
176
     1
 40
1.0
176
     1
 90
        0
176
     1
 62
    18
420
        0
176
     1
 90
       50
176
     1
 90
        3
176
     1
 62
     5
420
      255
176
     1
290
     0
176
     1
 90
       50
176
     1
 90
       50
176
     1
 90
       50
176
     1
290
     0
176
     1
 90
       50
176
     1
 62
   256
176
     0
 40
1.0
176
     0
 90
        2
176
     1
  1
strokes_ogs.tif
176
     1
290
     0
176
     1
 40
1.0
176
     1
 40
1.0
176
     1
1001
ACAD
1000
AcDbSavedByObjectVersion
1070
     0
  0
VISUALSTYLE
  5
3E
102
{ACAD_REACTORS
330
29
102
}
330
29
100
AcDbVisualStyle
  2
Shaded
 70
    27
177
     3
291
     0
 70
    58
 90
        2
176
     1
 90
        2
176
     1
 90
        1
176
     1
 90
        2
176
     1
 40
0.6
176
     1
 40
30.0
176
     1
 62
     7
420
 16777215
176
     1
 90
        0
176
     1
 90
        4
176
     1
 62
     7
176
     1
 62
   257
176
     1
 90
        1
176
     1
 90
        1
176
     1
 40
1.0
176
     1
 90
        8
176
     1
 62
   257
176
     1
 40
1.0
176
     1
 90
        1
176
     1
 90
        6
176
     1
 90
        2
176
     1
 62
     8
420
  7895160
176
     1
 90
        3
176
     1
 90
        0
176
     1
 90
        0
176
     1
290
     0
176
     1
 90
        5
176
     1
 40
0.0
176
     1
 90
        0
176
     1
290
     0
176
     1
290
     1
176
     1
290
     1
176
     1
290
     0
176
     1
290
     0
176
     1
290
     0
176
     1
290
     0
176
     1
290
     0
176
     1
290
     0
176
     1
 90
       50
176
     1
 40
0.0
176
     1
 40
1.0
176
     1
 90
        0
176
     1
 62
    18
420
        0
176
     1
 90
       50
176
     1
 90
        3
176
     1
 62
     5
420
      255
176
     1
290
     0
176
     1
 90
       50
176
     1
 90
       50
176
     1
 90
       50
176
     1
290
     0
176
     1
 90
       50
176
     1
 62
   256
176
     0
 40
1.0
176
     0
 90
        2
176
     1
  1
strokes_ogs.tif
176
     1
290
     0
176
     1
 40
1.0
176
     1
 40
1.0
176
     1
1001
ACAD
1000
AcDbSavedByObjectVersion
1070
     0
  0
VISUALSTYLE
  5
3D
102
{ACAD_REACTORS
330
29
102
}
330
29
100
AcDbVisualStyle
  2
Shaded with edges
 70
    26
177
     3
291
     0
 70
    58
 90
        2
176
     1
 90
        2
176
     1
 90
        1
176
     1
 90
        2
176
     1
 40
0.6
176
     1
 40
30.0
176
     1
 62
     7
420
 16777215
176
     1
 90
        1
176
     1
 90
        2
176
     1
 62
     7
176
     1
 62
   257
176
     1
 90
        2
176
     1
 90
        1
176
     1
 40
1.0
176
     1
 90
        8
176
     1
 62
   257
176
     1
 40
1.0
176
     1
 90
        1
176
     1
 90
        6
176
     1
 90
        2
176
     1
 62
     7
176
     1
 90
        3
176
     1
 90
        0
176
     1
 90
        0
176
     1
290
     0
176
     1
 90
        5
176
     1
 40
0.0
176
     1
 90
        0
176
     1
290
     0
176
     1
290
     1
176
     1
290
     1
176
     1
290
     0
176
     1
290
     0
176
     1
290
     0
176
     1
290
     0
176
     1
290
     0
176
     1
290
     0
176
     1
 90
       50
176
     1
 40
0.0
176
     1
 40
1.0
176
     1
 90
        0
176
     1
 62
    18
420
        0
176
     1
 90
       50
176
     1
 90
        3
176
     1
 62
     5
420
      255
176
     1
290
     0
176
     1
 90
       50
176
     1
 90
       50
176
     1
 90
       50
176
     1
290
     0
176
     1
 90
       50
176
     1
 62
   256
176
     0
 40
1.0
176
     0
 90
        2
176
     1
  1
strokes_ogs.tif
176
     1
290
     0
176
     1
 40
1.0
176
     1
 40
1.0
176
     1
1001
ACAD
1000
AcDbSavedByObjectVersion
1070
     0
  0
VISUALSTYLE
  5
3A
102
{ACAD_REACTORS
330
29
102
}
330
29
100
AcDbVisualStyle
  2
Shades of Gray
 70
    23
177
     3
291
     0
 70
    58
 90
        2
176
     1
 90
        2
176
     1
 90
        3
176
     1
 90
        0
176
     1
 40
0.6
176
     1
 40
30.0
176
     1
 62
     7
420
 16777215
176
     1
 90
        2
176
     1
 90
        2
176
     1
 62
     7
176
     1
 62
     7
176
     1
 90
        1
176
     1
 90
        1
176
     1
 40
40.0
176
     1
 90
        8
176
     1
 62
     7
176
     1
 40
1.0
176
     1
 90
        1
176
     1
 90
        6
176
     1
 90
        2
176
     1
 62
     7
176
     1
 90
        3
176
     1
 90
        0
176
     1
 90
        0
176
     1
290
     0
176
     1
 90
        1
176
     1
 40
0.0
176
     1
 90
        0
176
     1
290
     0
176
     1
290
     1
176
     1
290
     1
176
     1
290
     0
176
     1
290
     0
176
     1
290
     0
176
     1
290
     0
176
     1
290
     0
176
     1
290
     0
176
     1
 90
       50
176
     1
 40
0.0
176
     1
 40
1.0
176
     1
 90
        0
176
     1
 62
    18
420
        0
176
     1
 90
       50
176
     1
 90
        3
176
     1
 62
     5
420
      255
176
     1
290
     0
176
     1
 90
       50
176
     1
 90
       50
176
     1
 90
       50
176
     1
290
     0
176
     1
 90
       50
176
     1
 62
   256
176
     0
 40
1.0
176
     0
 90
        2
176
     1
  1
strokes_ogs.tif
176
     1
290
     0
176
     1
 40
1.0
176
     1
 40
1.0
176
     1
1001
ACAD
1000
AcDbSavedByObjectVersion
1070
     0
  0
VISUALSTYLE
  5
3B
102
{ACAD_REACTORS
330
29
102
}
330
29
100
AcDbVisualStyle
  2
Sketchy
 70
    24
177
     3
291
     0
 70
    58
 90
        1
176
     1
 90
        2
176
     1
 90
        2
176
     1
 90
        0
176
     1
 40
0.6
176
     1
 40
30.0
176
     1
 62
     7
420
 16777215
176
     1
 90
        2
176
     1
 90
        2
176
     1
 62
     7
176
     1
 62
     7
176
     1
 90
        1
176
     1
 90
        1
176
     1
 40
40.0
176
     1
 90
       11
176
     1
 62
     7
176
     1
 40
1.0
176
     1
 90
        1
176
     1
 90
        6
176
     1
 90
        2
176
     1
 62
     7
176
     1
 90
        6
176
     1
 90
        0
176
     1
 90
        0
176
     1
290
     0
176
     1
 90
        1
176
     1
 40
0.0
176
     1
 90
        0
176
     1
290
     0
176
     1
290
     1
176
     1
290
     1
176
     1
290
     0
176
     1
290
     0
176
     1
290
     0
176
     1
290
     0
176
     1
290
     0
176
     1
290
     0
176
     1
 90
       50
176
     1
 40
0.0
176
     1
 40
1.0
176
     1
 90
        0
176
     1
 62
    18
420
        0
176
     1
 90
       50
176
     1
 90
        3
176
     1
 62
     5
420
      255
176
     1
290
     0
176
     1
 90
       50
176
     1
 90
       50
176
     1
 90
       50
176
     1
290
     0
176
     1
 90
       50
176
     1
 62
   256
176
     0
 40
1.0
176
     0
 90
        2
176
     1
  1
strokes_ogs.tif
176
     1
290
     0
176
     1
 40
1.0
176
     1
 40
1.0
176
     1
1001
ACAD
1000
AcDbSavedByObjectVersion
1070
     0
  0
VISUALSTYLE
  5
36
102
{ACAD_REACTORS
330
29
102
}
330
29
100
AcDbVisualStyle
  2
Thicken
 70
    13
177
     3
291
     1
 70
    58
 90
        2
176
     1
 90
        2
176
     1
 90
        0
176
     1
 90
        0
176
     1
 40
0.6
176
     1
 40
30.0
176
     1
 62
     7
420
 16777215
176
     1
 90
        1
176
     1
 90
        4
176
     1
 62
     7
176
     1
 62
   257
176
     1
 90
        1
176
     1
 90
        1
176
     1
 40
1.0
176
     1
 90
       12
176
     1
 62
     7
176
     1
 40
1.0
176
     1
 90
        1
176
     1
 90
        6
176
     1
 90
        2
176
     1
 62
     7
176
     1
 90
        5
176
     1
 90
        0
176
     1
 90
        0
176
     1
290
     0
176
     1
 90
        1
176
     1
 40
0.0
176
     1
 90
        0
176
     1
290
     0
176
     1
290
     1
176
     1
290
     1
176
     1
290
     0
176
     1
290
     0
176
     1
290
     0
176
     1
290
     0
176
     1
290
     0
176
     1
290
     0
176
     1
 90
       50
176
     1
 40
0.0
176
     1
 40
1.0
176
     1
 90
        0
176
     1
 62
    18
420
        0
176
     1
 90
       50
176
     1
 90
        3
176
     1
 62
     5
420
      255
176
     1
290
     0
176
     1
 90
       50
176
     1
 90
       50
176
     1
 90
       50
176
     1
290
     0
176
     1
 90
       50
176
     1
 62
   256
176
     0
 40
1.0
176
     0
 90
        2
176
     1
  1
strokes_ogs.tif
176
     1
290
     0
176
     1
 40
1.0
176
     1
 40
1.0
176
     1
1001
ACAD
1000
AcDbSavedByObjectVersion
1070
     0
  0
VISUALSTYLE
  5
30
102
{ACAD_REACTORS
330
29
102
}
330
29
100
AcDbVisualStyle
  2
Wireframe
 70
     5
177
     3
291
     0
 70
    58
 90
        0
176
     1
 90
        2
176
     1
 90
        0
176
     1
 90
        0
176
     1
 40
0.6
176
     1
 40
30.0
176
     1
 62
     7
420
 16777215
176
     1
 90
        1
176
     1
 90
        4
176
     1
 62
     7
176
     1
 62
   257
176
     1
 90
        1
176
     1
 90
        1
176
     1
 40
1.0
176
     1
 90
        0
176
     1
 62
   257
176
     1
 40
1.0
176
     1
 90
        1
176
     1
 90
        6
176
     1
 90
        2
176
     1
 62
     7
176
     1
 90
        3
176
     1
 90
        0
176
     1
 90
        0
176
     1
290
     0
176
     1
 90
        1
176
     1
 40
0.0
176
     1
 90
        0
176
     1
290
     0
176
     1
290
     1
176
     1
290
     1
176
     1
290
     0
176
     1
290
     0
176
     1
290
     0
176
     1
290
     0
176
     1
290
     0
176
     1
290
     0
176
     1
 90
       50
176
     1
 40
0.0
176
     1
 40
1.0
176
     1
 90
        0
176
     1
 62
    18
420
        0
176
     1
 90
       50
176
     1
 90
        3
176
     1
 62
     5
420
      255
176
     1
290
     0
176
     1
 90
       50
176
     1
 90
       50
176
     1
 90
       50
176
     1
290
     0
176
     1
 90
       50
176
     1
 62
   256
176
     0
 40
1.0
176
     0
 90
        2
176
     1
  1
strokes_ogs.tif
176
     1
290
     0
176
     1
 40
1.0
176
     1
 40
1.0
176
     1
1001
ACAD
1000
AcDbSavedByObjectVersion
1070
     0
  0
VISUALSTYLE
  5
3C
102
{ACAD_REACTORS
330
29
102
}
330
29
100
AcDbVisualStyle
  2
X-Ray
 70
    25
177
     3
291
     0
 70
    58
 90
        2
176
     1
 90
        2
176
     1
 90
        1
176
     1
 90
        1
176
     1
 40
0.5
176
     1
 40
30.0
176
     1
 62
     7
420
 16777215
176
     1
 90
        1
176
     1
 90
        0
176
     1
 62
     7
176
     1
 62
   257
176
     1
 90
        1
176
     1
 90
        1
176
     1
 40
1.0
176
     1
 90
        8
176
     1
 62
     7
176
     1
 40
1.0
176
     1
 90
        1
176
     1
 90
        6
176
     1
 90
        2
176
     1
 62
     7
176
     1
 90
        3
176
     1
 90
        0
176
     1
 90
        0
176
     1
290
     0
176
     1
 90
       13
176
     1
 40
0.0
176
     1
 90
        0
176
     1
290
     0
176
     1
290
     1
176
     1
290
     1
176
     1
290
     0
176
     1
290
     0
176
     1
290
     0
176
     1
290
     0
176
     1
290
     0
176
     1
290
     0
176
     1
 90
       50
176
     1
 40
0.0
176
     1
 40
1.0
176
     1
 90
        0
176
     1
 62
    18
420
        0
176
     1
 90
       50
176
     1
 90
        3
176
     1
 62
     5
420
      255
176
     1
290
     0
176
     1
 90
       50
176
     1
 90
       50
176
     1
 90
       50
176
     1
290
     0
176
     1
 90
       50
176
     1
 62
   256
176
     0
 40
1.0
176
     0
 90
        2
176
     1
  1
strokes_ogs.tif
176
     1
290
     0
176
     1
 40
1.0
176
     1
 40
1.0
176
     1
1001
ACAD
1000
AcDbSavedByObjectVersion
1070
     0
  0
DICTIONARYVAR
  5
5E4
102
{ACAD_REACTORS
330
5DF
102
}
330
5DF
100
DictionaryVariables
280
     0
  1
0
  0
DICTIONARYVAR
  5
5E5
102
{ACAD_REACTORS
330
5DF
102
}
330
5DF
100
DictionaryVariables
280
     0
  1
1:1
  0
DICTIONARYVAR
  5
5E1
102
{ACAD_REACTORS
330
5DF
102
}
330
5DF
100
DictionaryVariables
280
     0
  1
STANDARD
  0
DICTIONARYVAR
  5
5E0
102
{ACAD_REACTORS
330
5DF
102
}
330
5DF
100
DictionaryVariables
280
     0
  1
STANDARD
  0
DICTIONARYVAR
  5
5E2
102
{ACAD_REACTORS
330
5DF
102
}
330
5DF
100
DictionaryVariables
280
     0
  1
Imperial24
  0
DICTIONARYVAR
  5
5E3
102
{ACAD_REACTORS
330
5DF
102
}
330
5DF
100
DictionaryVariables
280
     0
  1
Imperial24
  0
DICTIONARY
  5
5EB
330
6B
100
AcDbDictionary
280
     1
281
     1
  3
ACAD_XREC_ROUNDTRIP
360
5EC
  0
DICTIONARY
  5
1A
330
19
100
AcDbDictionary
280
     1
281
     1
  3
BUMPTILE
360
1C
  3
DIFFUSETILE
360
1B
  3
OPACITYTILE
360
1F
  3
REFLECTIONTILE
360
1E
  3
REFRACTIONTILE
360
20
  3
SPECULARTILE
360
1D
  0
DICTIONARY
  5
12
330
11
100
AcDbDictionary
280
     1
281
     1
  3
BUMPTILE
360
14
  3
DIFFUSETILE
360
13
  3
OPACITYTILE
360
17
  3
REFLECTIONTILE
360
16
  3
REFRACTIONTILE
360
18
  3
SPECULARTILE
360
15
  0
DICTIONARY
  5
22
330
21
100
AcDbDictionary
280
     1
281
     1
  3
BUMPTILE
360
24
  3
DIFFUSETILE
360
23
  3
OPACITYTILE
360
27
  3
REFLECTIONTILE
360
26
  3
REFRACTIONTILE
360
28
  3
SPECULARTILE
360
25
  0
DICTIONARY
  5
5E9
330
69
100
AcDbDictionary
280
     1
281
     1
  3
ACAD_XREC_ROUNDTRIP
360
5EA
  0
DICTIONARY
  5
5E6
330
65
100
AcDbDictionary
280
     1
281
     1
  3
ACAD_ROUNDTRIP_2008_TABLESTYLE_CELLSTYLEMAP
360
5E7
  0
XRECORD
  5
5EC
102
{ACAD_REACTORS
330
5EB
102
}
330
5EB
100
AcDbXrecord
280
     1
102
DISPLAYNAME
  1
Imperial24
102
FLAGS
 90
        0
  0
XRECORD
  5
1C
102
{ACAD_REACTORS
330
1A
102
}
330
1A
100
AcDbXrecord
280
     1
270
     1
271
     1
  0
XRECORD
  5
1B
102
{ACAD_REACTORS
330
1A
102
}
330
1A
100
AcDbXrecord
280
     1
270
     1
271
     1
  0
XRECORD
  5
1F
102
{ACAD_REACTORS
330
1A
102
}
330
1A
100
AcDbXrecord
280
     1
270
     1
271
     1
  0
XRECORD
  5
1E
102
{ACAD_REACTORS
330
1A
102
}
330
1A
100
AcDbXrecord
280
     1
270
     1
271
     1
  0
XRECORD
  5
20
102
{ACAD_REACTORS
330
1A
102
}
330
1A
100
AcDbXrecord
280
     1
270
     1
271
     1
  0
XRECORD
  5
1D
102
{ACAD_REACTORS
330
1A
102
}
330
1A
100
AcDbXrecord
280
     1
270
     1
271
     1
  0
XRECORD
  5
14
102
{ACAD_REACTORS
330
12
102
}
330
12
100
AcDbXrecord
280
     1
270
     1
271
     1
  0
XRECORD
  5
13
102
{ACAD_REACTORS
330
12
102
}
330
12
100
AcDbXrecord
280
     1
270
     1
271
     1
  0
XRECORD
  5
17
102
{ACAD_REACTORS
330
12
102
}
330
12
100
AcDbXrecord
280
     1
270
     1
271
     1
  0
XRECORD
  5
16
102
{ACAD_REACTORS
330
12
102
}
330
12
100
AcDbXrecord
280
     1
270
     1
271
     1
  0
XRECORD
  5
18
102
{ACAD_REACTORS
330
12
102
}
330
12
100
AcDbXrecord
280
     1
270
     1
271
     1
  0
XRECORD
  5
15
102
{ACAD_REACTORS
330
12
102
}
330
12
100
AcDbXrecord
280
     1
270
     1
271
     1
  0
XRECORD
  5
24
102
{ACAD_REACTORS
330
22
102
}
330
22
100
AcDbXrecord
280
     1
270
     1
271
     1
  0
XRECORD
  5
23
102
{ACAD_REACTORS
330
22
102
}
330
22
100
AcDbXrecord
280
     1
270
     1
271
     1
  0
XRECORD
  5
27
102
{ACAD_REACTORS
330
22
102
}
330
22
100
AcDbXrecord
280
     1
270
     1
271
     1
  0
XRECORD
  5
26
102
{ACAD_REACTORS
330
22
102
}
330
22
100
AcDbXrecord
280
     1
270
     1
271
     1
  0
XRECORD
  5
28
102
{ACAD_REACTORS
330
22
102
}
330
22
100
AcDbXrecord
280
     1
270
     1
271
     1
  0
XRECORD
  5
25
102
{ACAD_REACTORS
330
22
102
}
330
22
100
AcDbXrecord
280
     1
270
     1
271
     1
  0
XRECORD
  5
5EA
102
{ACAD_REACTORS
330
5E9
102
}
330
5E9
100
AcDbXrecord
280
     1
102
DISPLAYNAME
  1
Imperial24
102
FLAGS
 90
        0
  0
CELLSTYLEMAP
  5
5E7
102
{ACAD_REACTORS
330
5E6
102
}
330
5E6
100
AcDbCellStyleMap
 90
        3
300
CELLSTYLE
  1
TABLEFORMAT_BEGIN
 90
        5
170
     1
 91
        0
 92
    32768
 62
   257
 93
        1
300
CONTENTFORMAT
  1
CONTENTFORMAT_BEGIN
 90
        0
 91
        0
 92
      512
 93
        0
300

 40
0.0
140
1.0
 94
        5
 62
     0
340
55
144
0.25
309
CONTENTFORMAT_END
171
     1
301
MARGIN
  1
CELLMARGIN_BEGIN
 40
1.5
 40
1.5
 40
1.5
 40
1.5
 40
0.18
 40
0.18
309
CELLMARGIN_END
 94
        0
309
TABLEFORMAT_END
  1
CELLSTYLE_BEGIN
 90
        1
 91
        1
300
_TITLE
309
CELLSTYLE_END
300
CELLSTYLE
  1
TABLEFORMAT_BEGIN
 90
        5
170
     1
 91
        0
 92
        0
 62
   257
 93
        1
300
CONTENTFORMAT
  1
CONTENTFORMAT_BEGIN
 90
        0
 91
        0
 92
      512
 93
        0
300

 40
0.0
140
1.0
 94
        5
 62
     0
340
55
144
0.18
309
CONTENTFORMAT_END
171
     1
301
MARGIN
  1
CELLMARGIN_BEGIN
 40
1.5
 40
1.5
 40
1.5
 40
1.5
 40
0.18
 40
0.18
309
CELLMARGIN_END
 94
        0
309
TABLEFORMAT_END
  1
CELLSTYLE_BEGIN
 90
        2
 91
        1
300
_HEADER
309
CELLSTYLE_END
300
CELLSTYLE
  1
TABLEFORMAT_BEGIN
 90
        5
170
     1
 91
        0
 92
        0
 62
   257
 93
        1
300
CONTENTFORMAT
  1
CONTENTFORMAT_BEGIN
 90
        0
 91
        0
 92
      512
 93
        0
300

 40
0.0
140
1.0
 94
        2
 62
     0
340
55
144
0.18
309
CONTENTFORMAT_END
171
     1
301
MARGIN
  1
CELLMARGIN_BEGIN
 40
1.5
 40
1.5
 40
1.5
 40
1.5
 40
0.18
 40
0.18
309
CELLMARGIN_END
 94
        0
309
TABLEFORMAT_END
  1
CELLSTYLE_BEGIN
 90
        3
 91
        2
300
_DATA
309
CELLSTYLE_END
  0
ENDSEC
  0
EOF
