  0
SECTION
  2
HEADER
  9
$ACADVER
  1
AC1027
  9
$ACADMAINTVER
 70
   125
  9
$DWGCODEPAGE
  3
ANSI_932
  9
$LASTSAVEDBY
  1
thangas
  9
$REQUIREDVERSIONS
160
                 0
  9
$INSBASE
 10
0.0
 20
0.0
 30
0.0
  9
$EXTMIN
 10
0.0
 20
0.0
 30
-37.053145
  9
$EXTMAX
 10
425.726255
 20
775.706654
 30
213.410781
  9
$LIMMIN
 10
0.0
 20
0.0
  9
$LIMMAX
 10
420.0
 20
297.0
  9
$ORTHOMODE
 70
     0
  9
$REGENMODE
 70
     1
  9
$FILLMODE
 70
     1
  9
$QTEXTMODE
 70
     0
  9
$MIRRTEXT
 70
     0
  9
$LTSCALE
 40
0.75
  9
$ATTMODE
 70
     1
  9
$TEXTSIZE
 40
3.5
  9
$TRACEWID
 40
1.0
  9
$TEXTSTYLE
  7
Standard
  9
$CLAYER
  8
0
  9
$CELTYPE
  6
ByLayer
  9
$CECOLOR
 62
   256
  9
$CELTSCALE
 40
1.0
  9
$DISPSILH
 70
     0
  9
$DIMSCALE
 40
1.0
  9
$DIMASZ
 40
3.5
  9
$DIMEXO
 40
2.1
  9
$DIMDLI
 40
10.5
  9
$DIMRND
 40
0.0
  9
$DIMDLE
 40
0.0
  9
$DIMEXE
 40
2.1
  9
$DIMTP
 40
0.1
  9
$DIMTM
 40
0.1
  9
$DIMTXT
 40
3.5
  9
$DIMCEN
 40
0.0
  9
$DIMTSZ
 40
0.0
  9
$DIMTOL
 70
     0
  9
$DIMLIM
 70
     0
  9
$DIMTIH
 70
     0
  9
$DIMTOH
 70
     0
  9
$DIMSE1
 70
     0
  9
$DIMSE2
 70
     0
  9
$DIMTAD
 70
     1
  9
$DIMZIN
 70
     8
  9
$DIMBLK
  1

  9
$DIMASO
 70
     1
  9
$DIMSHO
 70
     1
  9
$DIMPOST
  1

  9
$DIMAPOST
  1

  9
$DIMALT
 70
     0
  9
$DIMALTD
 70
     2
  9
$DIMALTF
 40
0.03937
  9
$DIMLFAC
 40
1.0
  9
$DIMTOFL
 70
     1
  9
$DIMTVP
 40
0.0
  9
$DIMTIX
 70
     0
  9
$DIMSOXD
 70
     0
  9
$DIMSAH
 70
     0
  9
$DIMBLK1
  1

  9
$DIMBLK2
  1

  9
$DIMSTYLE
  2
ISO-25
  9
$DIMCLRD
 70
   256
  9
$DIMCLRE
 70
   256
  9
$DIMCLRT
 70
   256
  9
$DIMTFAC
 40
0.714286
  9
$DIMGAP
 40
1.4
  9
$DIMJUST
 70
     0
  9
$DIMSD1
 70
     0
  9
$DIMSD2
 70
     0
  9
$DIMTOLJ
 70
     0
  9
$DIMTZIN
 70
     8
  9
$DIMALTZ
 70
    12
  9
$DIMALTTZ
 70
    12
  9
$DIMUPT
 70
     0
  9
$DIMDEC
 70
     2
  9
$DIMTDEC
 70
     2
  9
$DIMALTU
 70
     2
  9
$DIMALTTD
 70
     2
  9
$DIMTXSTY
  7
Standard
  9
$DIMAUNIT
 70
     0
  9
$DIMADEC
 70
     2
  9
$DIMALTRND
 40
0.0
  9
$DIMAZIN
 70
     2
  9
$DIMDSEP
 70
    46
  9
$DIMATFIT
 70
     3
  9
$DIMFRAC
 70
     0
  9
$DIMLDRBLK
  1

  9
$DIMLUNIT
 70
     2
  9
$DIMLWD
 70
    -2
  9
$DIMLWE
 70
    -2
  9
$DIMTMOVE
 70
     0
  9
$DIMFXL
 40
1.0
  9
$DIMFXLON
 70
     0
  9
$DIMJOGANG
 40
0.785398
  9
$DIMTFILL
 70
     0
  9
$DIMTFILLCLR
 70
     0
  9
$DIMARCSYM
 70
     0
  9
$DIMLTYPE
  6

  9
$DIMLTEX1
  6

  9
$DIMLTEX2
  6

  9
$DIMTXTDIRECTION
 70
     0
  9
$LUNITS
 70
     2
  9
$LUPREC
 70
     4
  9
$SKETCHINC
 40
1.0
  9
$FILLETRAD
 40
0.0
  9
$AUNITS
 70
     0
  9
$AUPREC
 70
     0
  9
$MENU
  1
.
  9
$ELEVATION
 40
0.0
  9
$PELEVATION
 40
0.0
  9
$THICKNESS
 40
0.0
  9
$LIMCHECK
 70
     0
  9
$CHAMFERA
 40
0.0
  9
$CHAMFERB
 40
0.0
  9
$CHAMFERC
 40
0.0
  9
$CHAMFERD
 40
0.0
  9
$SKPOLY
 70
     0
  9
$TDCREATE
 40
2459683.200150463
  9
$TDUCREATE
 40
2459682.825150463
  9
$TDUPDATE
 40
2459683.200150463
  9
$TDUUPDATE
 40
2459682.825150463
  9
$TDINDWG
 40
0.0000000000
  9
$TDUSRTIMER
 40
0.0000000000
  9
$USRTIMER
 70
     1
  9
$ANGBASE
 50
0.0
  9
$ANGDIR
 70
     0
  9
$PDMODE
 70
     0
  9
$PDSIZE
 40
0.0
  9
$PLINEWID
 40
0.0
  9
$SPLFRAME
 70
     0
  9
$SPLINETYPE
 70
     6
  9
$SPLINESEGS
 70
     8
  9
$HANDSEED
  5
6AC
  9
$SURFTAB1
 70
     6
  9
$SURFTAB2
 70
     6
  9
$SURFTYPE
 70
     6
  9
$SURFU
 70
     6
  9
$SURFV
 70
     6
  9
$UCSBASE
  2

  9
$UCSNAME
  2

  9
$UCSORG
 10
0.0
 20
0.0
 30
0.0
  9
$UCSXDIR
 10
1.0
 20
0.0
 30
0.0
  9
$UCSYDIR
 10
0.0
 20
1.0
 30
0.0
  9
$UCSORTHOREF
  2

  9
$UCSORTHOVIEW
 70
     0
  9
$UCSORGTOP
 10
0.0
 20
0.0
 30
0.0
  9
$UCSORGBOTTOM
 10
0.0
 20
0.0
 30
0.0
  9
$UCSORGLEFT
 10
0.0
 20
0.0
 30
0.0
  9
$UCSORGRIGHT
 10
0.0
 20
0.0
 30
0.0
  9
$UCSORGFRONT
 10
0.0
 20
0.0
 30
0.0
  9
$UCSORGBACK
 10
0.0
 20
0.0
 30
0.0
  9
$PUCSBASE
  2

  9
$PUCSNAME
  2

  9
$PUCSORG
 10
0.0
 20
0.0
 30
0.0
  9
$PUCSXDIR
 10
1.0
 20
0.0
 30
0.0
  9
$PUCSYDIR
 10
0.0
 20
1.0
 30
0.0
  9
$PUCSORTHOREF
  2

  9
$PUCSORTHOVIEW
 70
     0
  9
$PUCSORGTOP
 10
0.0
 20
0.0
 30
0.0
  9
$PUCSORGBOTTOM
 10
0.0
 20
0.0
 30
0.0
  9
$PUCSORGLEFT
 10
0.0
 20
0.0
 30
0.0
  9
$PUCSORGRIGHT
 10
0.0
 20
0.0
 30
0.0
  9
$PUCSORGFRONT
 10
0.0
 20
0.0
 30
0.0
  9
$PUCSORGBACK
 10
0.0
 20
0.0
 30
0.0
  9
$USERI1
 70
     0
  9
$USERI2
 70
     0
  9
$USERI3
 70
     0
  9
$USERI4
 70
     0
  9
$USERI5
 70
     0
  9
$USERR1
 40
0.0
  9
$USERR2
 40
0.0
  9
$USERR3
 40
0.0
  9
$USERR4
 40
0.0
  9
$USERR5
 40
0.0
  9
$WORLDVIEW
 70
     1
  9
$SHADEDGE
 70
     3
  9
$SHADEDIF
 70
    70
  9
$TILEMODE
 70
     1
  9
$MAXACTVP
 70
    64
  9
$PINSBASE
 10
0.0
 20
0.0
 30
0.0
  9
$PLIMCHECK
 70
     0
  9
$PEXTMIN
 10
1.000000E+20
 20
1.000000E+20
 30
1.000000E+20
  9
$PEXTMAX
 10
-1.000000E+20
 20
-1.000000E+20
 30
-1.000000E+20
  9
$PLIMMIN
 10
0.0
 20
0.0
  9
$PLIMMAX
 10
12.0
 20
9.0
  9
$UNITMODE
 70
     0
  9
$VISRETAIN
 70
     1
  9
$PLINEGEN
 70
     0
  9
$PSLTSCALE
 70
     1
  9
$TREEDEPTH
 70
  3020
  9
$CMLSTYLE
  2
Standard
  9
$CMLJUST
 70
     0
  9
$CMLSCALE
 40
20.0
  9
$PROXYGRAPHICS
 70
     1
  9
$MEASUREMENT
 70
     1
  9
$CELWEIGHT
370
    -1
  9
$ENDCAPS
280
     0
  9
$JOINSTYLE
280
     0
  9
$LWDISPLAY
290
     0
  9
$INSUNITS
 70
     4
  9
$HYPERLINKBASE
  1

  9
$STYLESHEET
  1

  9
$XEDIT
290
     1
  9
$CEPSNTYPE
380
     0
  9
$PSTYLEMODE
290
     1
  9
$FINGERPRINTGUID
  2
{9BEF64D1-29CD-2543-AF6D-3052E5EDC01E}
  9
$VERSIONGUID
  2
{2924761E-88F0-3941-84C9-CA5B02368C53}
  9
$EXTNAMES
290
     1
  9
$PSVPSCALE
 40
0.0
  9
$OLESTARTUP
290
     0
  9
$SORTENTS
280
   127
  9
$INDEXCTL
280
     0
  9
$HIDETEXT
280
     1
  9
$XCLIPFRAME
280
     0
  9
$HALOGAP
280
     0
  9
$OBSCOLOR
 70
   257
  9
$OBSLTYPE
280
     0
  9
$INTERSECTIONDISPLAY
280
     0
  9
$INTERSECTIONCOLOR
 70
   257
  9
$DIMASSOC
280
     2
  9
$PROJECTNAME
  1

  9
$CAMERADISPLAY
290
     0
  9
$LENSLENGTH
 40
50.0
  9
$CAMERAHEIGHT
 40
0.0
  9
$STEPSPERSEC
 40
2.0
  9
$STEPSIZE
 40
6.0
  9
$3DDWFPREC
 40
2.0
  9
$PSOLWIDTH
 40
5.0
  9
$PSOLHEIGHT
 40
80.0
  9
$LOFTANG1
 40
1.570796
  9
$LOFTANG2
 40
1.570796
  9
$LOFTMAG1
 40
0.0
  9
$LOFTMAG2
 40
0.0
  9
$LOFTPARAM
 70
     7
  9
$LOFTNORMALS
280
     1
  9
$LATITUDE
 40
37.795
  9
$LONGITUDE
 40
-122.394
  9
$NORTHDIRECTION
 40
0.0
  9
$TIMEZONE
 70
 -8000
  9
$LIGHTGLYPHDISPLAY
280
     1
  9
$TILEMODELIGHTSYNCH
280
     1
  9
$CMATERIAL
347
11
  9
$SOLIDHIST
280
     0
  9
$SHOWHIST
280
     1
  9
$DWFFRAME
280
     2
  9
$DGNFRAME
280
     0
  9
$REALWORLDSCALE
290
     1
  9
$INTERFERECOLOR
 62
     1
  9
$INTERFEREOBJVS
345
33
  9
$INTERFEREVPVS
346
30
  9
$CSHADOW
280
     0
  9
$SHADOWPLANELOCATION
 40
0.0
  0
ENDSEC
  0
SECTION
  2
CLASSES
  0
CLASS
  1
ACDBDICTIONARYWDFLT
  2
AcDbDictionaryWithDefault
  3
ObjectDBX Classes
 90
        0
 91
        1
280
     0
281
     0
  0
CLASS
  1
MATERIAL
  2
AcDbMaterial
  3
ObjectDBX Classes
 90
     1153
 91
        3
280
     0
281
     0
  0
CLASS
  1
VISUALSTYLE
  2
AcDbVisualStyle
  3
ObjectDBX Classes
 90
     4095
 91
       24
280
     0
281
     0
  0
CLASS
  1
SCALE
  2
AcDbScale
  3
ObjectDBX Classes
 90
     1153
 91
       17
280
     0
281
     0
  0
CLASS
  1
TABLESTYLE
  2
AcDbTableStyle
  3
ObjectDBX Classes
 90
     4095
 91
        1
280
     0
281
     0
  0
CLASS
  1
MLEADERSTYLE
  2
AcDbMLeaderStyle
  3
ACDB_MLEADERSTYLE_CLASS
 90
     4095
 91
        1
280
     0
281
     0
  0
CLASS
  1
ACDBSECTIONVIEWSTYLE
  2
AcDbSectionViewStyle
  3
ObjectDBX Classes
 90
     1025
 91
        1
280
     0
281
     0
  0
CLASS
  1
ACDBDETAILVIEWSTYLE
  2
AcDbDetailViewStyle
  3
ObjectDBX Classes
 90
     1025
 91
        1
280
     0
281
     0
  0
CLASS
  1
ACMESCOPE
  2
AcMeScope
  3
AcMeServices
 90
     1024
 91
        1
280
     0
281
     0
  0
CLASS
  1
ACMECOMMANDHISTORY
  2
AcMeCommandHistory
  3
AcMeServices
 90
     1024
 91
        1
280
     0
281
     0
  0
CLASS
  1
ACIMSYSVARMAN
  2
AcImSysVarManager
  3
AcMeServices
 90
     1024
 91
        1
280
     0
281
     0
  0
CLASS
  1
ACIMINTSYSVAR
  2
AcImIntSysVar
  3
AcMeServices
 90
     1024
 91
        1
280
     0
281
     0
  0
CLASS
  1
ACMESTATEMGR
  2
AcMeStateMgr
  3
AcMeServices
 90
     1024
 91
        1
280
     0
281
     0
  0
CLASS
  1
ACGREFMASTER
  2
AcGrefMaster
  3
AcAttribServices
 90
     1024
 91
        1
280
     0
281
     0
  0
CLASS
  1
SORTENTSTABLE
  2
AcDbSortentsTable
  3
ObjectDBX Classes
 90
        0
 91
        3
280
     0
281
     0
  0
CLASS
  1
DICTIONARYVAR
  2
AcDbDictionaryVar
  3
ObjectDBX Classes
 90
        0
 91
        6
280
     0
281
     0
  0
CLASS
  1
CELLSTYLEMAP
  2
AcDbCellStyleMap
  3
ObjectDBX Classes
 90
     1152
 91
        1
280
     0
281
     0
  0
ENDSEC
  0
SECTION
  2
TABLES
  0
TABLE
  2
VPORT
  5
8
330
0
100
AcDbSymbolTable
 70
     1
1001
ACAD
1000
DbSaveVer
1071
      246
  0
VPORT
  5
57
330
8
100
AcDbSymbolTableRecord
100
AcDbViewportTableRecord
  2
*Active
 70
     0
 10
0.0
 20
0.0
 11
1.0
 21
1.0
 12
212.863128
 22
387.853327
 13
0.0
 23
0.0
 14
0.5
 24
0.5
 15
0.0
 25
0.0
 16
0.0
 26
0.0
 36
1.0
 17
0.0
 27
0.0
 37
0.0
 40
775.706654
 41
1.779601
 42
50.0
 43
0.0
 44
0.0
 50
0.0
 51
0.0
 71
     0
 72
 20000
 73
     1
 74
     0
 75
     0
 76
     0
 77
     0
 78
     0
281
     0
 65
     1
110
0.0
120
0.0
130
0.0
111
1.0
121
0.0
131
0.0
112
0.0
122
1.0
132
0.0
 79
     0
146
0.0
348
2F
 60
     3
 61
     5
292
     1
282
     1
141
0.0
142
0.0
 63
   250
421
  3355443
  0
ENDTAB
  0
TABLE
  2
LTYPE
  5
5
330
0
100
AcDbSymbolTable
 70
    15
  0
LTYPE
  5
5B
330
5
100
AcDbSymbolTableRecord
100
AcDbLinetypeTableRecord
  2
ByBlock
 70
     0
  3

 72
    65
 73
     0
 40
0.0
  0
LTYPE
  5
5C
330
5
100
AcDbSymbolTableRecord
100
AcDbLinetypeTableRecord
  2
ByLayer
 70
     0
  3

 72
    65
 73
     0
 40
0.0
  0
LTYPE
  5
5D
330
5
100
AcDbSymbolTableRecord
100
AcDbLinetypeTableRecord
  2
Continuous
 70
     0
  3
Solid line
 72
    65
 73
     0
 40
0.0
  0
LTYPE
  5
81
330
5
100
AcDbSymbolTableRecord
100
AcDbLinetypeTableRecord
  2
HIDDEN
 70
     0
  3
Hidden __ __ __ __ __ __ __ __ __ __ __ __ __ _
 72
    65
 73
     2
 40
9.525
 49
6.35
 74
     0
 49
-3.175
 74
     0
  0
LTYPE
  5
82
330
5
100
AcDbSymbolTableRecord
100
AcDbLinetypeTableRecord
  2
PHANTOM2
 70
     0
  3
Phantom (.5x) ___ _ _ ___ _ _ ___ _ _ ___ _ _
 72
    65
 73
     6
 40
31.75
 49
15.875
 74
     0
 49
-3.175
 74
     0
 49
3.175
 74
     0
 49
-3.175
 74
     0
 49
3.175
 74
     0
 49
-3.175
 74
     0
  0
LTYPE
  5
83
330
5
100
AcDbSymbolTableRecord
100
AcDbLinetypeTableRecord
  2
CENTER
 70
     0
  3
Center ____ _ ____ _ ____ _ ____ _ ____ _ ____
 72
    65
 73
     4
 40
50.8
 49
31.75
 74
     0
 49
-6.35
 74
     0
 49
6.35
 74
     0
 49
-6.35
 74
     0
  0
LTYPE
  5
9C
330
5
100
AcDbSymbolTableRecord
100
AcDbLinetypeTableRecord
  2
CENTER2
 70
     0
  3
Center (.5x) ___ _ ___ _ ___ _ ___ _ ___ _ ___
 72
    65
 73
     4
 40
28.575
 49
19.05
 74
     0
 49
-3.175
 74
     0
 49
3.175
 74
     0
 49
-3.175
 74
     0
  0
LTYPE
  5
9D
330
5
100
AcDbSymbolTableRecord
100
AcDbLinetypeTableRecord
  2
AM_ISO02W050
 70
     0
  3
__ __ __ __ __ __ __ __ __ __ __ __ __ __ __
 72
    65
 73
     2
 40
7.5
 49
6.0
 74
     0
 49
-1.5
 74
     0
  0
LTYPE
  5
9E
330
5
100
AcDbSymbolTableRecord
100
AcDbLinetypeTableRecord
  2
AM_ISO08W050
 70
     0
  3
____ . ____ . ____ . ____ . ____ . ____ . ____
 72
    65
 73
     4
 40
18.0
 49
12.0
 74
     0
 49
-1.5
 74
     0
 49
3.0
 74
     0
 49
-1.5
 74
     0
  0
LTYPE
  5
9F
330
5
100
AcDbSymbolTableRecord
100
AcDbLinetypeTableRecord
  2
AM_ISO09W050
 70
     0
  3
_____ . . _____ . . _____ . . ____ .. ____
 72
    65
 73
     6
 40
22.5
 49
12.0
 74
     0
 49
-1.5
 74
     0
 49
3.0
 74
     0
 49
-1.5
 74
     0
 49
3.0
 74
     0
 49
-1.5
 74
     0
  0
LTYPE
  5
A0
330
5
100
AcDbSymbolTableRecord
100
AcDbLinetypeTableRecord
  2
Amconstr
 70
     0
  3
_______________________
 72
    65
 73
     2
 40
9999.0
 49
9999.0
 74
     0
 49
0.0
 74
     0
  0
LTYPE
  5
A1
330
5
100
AcDbSymbolTableRecord
100
AcDbLinetypeTableRecord
  2
AM_ISO08W050x2
 70
     0
  3
__ . __ . __ . __ . __ . __
 72
    65
 73
     4
 40
9.0
 49
6.0
 74
     0
 49
-0.75
 74
     0
 49
1.5
 74
     0
 49
-0.75
 74
     0
  0
LTYPE
  5
A2
330
5
100
AcDbSymbolTableRecord
100
AcDbLinetypeTableRecord
  2
AM_ISO02W050x2
 70
     0
  3
 _ _ _ _ _ _ _ _ _ _ _ _
 72
    65
 73
     2
 40
3.75
 49
3.0
 74
     0
 49
-0.75
 74
     0
  0
LTYPE
  5
A3
330
5
100
AcDbSymbolTableRecord
100
AcDbLinetypeTableRecord
  2
Amzigzag
 70
     0
  3
/\/-/\/-/\/-/\/-/\/-/\/
 72
    65
 73
     2
 40
11.0001
 49
0.0001
 74
     4
 75
   136
340
99
 46
0.04
 50
0.0
 44
0.0
 45
0.0
 49
-11.0
 74
     0
  0
LTYPE
  5
A4
330
5
100
AcDbSymbolTableRecord
100
AcDbLinetypeTableRecord
  2
ACISOWELD
 70
     0
  3
_ _ _ _ _
 72
    65
 73
     2
 40
2.0
 49
2.0
 74
     0
 49
-1.0
 74
     0
  0
LTYPE
  5
A5
330
5
100
AcDbSymbolTableRecord
100
AcDbLinetypeTableRecord
  2
ACISOTGL
 70
     0
  3
_ _ _ _ _
 72
    65
 73
     2
 40
3.0
 49
2.0
 74
     0
 49
-1.0
 74
     0
  0
LTYPE
  5
A6
330
5
100
AcDbSymbolTableRecord
100
AcDbLinetypeTableRecord
  2
ACISOTGB
 70
     0
  3
__ . . __ . .
 72
    65
 73
     6
 40
9.0
 49
4.0
 74
     0
 49
-1.0
 74
     0
 49
1.0
 74
     0
 49
-1.0
 74
     0
 49
1.0
 74
     0
 49
-1.0
 74
     0
  0
ENDTAB
  0
TABLE
  2
LAYER
  5
2
330
0
100
AcDbSymbolTable
 70
    12
  0
LAYER
  5
54
330
2
100
AcDbSymbolTableRecord
100
AcDbLayerTableRecord
  2
0
 70
     0
 62
     7
  6
Continuous
370
    -3
390
F
347
21
348
0
1001
AcAecLayerStandard
1000

1000

  0
LAYER
  5
79
330
2
100
AcDbSymbolTableRecord
100
AcDbLayerTableRecord
  2
Defpoints
 70
     0
 62
     7
  6
Continuous
290
     0
370
    -3
390
F
347
21
348
0
1001
AcAecLayerStandard
1000

1000

  0
LAYER
  5
B1
330
2
100
AcDbSymbolTableRecord
100
AcDbLayerTableRecord
  2
表示
 70
     0
 62
     7
  6
Continuous
370
    50
390
F
347
21
348
0
  0
LAYER
  5
20A
330
2
100
AcDbSymbolTableRecord
100
AcDbLayerTableRecord
  2
細線
 70
     0
 62
     7
  6
Continuous
370
    25
390
F
347
21
348
0
  0
LAYER
  5
28D
330
2
100
AcDbSymbolTableRecord
100
AcDbLayerTableRecord
  2
Border
 70
     0
 62
     7
  6
Continuous
370
    25
390
F
347
21
348
0
1001
AcAecLayerStandard
1000

1000

1001
AcCmTransparency
1071
        0
  0
LAYER
  5
2D3
330
2
100
AcDbSymbolTableRecord
100
AcDbLayerTableRecord
  2
TitleBlock
 70
     0
 62
     7
  6
Continuous
370
    35
390
F
347
21
348
0
1001
AcAecLayerStandard
1000

1000

1001
AcCmTransparency
1071
        0
  0
LAYER
  5
31F
330
2
100
AcDbSymbolTableRecord
100
AcDbLayerTableRecord
  2
Center Lines
 70
     0
 62
     7
  6
CENTER2
370
    25
390
F
347
21
348
0
  0
LAYER
  5
374
330
2
100
AcDbSymbolTableRecord
100
AcDbLayerTableRecord
  2
Dimensions
 70
     0
 62
     7
  6
Continuous
370
    25
390
F
347
21
348
0
  0
ENDTAB
  0
TABLE
  2
STYLE
  5
3
330
0
100
AcDbSymbolTable
 70
     5
  0
STYLE
  5
55
330
3
100
AcDbSymbolTableRecord
100
AcDbTextStyleTableRecord
  2
Standard
 70
     0
 40
0.0
 41
1.0
 50
0.0
 71
     0
 42
3.5
  3
arial.ttf
  4

1001
ACAD
1000
Arial
1071
       34
  0
STYLE
  5
5A
330
3
100
AcDbSymbolTableRecord
100
AcDbTextStyleTableRecord
  2
Annotative
 70
     0
 40
0.0
 41
1.0
 50
0.0
 71
     0
 42
0.2
  3
txt
  4

1001
AcadAnnotative
1000
AnnotativeData
1002
{
1070
     1
1070
     1
1002
}
  0
STYLE
  5
98
330
3
100
AcDbSymbolTableRecord
100
AcDbTextStyleTableRecord
  2
FusionTitle
 70
     0
 40
0.0
 41
1.0
 50
0.0
 71
     0
 42
2.5
  3
arial.ttf
  4

1001
ACAD
1000
Arial
1071
       34
  0
STYLE
  5
99
330
3
100
AcDbSymbolTableRecord
100
AcDbTextStyleTableRecord
  2

 70
     1
 40
0.0
 41
1.0
 50
0.0
 71
     0
 42
10.0
  3
genltshp.shx
  4

  0
STYLE
  5
9A
330
3
100
AcDbSymbolTableRecord
100
AcDbTextStyleTableRecord
  2
ACISOGDT
 70
     0
 40
0.0
 41
1.0
 50
0.0
 71
     0
 42
10.0
  3
amgdt.shx
  4

  0
ENDTAB
  0
TABLE
  2
VIEW
  5
6
330
0
100
AcDbSymbolTable
 70
     0
  0
ENDTAB
  0
TABLE
  2
UCS
  5
7
330
0
100
AcDbSymbolTable
 70
     0
  0
ENDTAB
  0
TABLE
  2
APPID
  5
9
330
0
100
AcDbSymbolTable
 70
    25
  0
APPID
  5
56
330
9
100
AcDbSymbolTableRecord
100
AcDbRegAppTableRecord
  2
ACAD
 70
     0
  0
APPID
  5
5E
330
9
100
AcDbSymbolTableRecord
100
AcDbRegAppTableRecord
  2
AcadAnnotative
 70
     0
  0
APPID
  5
78
330
9
100
AcDbSymbolTableRecord
100
AcDbRegAppTableRecord
  2
ACAD_PSEXT
 70
     0
  0
APPID
  5
7A
330
9
100
AcDbSymbolTableRecord
100
AcDbRegAppTableRecord
  2
MCAD_NO_VIS
 70
     0
  0
APPID
  5
7B
330
9
100
AcDbSymbolTableRecord
100
AcDbRegAppTableRecord
  2
ACAD_TEMP_GRAPHIC
 70
     0
  0
APPID
  5
84
330
9
100
AcDbSymbolTableRecord
100
AcDbRegAppTableRecord
  2
ACAD_DSTYLE_DIMJAG
 70
     0
  0
APPID
  5
85
330
9
100
AcDbSymbolTableRecord
100
AcDbRegAppTableRecord
  2
ACAD_DSTYLE_DIMTALN
 70
     0
  0
APPID
  5
86
330
9
100
AcDbSymbolTableRecord
100
AcDbRegAppTableRecord
  2
ACAD_NAV_VCDISPLAY
 70
     0
  0
APPID
  5
87
330
9
100
AcDbSymbolTableRecord
100
AcDbRegAppTableRecord
  2
AcAecLayerStandard
 70
     0
  0
APPID
  5
88
330
9
100
AcDbSymbolTableRecord
100
AcDbRegAppTableRecord
  2
AcCmTransparency
 70
     0
  0
APPID
  5
89
330
9
100
AcDbSymbolTableRecord
100
AcDbRegAppTableRecord
  2
AcDbDynamicBlockGUID
 70
     0
  0
APPID
  5
8A
330
9
100
AcDbSymbolTableRecord
100
AcDbRegAppTableRecord
  2
ACAD_DSTYLE_DIMBREAK
 70
     0
  0
APPID
  5
8B
330
9
100
AcDbSymbolTableRecord
100
AcDbRegAppTableRecord
  2
FUSIONTITLEBLOCK
 70
     0
  0
APPID
  5
8C
330
9
100
AcDbSymbolTableRecord
100
AcDbRegAppTableRecord
  2
FUSIONCURRENTTITLEBLOCK
 70
     0
  0
APPID
  5
8D
330
9
100
AcDbSymbolTableRecord
100
AcDbRegAppTableRecord
  2
AcSynergy
 70
     0
  0
APPID
  5
8E
330
9
100
AcDbSymbolTableRecord
100
AcDbRegAppTableRecord
  2
ACAD_VIEW_EDGE_ID
 70
     0
  0
APPID
  5
8F
330
9
100
AcDbSymbolTableRecord
100
AcDbRegAppTableRecord
  2
GENIUS_GENSCREG_15
 70
     0
  0
APPID
  5
90
330
9
100
AcDbSymbolTableRecord
100
AcDbRegAppTableRecord
  2
GENIUS_GENOBJ-N-SDF_13
 70
     0
  0
APPID
  5
91
330
9
100
AcDbSymbolTableRecord
100
AcDbRegAppTableRecord
  2
GENIUS_GENODEF_13
 70
     0
  0
APPID
  5
92
330
9
100
AcDbSymbolTableRecord
100
AcDbRegAppTableRecord
  2
ACAD_TC
 70
     0
  0
APPID
  5
93
330
9
100
AcDbSymbolTableRecord
100
AcDbRegAppTableRecord
  2
ACAD_DIMASSOC_CALC_DIMLFAC
 70
     0
  0
APPID
  5
94
330
9
100
AcDbSymbolTableRecord
100
AcDbRegAppTableRecord
  2
ACAD_DIMASSOC_DIMLFAC
 70
     0
  0
APPID
  5
95
330
9
100
AcDbSymbolTableRecord
100
AcDbRegAppTableRecord
  2
ACAD_DIMASSOC_OVERRIDDEN_DIMLFAC
 70
     0
  0
APPID
  5
96
330
9
100
AcDbSymbolTableRecord
100
AcDbRegAppTableRecord
  2
ACAD_DSTYLE_DIMJAG_POSITION
 70
     0
  0
APPID
  5
97
330
9
100
AcDbSymbolTableRecord
100
AcDbRegAppTableRecord
  2
ACATTRIBSERVICES
 70
     0
  0
ENDTAB
  0
TABLE
  2
DIMSTYLE
  5
A
330
0
100
AcDbSymbolTable
 70
     3
100
AcDbDimStyleTable
 71
     1
340
A9
  0
DIMSTYLE
105
58
330
A
100
AcDbSymbolTableRecord
100
AcDbDimStyleTableRecord
  2
Standard
 70
     0
 41
3.5
 42
2.1
 43
10.5
 44
2.1
 78
     8
 79
     2
140
3.5
143
0.03937
146
0.714286
147
1.4
179
     2
271
     2
272
     2
284
     8
340
55
  0
DIMSTYLE
105
59
330
A
100
AcDbSymbolTableRecord
100
AcDbDimStyleTableRecord
  2
Annotative
 70
     0
 40
0.0
 41
3.5
 42
2.1
 43
10.5
 44
2.1
 73
     0
 74
     0
 77
     1
 78
     8
 79
     2
140
3.5
141
2.5
143
0.03937
146
0.714286
147
1.4
171
     3
172
     1
179
     2
271
     2
272
     2
274
     3
278
    44
283
     0
284
     8
340
55
1001
AcadAnnotative
1000
AnnotativeData
1002
{
1070
     1
1070
     1
1002
}
  0
DIMSTYLE
105
A9
102
{ACAD_REACTORS
330
373
330
381
330
38E
330
39B
330
3A8
102
}
330
A
100
AcDbSymbolTableRecord
100
AcDbDimStyleTableRecord
  2
ISO-25
 70
     0
 41
3.5
 42
2.1
 43
10.5
 44
2.1
 47
0.1
 48
0.1
 73
     0
 74
     0
 77
     1
 78
     8
 79
     2
140
3.5
141
0.0
143
0.03937
146
0.714286
147
1.4
172
     1
176
   256
177
   256
178
   256
179
     2
271
     2
272
     2
283
     0
284
     8
285
    12
286
    12
340
55
1001
ACAD_DSTYLE_DIMJAG
1070
   388
1040
1.5
1001
ACAD_DSTYLE_DIMTALN
1070
   392
1070
     1
1001
ACAD_DSTYLE_DIMBREAK
1070
   391
1040
3.5
  0
ENDTAB
  0
TABLE
  2
BLOCK_RECORD
  5
1
330
0
100
AcDbSymbolTable
 70
    27
  0
BLOCK_RECORD
  5
70
102
{ACAD_XDICTIONARY
360
AA
102
}
330
1
100
AcDbSymbolTableRecord
100
AcDbBlockTableRecord
  2
*Model_Space
340
73
 70
     0
280
     1
281
     0
  0
BLOCK_RECORD
  5
6C
330
1
100
AcDbSymbolTableRecord
100
AcDbBlockTableRecord
  2
*Paper_Space
340
6F
 70
     0
280
     1
281
     0
  0
BLOCK_RECORD
  5
74
330
1
100
AcDbSymbolTableRecord
100
AcDbBlockTableRecord
  2
*Paper_Space0
340
77
 70
     0
280
     1
281
     0
  0
BLOCK_RECORD
  5
28E
102
{ACAD_XDICTIONARY
360
28F
102
}
330
1
100
AcDbSymbolTableRecord
100
AcDbBlockTableRecord
  2
ISO_A3_SHEET
340
0
310
2800000020000000200000000100080000000000000400000000000000000000000000000000000000000000000080000080000000808000800000008000800080800000C0C0C000C0DCC000F0CAA6000020400000206000002080000020A0000020C0000020E00000400000004020000040400000406000004080000040A0
310
000040C0000040E00000600000006020000060400000606000006080000060A0000060C0000060E00000800000008020000080400000806000008080000080A0000080C0000080E00000A0000000A0200000A0400000A0600000A0800000A0A00000A0C00000A0E00000C0000000C0200000C0400000C0600000C0800000C0
310
A00000C0C00000C0E00000E0000000E0200000E0400000E0600000E0800000E0A00000E0C00000E0E00040000000400020004000400040006000400080004000A0004000C0004000E00040200000402020004020400040206000402080004020A0004020C0004020E000404000004040200040404000404060004040800040
310
40A0004040C0004040E00040600000406020004060400040606000406080004060A0004060C0004060E00040800000408020004080400040806000408080004080A0004080C0004080E00040A0000040A0200040A0400040A0600040A0800040A0A00040A0C00040A0E00040C0000040C0200040C0400040C0600040C08000
310
40C0A00040C0C00040C0E00040E0000040E0200040E0400040E0600040E0800040E0A00040E0C00040E0E00080000000800020008000400080006000800080008000A0008000C0008000E00080200000802020008020400080206000802080008020A0008020C0008020E00080400000804020008040400080406000804080
310
008040A0008040C0008040E00080600000806020008060400080606000806080008060A0008060C0008060E00080800000808020008080400080806000808080008080A0008080C0008080E00080A0000080A0200080A0400080A0600080A0800080A0A00080A0C00080A0E00080C0000080C0200080C0400080C0600080C0
310
800080C0A00080C0C00080C0E00080E0000080E0200080E0400080E0600080E0800080E0A00080E0C00080E0E000C0000000C0002000C0004000C0006000C0008000C000A000C000C000C000E000C0200000C0202000C0204000C0206000C0208000C020A000C020C000C020E000C0400000C0402000C0404000C0406000C0
310
408000C040A000C040C000C040E000C0600000C0602000C0604000C0606000C0608000C060A000C060C000C060E000C0800000C0802000C0804000C0806000C0808000C080A000C080C000C080E000C0A00000C0A02000C0A04000C0A06000C0A08000C0A0A000C0A0C000C0A0E000C0C00000C0C02000C0C04000C0C06000
310
C0C08000C0C0A000F0FBFF00A4A0A000808080000000FF0000FF000000FFFF00FF000000FF00FF00FFFF0000FFFFFF0049494949494949494949494949494949494949494949494949494949494949494949494949494949494949494949494949494949494949494949494949494949494949494949494949494949494949
310
494949494949494949494949494949494949494949494949494949494949494949494949494949494949494949494949494949494949494949494949494949494949494949494949494949494949494949494949494949494949494949494949494949494949494949494949494949494949FFFFFFFFFFFFFFFFFFFFFFFFFF
310
FFFFFFFFFFFFFFFFFFFFFFFFFFFFFFFFFF4949FF49FF494949494949494949494949FF494949494949494949494949FFFF49494949FF49494949494949494949494949494949494949494949494949FF49494949FFFF49494949494949494949494949494949494949494949494949FF4949494949FF494949494949494949
310
49494949494949494949494949494949FF4949494949FF49494949494949494949494949494949494949494949494949FF49494949FFFF49494949494949494949494949494949494949494949494949FF4949494949FF49494949494949494949494949494949494949494949494949FF4949494949FF4949494949494949
310
4949494949494949494949494949494949FF4949494949FF49494949494949494949494949494949494949494949494949FF49494949FFFF49494949494949494949494949494949494949494949494949FF4949494949FF49494949494949494949494949494949494949494949494949FF4949494949FF49494949494949
310
494949494949494949494949494949494949FF49494949FFFF49494949494949494949494949494949494949494949494949FF4949494949FF49494949494949494949494949494949494949494949494949FF4949494949FF49494949494949494949494949494949494949494949494949FF49494949FFFF494949494949
310
49494949494949494949494949494949494949FF4949494949FF49494949494949494949494949494949494949494949494949FF494949FF49FF494949494949494949494949FF494949494949494949494949FFFF4949FFFFFFFFFFFFFFFFFFFFFFFFFFFFFFFFFFFFFFFFFFFFFFFFFFFFFFFFFFFF49494949494949494949
310
49494949494949494949494949494949494949494949494949494949494949494949494949494949494949494949494949494949494949494949494949494949494949494949494949494949494949494949494949494949494949494949494949494949494949494949494949494949494949494949494949494949494949
310
4949494949494949494949494949494949494949494949494949494949494949494949494949494949494949494949494949494949494949
102
{BLKREFS
331
28C
102
}
 70
     4
280
     1
281
     0
1001
AcDbDynamicBlockGUID
1000
{B4874B5E-8040-BF49-A9B6-B81412F7B0AC}
  0
BLOCK_RECORD
  5
2D4
102
{ACAD_XDICTIONARY
360
2D5
102
}
330
1
100
AcDbSymbolTableRecord
100
AcDbBlockTableRecord
  2
ISO_TITLEBLOCK
340
0
310
2800000020000000200000000100080000000000000400000000000000000000000000000000000000000000000080000080000000808000800000008000800080800000C0C0C000C0DCC000F0CAA6000020400000206000002080000020A0000020C0000020E00000400000004020000040400000406000004080000040A0
310
000040C0000040E00000600000006020000060400000606000006080000060A0000060C0000060E00000800000008020000080400000806000008080000080A0000080C0000080E00000A0000000A0200000A0400000A0600000A0800000A0A00000A0C00000A0E00000C0000000C0200000C0400000C0600000C0800000C0
310
A00000C0C00000C0E00000E0000000E0200000E0400000E0600000E0800000E0A00000E0C00000E0E00040000000400020004000400040006000400080004000A0004000C0004000E00040200000402020004020400040206000402080004020A0004020C0004020E000404000004040200040404000404060004040800040
310
40A0004040C0004040E00040600000406020004060400040606000406080004060A0004060C0004060E00040800000408020004080400040806000408080004080A0004080C0004080E00040A0000040A0200040A0400040A0600040A0800040A0A00040A0C00040A0E00040C0000040C0200040C0400040C0600040C08000
310
40C0A00040C0C00040C0E00040E0000040E0200040E0400040E0600040E0800040E0A00040E0C00040E0E00080000000800020008000400080006000800080008000A0008000C0008000E00080200000802020008020400080206000802080008020A0008020C0008020E00080400000804020008040400080406000804080
310
008040A0008040C0008040E00080600000806020008060400080606000806080008060A0008060C0008060E00080800000808020008080400080806000808080008080A0008080C0008080E00080A0000080A0200080A0400080A0600080A0800080A0A00080A0C00080A0E00080C0000080C0200080C0400080C0600080C0
310
800080C0A00080C0C00080C0E00080E0000080E0200080E0400080E0600080E0800080E0A00080E0C00080E0E000C0000000C0002000C0004000C0006000C0008000C000A000C000C000C000E000C0200000C0202000C0204000C0206000C0208000C020A000C020C000C020E000C0400000C0402000C0404000C0406000C0
310
408000C040A000C040C000C040E000C0600000C0602000C0604000C0606000C0608000C060A000C060C000C060E000C0800000C0802000C0804000C0806000C0808000C080A000C080C000C080E000C0A00000C0A02000C0A04000C0A06000C0A08000C0A0A000C0A0C000C0A0E000C0C00000C0C02000C0C04000C0C06000
310
C0C08000C0C0A000F0FBFF00A4A0A000808080000000FF0000FF000000FFFF00FF000000FF00FF00FFFF0000FFFFFF0049494949494949494949494949494949494949494949494949494949494949494949494949494949494949494949494949494949494949494949494949494949494949494949494949494949494949
310
49494949494949494949494949494949494949494949494949494949494949494949494949494949494949494949494949494949494949494949494949494949494949494949494949494949494949494949494949494949494949494949494949494949494949494949494949494949494949494949494949494949494949
310
49494949494949494949494949494949494949494949494949494949494949494949494949494949494949494949494949494949494949494949494949494949494949494949494949494949494949494949494949494949494949494949494949494949494949494949494949494949494949494949494949494949494949
310
49494949494949494949494949494949494949494949494949494949494949494949494949494949494949494949494949494949FFFFFFFFFFFFFFFFFFFFFFFFFFFFFFFFFFFFFFFFFFFFFFFFFFFFFF4949494949FF4949494949494949FFFFFFFFFF49494949FFFFFFFFFFFFFFFFFFFF49494949FF4949494949494949FFFF
310
FFFFFF494949FFFFFFFFFFFFFFFFFFFF4949494949FF4949494949494949FFFFFFFFFF494949FFFFFFFFFFFFFFFFFFFF4949494949FF4949494949494949FFFFFFFFFFFFFFFFFFFFFFFFFFFFFFFFFFFF4949494949FFFFFFFFFFFFFFFFFFFFFFFFFFFFFFFFFFFFFFFFFFFFFFFFFFFFFF4949494949FFFFFF49FFFFFFFFFFFF
310
FFFFFFFFFFFFFFFFFFFFFFFFFFFFFFFFFFFFFFFF4949FFFFFFFFFFFFFFFFFFFFFFFFFFFFFFFFFFFFFFFFFFFFFFFFFFFFFF494949494949494949494949494949494949494949494949494949494949494949494949494949494949494949494949494949494949494949494949494949494949494949494949494949494949
310
49494949494949494949494949494949494949494949494949494949494949494949494949494949494949494949494949494949494949494949494949494949494949494949494949494949494949494949494949494949494949494949494949494949494949494949494949494949494949494949494949494949494949
310
49494949494949494949494949494949494949494949494949494949494949494949494949494949494949494949494949494949494949494949494949494949494949494949494949494949494949494949494949494949494949494949494949494949494949494949494949494949494949494949494949494949494949
310
4949494949494949494949494949494949494949494949494949494949494949494949494949494949494949494949494949494949494949
102
{BLKREFS
331
2D2
102
}
 70
     4
280
     1
281
     0
1001
AcDbDynamicBlockGUID
1000
{BCD52D05-323A-B54A-8A21-1B84008CF9CB}
1001
FUSIONTITLEBLOCK
1000
TitleBlock
  0
BLOCK_RECORD
  5
320
330
1
100
AcDbSymbolTableRecord
100
AcDbBlockTableRecord
  2
*U7
340
0
102
{BLKREFS
331
31E
102
}
 70
     0
280
     1
281
     0
  0
BLOCK_RECORD
  5
325
330
1
100
AcDbSymbolTableRecord
100
AcDbBlockTableRecord
  2
*U8
340
0
102
{BLKREFS
331
324
102
}
 70
     0
280
     1
281
     0
  0
BLOCK_RECORD
  5
32A
330
1
100
AcDbSymbolTableRecord
100
AcDbBlockTableRecord
  2
*U9
340
0
102
{BLKREFS
331
329
102
}
 70
     0
280
     1
281
     0
  0
BLOCK_RECORD
  5
334
330
1
100
AcDbSymbolTableRecord
100
AcDbBlockTableRecord
  2
*U10
340
0
102
{BLKREFS
331
333
102
}
 70
     0
280
     1
281
     0
  0
BLOCK_RECORD
  5
33E
330
1
100
AcDbSymbolTableRecord
100
AcDbBlockTableRecord
  2
*U11
340
0
102
{BLKREFS
331
33D
102
}
 70
     0
280
     1
281
     0
  0
BLOCK_RECORD
  5
348
330
1
100
AcDbSymbolTableRecord
100
AcDbBlockTableRecord
  2
*U12
340
0
102
{BLKREFS
331
347
102
}
 70
     0
280
     1
281
     0
  0
BLOCK_RECORD
  5
352
330
1
100
AcDbSymbolTableRecord
100
AcDbBlockTableRecord
  2
*U13
340
0
102
{BLKREFS
331
351
102
}
 70
     0
280
     1
281
     0
  0
BLOCK_RECORD
  5
35C
330
1
100
AcDbSymbolTableRecord
100
AcDbBlockTableRecord
  2
*U14
340
0
102
{BLKREFS
331
35B
102
}
 70
     0
280
     1
281
     0
  0
BLOCK_RECORD
  5
369
330
1
100
AcDbSymbolTableRecord
100
AcDbBlockTableRecord
  2
*U15
340
0
102
{BLKREFS
331
368
102
}
 70
     0
280
     1
281
     0
  0
BLOCK_RECORD
  5
366
330
1
100
AcDbSymbolTableRecord
100
AcDbBlockTableRecord
  2
*U16
340
0
102
{BLKREFS
331
365
102
}
 70
     0
280
     1
281
     0
  0
BLOCK_RECORD
  5
375
330
1
100
AcDbSymbolTableRecord
100
AcDbBlockTableRecord
  2
*D17
340
0
 70
     0
280
     1
281
     0
  0
BLOCK_RECORD
  5
382
330
1
100
AcDbSymbolTableRecord
100
AcDbBlockTableRecord
  2
*D18
340
0
 70
     0
280
     1
281
     0
  0
BLOCK_RECORD
  5
38F
330
1
100
AcDbSymbolTableRecord
100
AcDbBlockTableRecord
  2
*D19
340
0
 70
     0
280
     1
281
     0
  0
BLOCK_RECORD
  5
39C
330
1
100
AcDbSymbolTableRecord
100
AcDbBlockTableRecord
  2
*D20
340
0
 70
     0
280
     1
281
     0
  0
BLOCK_RECORD
  5
3A9
330
1
100
AcDbSymbolTableRecord
100
AcDbBlockTableRecord
  2
*D21
340
0
 70
     0
280
     1
281
     0
  0
BLOCK_RECORD
  5
3B6
330
1
100
AcDbSymbolTableRecord
100
AcDbBlockTableRecord
  2
*D22
340
0
 70
     0
280
     1
281
     0
  0
BLOCK_RECORD
  5
3C2
330
1
100
AcDbSymbolTableRecord
100
AcDbBlockTableRecord
  2
*D23
340
0
 70
     0
280
     1
281
     0
  0
BLOCK_RECORD
  5
3CE
330
1
100
AcDbSymbolTableRecord
100
AcDbBlockTableRecord
  2
*D24
340
0
 70
     0
280
     1
281
     0
  0
BLOCK_RECORD
  5
3DA
330
1
100
AcDbSymbolTableRecord
100
AcDbBlockTableRecord
  2
*D25
340
0
 70
     0
280
     1
281
     0
  0
BLOCK_RECORD
  5
3E6
330
1
100
AcDbSymbolTableRecord
100
AcDbBlockTableRecord
  2
*D26
340
0
 70
     0
280
     1
281
     0
  0
ENDTAB
  0
ENDSEC
  0
SECTION
  2
BLOCKS
  0
BLOCK
  5
71
330
70
100
AcDbEntity
  8
0
100
AcDbBlockBegin
  2
*Model_Space
 70
     0
 10
0.0
 20
0.0
 30
0.0
  3
*Model_Space
  1

  0
ENDBLK
  5
72
330
70
100
AcDbEntity
  8
0
100
AcDbBlockEnd
  0
BLOCK
  5
6D
330
6C
100
AcDbEntity
 67
     1
  8
0
100
AcDbBlockBegin
  2
*Paper_Space
 70
     0
 10
0.0
 20
0.0
 30
0.0
  3
*Paper_Space
  1

  0
ENDBLK
  5
6E
330
6C
100
AcDbEntity
 67
     1
  8
0
100
AcDbBlockEnd
  0
BLOCK
  5
75
330
74
100
AcDbEntity
 67
     1
  8
0
100
AcDbBlockBegin
  2
*Paper_Space0
 70
     0
 10
0.0
 20
0.0
 30
0.0
  3
*Paper_Space0
  1

  0
ENDBLK
  5
76
330
74
100
AcDbEntity
 67
     1
  8
0
100
AcDbBlockEnd
  0
BLOCK
  5
290
330
28E
100
AcDbEntity
  8
0
100
AcDbBlockBegin
  2
ISO_A3_SHEET
 70
     0
 10
0.0
 20
0.0
 30
0.0
  3
ISO_A3_SHEET
  1

  0
LINE
  5
291
330
28E
100
AcDbEntity
  8
Defpoints
100
AcDbLine
 10
0.0
 20
0.0
 30
0.0
 11
15.0
 21
0.0
 31
0.0
  0
LINE
  5
292
330
28E
100
AcDbEntity
  8
Defpoints
100
AcDbLine
 10
405.0
 20
0.0
 30
0.0
 11
420.0
 21
0.0
 31
0.0
  0
LINE
  5
293
330
28E
100
AcDbEntity
  8
Border
100
AcDbLine
 10
20.0
 20
10.0
 30
0.0
 11
410.0
 21
10.0
 31
0.0
  0
LINE
  5
294
330
28E
100
AcDbEntity
  8
Defpoints
100
AcDbLine
 10
420.0
 20
0.0
 30
0.0
 11
420.0
 21
15.0
 31
0.0
  0
LINE
  5
295
330
28E
100
AcDbEntity
  8
Defpoints
100
AcDbLine
 10
420.0
 20
282.0
 30
0.0
 11
420.0
 21
297.0
 31
0.0
  0
LINE
  5
296
330
28E
100
AcDbEntity
  8
Defpoints
100
AcDbLine
 10
420.0
 20
297.0
 30
0.0
 11
405.0
 21
297.0
 31
0.0
  0
LINE
  5
297
330
28E
100
AcDbEntity
  8
Defpoints
100
AcDbLine
 10
15.0
 20
297.0
 30
0.0
 11
0.0
 21
297.0
 31
0.0
  0
LINE
  5
298
330
28E
100
AcDbEntity
  8
Border
100
AcDbLine
 10
410.0
 20
287.0
 30
0.0
 11
20.0
 21
287.0
 31
0.0
  0
LINE
  5
299
330
28E
100
AcDbEntity
  8
Defpoints
100
AcDbLine
 10
0.0
 20
297.0
 30
0.0
 11
0.0
 21
282.0
 31
0.0
  0
LINE
  5
29A
330
28E
100
AcDbEntity
  8
Defpoints
100
AcDbLine
 10
0.0
 20
15.0
 30
0.0
 11
0.0
 21
0.0
 31
0.0
  0
LINE
  5
29B
330
28E
100
AcDbEntity
  8
Border
100
AcDbLine
 10
20.0
 20
287.0
 30
0.0
 11
20.0
 21
10.0
 31
0.0
  0
LINE
  5
29C
330
28E
100
AcDbEntity
  8
Border
100
AcDbLine
 10
410.0
 20
287.0
 30
0.0
 11
410.0
 21
10.0
 31
0.0
  0
LINE
  5
29D
330
28E
100
AcDbEntity
  8
Border
100
AcDbLine
 10
215.0
 20
5.0
 30
0.0
 11
215.0
 21
15.0
 31
0.0
  0
LINE
  5
29E
330
28E
100
AcDbEntity
  8
Border
100
AcDbLine
 10
215.0
 20
292.0
 30
0.0
 11
215.0
 21
282.0
 31
0.0
  0
LINE
  5
29F
330
28E
100
AcDbEntity
  8
Border
100
AcDbLine
 10
265.0
 20
292.0
 30
0.0
 11
265.0
 21
287.0
 31
0.0
  0
LINE
  5
2A0
330
28E
100
AcDbEntity
  8
Border
100
AcDbLine
 10
315.0
 20
292.0
 30
0.0
 11
315.0
 21
287.0
 31
0.0
  0
LINE
  5
2A1
330
28E
100
AcDbEntity
  8
Border
100
AcDbLine
 10
365.0
 20
292.0
 30
0.0
 11
365.0
 21
287.0
 31
0.0
  0
LINE
  5
2A2
330
28E
100
AcDbEntity
  8
Border
100
AcDbLine
 10
165.0
 20
292.0
 30
0.0
 11
165.0
 21
287.0
 31
0.0
  0
LINE
  5
2A3
330
28E
100
AcDbEntity
  8
Border
100
AcDbLine
 10
115.0
 20
292.0
 30
0.0
 11
115.0
 21
287.0
 31
0.0
  0
LINE
  5
2A4
330
28E
100
AcDbEntity
  8
Border
100
AcDbLine
 10
65.0
 20
292.0
 30
0.0
 11
65.0
 21
287.0
 31
0.0
  0
LINE
  5
2A5
330
28E
100
AcDbEntity
  8
Border
100
AcDbLine
 10
15.0
 20
148.5
 30
0.0
 11
25.0
 21
148.5
 31
0.0
  0
LINE
  5
2A6
330
28E
100
AcDbEntity
  8
Border
100
AcDbLine
 10
15.0
 20
100.66667
 30
0.0
 11
20.0
 21
100.66667
 31
0.0
  0
LINE
  5
2A7
330
28E
100
AcDbEntity
  8
Border
100
AcDbLine
 10
15.0
 20
52.83334
 30
0.0
 11
20.0
 21
52.83334
 31
0.0
  0
LINE
  5
2A8
330
28E
100
AcDbEntity
  8
Border
100
AcDbLine
 10
15.0
 20
196.33333
 30
0.0
 11
20.0
 21
196.33333
 31
0.0
  0
LINE
  5
2A9
330
28E
100
AcDbEntity
  8
Border
100
AcDbLine
 10
15.0
 20
244.16666
 30
0.0
 11
20.0
 21
244.16666
 31
0.0
  0
LINE
  5
2AA
330
28E
100
AcDbEntity
  8
Border
100
AcDbLine
 10
415.0
 20
148.5
 30
0.0
 11
405.0
 21
148.5
 31
0.0
  0
LINE
  5
2AB
330
28E
100
AcDbEntity
  8
Border
100
AcDbLine
 10
265.0
 20
5.0
 30
0.0
 11
265.0
 21
10.0
 31
0.0
  0
LINE
  5
2AC
330
28E
100
AcDbEntity
  8
Border
100
AcDbLine
 10
315.0
 20
5.0
 30
0.0
 11
315.0
 21
10.0
 31
0.0
  0
LINE
  5
2AD
330
28E
100
AcDbEntity
  8
Border
100
AcDbLine
 10
365.0
 20
5.0
 30
0.0
 11
365.0
 21
10.0
 31
0.0
  0
LINE
  5
2AE
330
28E
100
AcDbEntity
  8
Border
100
AcDbLine
 10
165.0
 20
5.0
 30
0.0
 11
165.0
 21
10.0
 31
0.0
  0
LINE
  5
2AF
330
28E
100
AcDbEntity
  8
Border
100
AcDbLine
 10
115.0
 20
5.0
 30
0.0
 11
115.0
 21
10.0
 31
0.0
  0
LINE
  5
2B0
330
28E
100
AcDbEntity
  8
Border
100
AcDbLine
 10
65.0
 20
5.0
 30
0.0
 11
65.0
 21
10.0
 31
0.0
  0
LINE
  5
2B1
330
28E
100
AcDbEntity
  8
Border
100
AcDbLine
 10
415.0
 20
100.66667
 30
0.0
 11
410.0
 21
100.66667
 31
0.0
  0
LINE
  5
2B2
330
28E
100
AcDbEntity
  8
Border
100
AcDbLine
 10
415.0
 20
52.83334
 30
0.0
 11
410.0
 21
52.83334
 31
0.0
  0
LINE
  5
2B3
330
28E
100
AcDbEntity
  8
Border
100
AcDbLine
 10
415.0
 20
196.33333
 30
0.0
 11
410.0
 21
196.33333
 31
0.0
  0
LINE
  5
2B4
330
28E
100
AcDbEntity
  8
Border
100
AcDbLine
 10
415.0
 20
244.16666
 30
0.0
 11
410.0
 21
244.16666
 31
0.0
  0
TEXT
  5
2B5
330
28E
100
AcDbEntity
  8
Border
100
AcDbText
 10
39.02882
 20
288.244884
 30
0.0
 40
2.5
  1
1
  7
FusionTitle
 72
     4
 11
40.0
 21
289.5
 31
0.0
100
AcDbText
  0
TEXT
  5
2B6
330
28E
100
AcDbEntity
  8
Border
100
AcDbText
 10
16.335266
 20
266.83333
 30
0.0
 40
2.5
  1
A
  7
FusionTitle
 72
     4
 11
17.5
 21
268.08333
 31
0.0
100
AcDbText
  0
TEXT
  5
2B7
330
28E
100
AcDbEntity
  8
Border
100
AcDbText
 10
89.02882
 20
288.244884
 30
0.0
 40
2.5
  1
2
  7
FusionTitle
 72
     4
 11
90.0
 21
289.5
 31
0.0
100
AcDbText
  0
TEXT
  5
2B8
330
28E
100
AcDbEntity
  8
Border
100
AcDbText
 10
139.02882
 20
288.267053
 30
0.0
 40
2.5
  1
3
  7
FusionTitle
 72
     4
 11
140.0
 21
289.5
 31
0.0
100
AcDbText
  0
TEXT
  5
2B9
330
28E
100
AcDbEntity
  8
Border
100
AcDbText
 10
189.02882
 20
288.25
 30
0.0
 40
2.5
  1
4
  7
FusionTitle
 72
     4
 11
190.0
 21
289.5
 31
0.0
100
AcDbText
  0
TEXT
  5
2BA
330
28E
100
AcDbEntity
  8
Border
100
AcDbText
 10
239.02882
 20
288.28837
 30
0.0
 40
2.5
  1
5
  7
FusionTitle
 72
     4
 11
240.0
 21
289.5
 31
0.0
100
AcDbText
  0
TEXT
  5
2BB
330
28E
100
AcDbEntity
  8
Border
100
AcDbText
 10
289.02882
 20
288.266201
 30
0.0
 40
2.5
  1
6
  7
FusionTitle
 72
     4
 11
290.0
 21
289.5
 31
0.0
100
AcDbText
  0
TEXT
  5
2BC
330
28E
100
AcDbEntity
  8
Border
100
AcDbText
 10
339.02882
 20
288.266201
 30
0.0
 40
2.5
  1
7
  7
FusionTitle
 72
     4
 11
340.0
 21
289.5
 31
0.0
100
AcDbText
  0
TEXT
  5
2BD
330
28E
100
AcDbEntity
  8
Border
100
AcDbText
 10
389.02882
 20
288.266201
 30
0.0
 40
2.5
  1
8
  7
FusionTitle
 72
     4
 11
390.0
 21
289.5
 31
0.0
100
AcDbText
  0
TEXT
  5
2BE
330
28E
100
AcDbEntity
  8
Border
100
AcDbText
 10
39.02882
 20
6.244884
 30
0.0
 40
2.5
  1
1
  7
FusionTitle
 72
     4
 11
40.0
 21
7.5
 31
0.0
100
AcDbText
  0
TEXT
  5
2BF
330
28E
100
AcDbEntity
  8
Border
100
AcDbText
 10
89.02882
 20
6.244884
 30
0.0
 40
2.5
  1
2
  7
FusionTitle
 72
     4
 11
90.0
 21
7.5
 31
0.0
100
AcDbText
  0
TEXT
  5
2C0
330
28E
100
AcDbEntity
  8
Border
100
AcDbText
 10
139.02882
 20
6.267053
 30
0.0
 40
2.5
  1
3
  7
FusionTitle
 72
     4
 11
140.0
 21
7.5
 31
0.0
100
AcDbText
  0
TEXT
  5
2C1
330
28E
100
AcDbEntity
  8
Border
100
AcDbText
 10
189.02882
 20
6.25
 30
0.0
 40
2.5
  1
4
  7
FusionTitle
 72
     4
 11
190.0
 21
7.5
 31
0.0
100
AcDbText
  0
TEXT
  5
2C2
330
28E
100
AcDbEntity
  8
Border
100
AcDbText
 10
239.02882
 20
6.28837
 30
0.0
 40
2.5
  1
5
  7
FusionTitle
 72
     4
 11
240.0
 21
7.5
 31
0.0
100
AcDbText
  0
TEXT
  5
2C3
330
28E
100
AcDbEntity
  8
Border
100
AcDbText
 10
289.02882
 20
6.266201
 30
0.0
 40
2.5
  1
6
  7
FusionTitle
 72
     4
 11
290.0
 21
7.5
 31
0.0
100
AcDbText
  0
TEXT
  5
2C4
330
28E
100
AcDbEntity
  8
Border
100
AcDbText
 10
339.02882
 20
6.266201
 30
0.0
 40
2.5
  1
7
  7
FusionTitle
 72
     4
 11
340.0
 21
7.5
 31
0.0
100
AcDbText
  0
TEXT
  5
2C5
330
28E
100
AcDbEntity
  8
Border
100
AcDbText
 10
389.02882
 20
6.266201
 30
0.0
 40
2.5
  1
8
  7
FusionTitle
 72
     4
 11
390.0
 21
7.5
 31
0.0
100
AcDbText
  0
TEXT
  5
2C6
330
28E
100
AcDbEntity
  8
Border
100
AcDbText
 10
16.335266
 20
219.0
 30
0.0
 40
2.5
  1
B
  7
FusionTitle
 72
     4
 11
17.5
 21
220.25
 31
0.0
100
AcDbText
  0
TEXT
  5
2C7
330
28E
100
AcDbEntity
  8
Border
100
AcDbText
 10
16.238915
 20
171.16667
 30
0.0
 40
2.5
  1
C
  7
FusionTitle
 72
     4
 11
17.5
 21
172.41667
 31
0.0
100
AcDbText
  0
TEXT
  5
2C8
330
28E
100
AcDbEntity
  8
Border
100
AcDbText
 10
16.238915
 20
123.33334
 30
0.0
 40
2.5
  1
D
  7
FusionTitle
 72
     4
 11
17.5
 21
124.58334
 31
0.0
100
AcDbText
  0
TEXT
  5
2C9
330
28E
100
AcDbEntity
  8
Border
100
AcDbText
 10
16.335266
 20
75.50001
 30
0.0
 40
2.5
  1
E
  7
FusionTitle
 72
     4
 11
17.5
 21
76.75001
 31
0.0
100
AcDbText
  0
TEXT
  5
2CA
330
28E
100
AcDbEntity
  8
Border
100
AcDbText
 10
16.433322
 20
27.66668
 30
0.0
 40
2.5
  1
F
  7
FusionTitle
 72
     4
 11
17.5
 21
28.91668
 31
0.0
100
AcDbText
  0
TEXT
  5
2CB
330
28E
100
AcDbEntity
  8
Border
100
AcDbText
 10
411.335266
 20
266.83333
 30
0.0
 40
2.5
  1
A
  7
FusionTitle
 72
     4
 11
412.5
 21
268.08333
 31
0.0
100
AcDbText
  0
TEXT
  5
2CC
330
28E
100
AcDbEntity
  8
Border
100
AcDbText
 10
411.335266
 20
219.0
 30
0.0
 40
2.5
  1
B
  7
FusionTitle
 72
     4
 11
412.5
 21
220.25
 31
0.0
100
AcDbText
  0
TEXT
  5
2CD
330
28E
100
AcDbEntity
  8
Border
100
AcDbText
 10
411.238915
 20
171.16667
 30
0.0
 40
2.5
  1
C
  7
FusionTitle
 72
     4
 11
412.5
 21
172.41667
 31
0.0
100
AcDbText
  0
TEXT
  5
2CE
330
28E
100
AcDbEntity
  8
Border
100
AcDbText
 10
411.238915
 20
123.33334
 30
0.0
 40
2.5
  1
D
  7
FusionTitle
 72
     4
 11
412.5
 21
124.58334
 31
0.0
100
AcDbText
  0
TEXT
  5
2CF
330
28E
100
AcDbEntity
  8
Border
100
AcDbText
 10
411.335266
 20
75.50001
 30
0.0
 40
2.5
  1
E
  7
FusionTitle
 72
     4
 11
412.5
 21
76.75001
 31
0.0
100
AcDbText
  0
TEXT
  5
2D0
330
28E
100
AcDbEntity
  8
Border
100
AcDbText
 10
411.433322
 20
27.66668
 30
0.0
 40
2.5
  1
F
  7
FusionTitle
 72
     4
 11
412.5
 21
28.91668
 31
0.0
100
AcDbText
  0
ENDBLK
  5
2D1
330
28E
100
AcDbEntity
  8
0
100
AcDbBlockEnd
  0
BLOCK
  5
2D7
330
2D4
100
AcDbEntity
  8
0
100
AcDbBlockBegin
  2
ISO_TITLEBLOCK
 70
     2
 10
0.0
 20
0.0
 30
0.0
  3
ISO_TITLEBLOCK
  1

  0
LINE
  5
2D8
330
2D4
100
AcDbEntity
  8
TitleBlock
100
AcDbLine
 10
-180.0
 20
0.0
 30
0.0
 11
0.0
 21
0.0
 31
0.0
  0
LINE
  5
2D9
330
2D4
100
AcDbEntity
  8
TitleBlock
100
AcDbLine
 10
-61.0
 20
10.0
 30
0.0
 11
0.0
 21
10.0
 31
0.0
  0
LINE
  5
2DA
330
2D4
100
AcDbEntity
  8
TitleBlock
100
AcDbLine
 10
-122.0
 20
27.0
 30
0.0
 11
0.0
 21
27.0
 31
0.0
  0
LINE
  5
2DB
330
2D4
100
AcDbEntity
  8
TitleBlock
100
AcDbLine
 10
-180.0
 20
37.0
 30
0.0
 11
0.0
 21
37.0
 31
0.0
  0
LINE
  5
2DC
330
2D4
100
AcDbEntity
  8
TitleBlock
100
AcDbLine
 10
0.0
 20
0.0
 30
0.0
 11
0.0
 21
47.0
 31
0.0
  0
LINE
  5
2DD
330
2D4
100
AcDbEntity
  8
TitleBlock
100
AcDbLine
 10
-15.0
 20
0.0
 30
0.0
 11
-15.0
 21
10.0
 31
0.0
  0
LINE
  5
2DE
330
2D4
100
AcDbEntity
  8
TitleBlock
100
AcDbLine
 10
-51.0
 20
0.0
 30
0.0
 11
-51.0
 21
10.0
 31
0.0
  0
LINE
  5
2DF
330
2D4
100
AcDbEntity
  8
TitleBlock
100
AcDbLine
 10
-61.0
 20
0.0
 30
0.0
 11
-61.0
 21
47.0
 31
0.0
  0
LINE
  5
2E0
330
2D4
100
AcDbEntity
  8
TitleBlock
100
AcDbLine
 10
-122.0
 20
0.0
 30
0.0
 11
-122.0
 21
47.0
 31
0.0
  0
LINE
  5
2E1
330
2D4
100
AcDbEntity
  8
TitleBlock
100
AcDbLine
 10
-156.0
 20
37.0
 30
0.0
 11
-156.0
 21
47.0
 31
0.0
  0
LINE
  5
2E2
330
2D4
100
AcDbEntity
  8
TitleBlock
100
AcDbLine
 10
0.0
 20
47.0
 30
0.0
 11
-180.0
 21
47.0
 31
0.0
  0
LINE
  5
2E3
330
2D4
100
AcDbEntity
  8
TitleBlock
100
AcDbLine
 10
-180.0
 20
47.0
 30
0.0
 11
-180.0
 21
0.0
 31
0.0
  0
TEXT
  5
2E4
330
2D4
100
AcDbEntity
  8
TitleBlock
100
AcDbText
 10
-179.0
 20
44.2
 30
0.0
 40
1.8
  1
Dept.
  7
FusionTitle
 11
-179.0
 21
46.0
 31
0.0
100
AcDbText
 73
     3
  0
TEXT
  5
2E5
330
2D4
100
AcDbEntity
  8
TitleBlock
100
AcDbText
 10
-155.0
 20
44.2
 30
0.0
 40
1.8
  1
Technical reference
  7
FusionTitle
 11
-155.0
 21
46.0
 31
0.0
100
AcDbText
 73
     3
  0
TEXT
  5
2E6
330
2D4
100
AcDbEntity
  8
TitleBlock
100
AcDbText
 10
-121.0
 20
44.2
 30
0.0
 40
1.8
  1
Created by
  7
FusionTitle
 11
-121.0
 21
46.0
 31
0.0
100
AcDbText
 73
     3
  0
TEXT
  5
2E7
330
2D4
100
AcDbEntity
  8
TitleBlock
100
AcDbText
 10
-60.0
 20
44.2
 30
0.0
 40
1.8
  1
Approved by
  7
FusionTitle
 11
-60.0
 21
46.0
 31
0.0
100
AcDbText
 73
     3
  0
TEXT
  5
2E8
330
2D4
100
AcDbEntity
  8
TitleBlock
100
AcDbText
 10
-121.0
 20
34.2
 30
0.0
 40
1.8
  1
Document type
  7
FusionTitle
 11
-121.0
 21
36.0
 31
0.0
100
AcDbText
 73
     3
  0
TEXT
  5
2E9
330
2D4
100
AcDbEntity
  8
TitleBlock
100
AcDbText
 10
-60.0
 20
34.2
 30
0.0
 40
1.8
  1
Document status
  7
FusionTitle
 11
-60.0
 21
36.0
 31
0.0
100
AcDbText
 73
     3
  0
TEXT
  5
2EA
330
2D4
100
AcDbEntity
  8
TitleBlock
100
AcDbText
 10
-121.0
 20
24.2
 30
0.0
 40
1.8
  1
Title
  7
FusionTitle
 11
-121.0
 21
26.0
 31
0.0
100
AcDbText
 73
     3
  0
TEXT
  5
2EB
330
2D4
100
AcDbEntity
  8
TitleBlock
100
AcDbText
 10
-60.0
 20
24.2
 30
0.0
 40
1.8
  1
DWG No.
  7
FusionTitle
 11
-60.0
 21
26.0
 31
0.0
100
AcDbText
 73
     3
  0
TEXT
  5
2EC
330
2D4
100
AcDbEntity
  8
TitleBlock
100
AcDbText
 10
-60.0
 20
7.2
 30
0.0
 40
1.8
  1
Rev.
  7
FusionTitle
 11
-60.0
 21
9.0
 31
0.0
100
AcDbText
 73
     3
  0
TEXT
  5
2ED
330
2D4
100
AcDbEntity
  8
TitleBlock
100
AcDbText
 10
-50.0
 20
7.2
 30
0.0
 40
1.8
  1
Date of issue
  7
FusionTitle
 11
-50.0
 21
9.0
 31
0.0
100
AcDbText
 73
     3
  0
TEXT
  5
2EE
330
2D4
100
AcDbEntity
  8
TitleBlock
100
AcDbText
 10
-14.0
 20
7.2
 30
0.0
 40
1.8
  1
Sheet
  7
FusionTitle
 11
-14.0
 21
9.0
 31
0.0
100
AcDbText
 73
     3
  0
ATTDEF
  5
2EF
102
{ACAD_XDICTIONARY
360
2F0
102
}
330
2D4
100
AcDbEntity
  8
TitleBlock
100
AcDbText
 10
-50.0
 20
1.5
 30
0.0
 40
3.5
  1

  7
FusionTitle
 11
-50.0
 21
5.0
 31
0.0
100
AcDbAttributeDefinition
280
     0
  3
Date of issue
  2
DATE_OF_ISSUE
 70
     0
 74
     3
280
     1
  0
ATTDEF
  5
2F1
102
{ACAD_XDICTIONARY
360
2F2
102
}
330
2D4
100
AcDbEntity
  8
TitleBlock
100
AcDbText
 10
-61.026774
 20
1.35
 30
0.0
 40
3.5
  1

  7
FusionTitle
 72
     1
 11
-56.0
 21
4.85
 31
0.0
100
AcDbAttributeDefinition
280
     0
  3
Revision
  2
REV
 70
     0
 74
     3
280
     1
  0
ATTDEF
  5
2F3
102
{ACAD_XDICTIONARY
360
2F4
102
}
330
2D4
100
AcDbEntity
  8
TitleBlock
100
AcDbText
 10
-121.0
 20
1.5
 30
0.0
 40
5.0
  1

  7
FusionTitle
 11
-121.0
 21
6.5
 31
0.0
100
AcDbAttributeDefinition
280
     0
  3
3rd Title
  2
TITLE_3
 70
     0
 74
     3
280
     1
  0
ATTDEF
  5
2F5
102
{ACAD_XDICTIONARY
360
2F6
102
}
330
2D4
100
AcDbEntity
  8
TitleBlock
100
AcDbText
 10
-60.0
 20
28.5
 30
0.0
 40
3.5
  1

  7
FusionTitle
 11
-60.0
 21
32.0
 31
0.0
100
AcDbAttributeDefinition
280
     0
  3
Document status
  2
DOCUMENT_STATUS
 70
     0
 74
     3
280
     1
  0
ATTDEF
  5
2F7
102
{ACAD_XDICTIONARY
360
2F8
102
}
330
2D4
100
AcDbEntity
  8
TitleBlock
100
AcDbText
 10
-121.0
 20
28.5
 30
0.0
 40
3.5
  1

  7
FusionTitle
 11
-121.0
 21
32.0
 31
0.0
100
AcDbAttributeDefinition
280
     0
  3
Document type
  2
DOCUMENT_TYPE
 70
     0
 74
     3
280
     1
  0
ATTDEF
  5
2F9
102
{ACAD_XDICTIONARY
360
2FA
102
}
330
2D4
100
AcDbEntity
  8
TitleBlock
100
AcDbText
 10
-43.923943
 20
38.5
 30
0.0
 40
3.5
  1

  7
FusionTitle
 72
     2
 11
-0.992838
 21
42.0
 31
0.0
100
AcDbAttributeDefinition
280
     0
  3
Approved date
  2
APPROVED_DATE
 70
     0
 74
     3
280
     1
  0
ATTDEF
  5
2FB
102
{ACAD_XDICTIONARY
360
2FC
102
}
330
2D4
100
AcDbEntity
  8
TitleBlock
100
AcDbText
 10
-101.123124
 20
38.5
 30
0.0
 40
3.5
  1

  7
FusionTitle
 72
     2
 11
-62.0
 21
42.0
 31
0.0
100
AcDbAttributeDefinition
280
     0
  3
Created date
  2
CREATED_DATE
 70
     0
 74
     3
280
     1
  0
ATTDEF
  5
2FD
102
{ACAD_XDICTIONARY
360
2FE
102
}
330
2D4
100
AcDbEntity
  8
TitleBlock
100
AcDbText
 10
-15.65075
 20
1.35
 30
0.0
 40
3.5
  1

  7
FusionTitle
 72
     1
 11
-7.5
 21
4.85
 31
0.0
100
AcDbAttributeDefinition
280
     0
  3
Sheet
  2
SHEET
 70
     0
 74
     3
280
     1
  0
ATTDEF
  5
2FF
102
{ACAD_XDICTIONARY
360
300
102
}
330
2D4
100
AcDbEntity
  8
TitleBlock
100
AcDbText
 10
-121.0
 20
9.0
 30
0.0
 40
5.0
  1

  7
FusionTitle
 11
-121.0
 21
14.0
 31
0.0
100
AcDbAttributeDefinition
280
     0
  3
2nd Title
  2
TITLE_2
 70
     0
 74
     3
280
     1
  0
ATTDEF
  5
301
102
{ACAD_XDICTIONARY
360
302
102
}
330
2D4
100
AcDbEntity
  8
TitleBlock
100
AcDbText
 10
-64.456344
 20
14.751432
 30
0.0
 40
5.0
  1

  7
FusionTitle
 72
     1
 11
-30.5
 21
19.751432
 31
0.0
100
AcDbAttributeDefinition
280
     0
  3
Drawing number
  2
DRAWING_NUMBER
 70
     0
 74
     3
280
     1
  0
ATTDEF
  5
303
102
{ACAD_XDICTIONARY
360
304
102
}
330
2D4
100
AcDbEntity
  8
TitleBlock
100
AcDbText
 10
-121.0
 20
16.5
 30
0.0
 40
5.0
  1

  7
FusionTitle
 11
-121.0
 21
21.5
 31
0.0
100
AcDbAttributeDefinition
280
     0
  3
1st Title
  2
TITLE_1
 70
     0
 74
     3
280
     1
  0
ATTDEF
  5
305
102
{ACAD_XDICTIONARY
360
306
102
}
330
2D4
100
AcDbEntity
  8
TitleBlock
100
AcDbText
 10
-60.0
 20
38.5
 30
0.0
 40
3.5
  1

  7
FusionTitle
 11
-60.0
 21
42.0
 31
0.0
100
AcDbAttributeDefinition
280
     0
  3
Approved by
  2
APPROVED_BY
 70
     0
 74
     3
280
     1
  0
ATTDEF
  5
307
102
{ACAD_XDICTIONARY
360
308
102
}
330
2D4
100
AcDbEntity
  8
TitleBlock
100
AcDbText
 10
-121.0
 20
38.5
 30
0.0
 40
3.5
  1

  7
FusionTitle
 11
-121.0
 21
42.0
 31
0.0
100
AcDbAttributeDefinition
280
     0
  3
Created by
  2
CREATED_BY
 70
     0
 74
     3
280
     1
  0
ATTDEF
  5
309
102
{ACAD_XDICTIONARY
360
30A
102
}
330
2D4
100
AcDbEntity
  8
TitleBlock
100
AcDbText
 10
-155.0
 20
38.5
 30
0.0
 40
3.5
  1

  7
FusionTitle
 11
-155.0
 21
42.0
 31
0.0
100
AcDbAttributeDefinition
280
     0
  3
Technical reference
  2
TECHNICAL_REFERENCE
 70
     0
 74
     3
280
     1
  0
ATTDEF
  5
30B
102
{ACAD_XDICTIONARY
360
30C
102
}
330
2D4
100
AcDbEntity
  8
TitleBlock
100
AcDbText
 10
-179.0
 20
38.5
 30
0.0
 40
3.5
  1

  7
FusionTitle
 11
-179.0
 21
42.0
 31
0.0
100
AcDbAttributeDefinition
280
     0
  3
Department
  2
DEPT
 70
     0
 74
     3
280
     1
  0
ENDBLK
  5
30D
330
2D4
100
AcDbEntity
  8
0
100
AcDbBlockEnd
  0
BLOCK
  5
321
330
320
100
AcDbEntity
  8
0
100
AcDbBlockBegin
  2
*U7
 70
     1
 10
0.0
 20
0.0
 30
0.0
  3
*U7
  1

  0
LINE
  5
322
330
320
100
AcDbEntity
  8
Center Lines
 62
     0
440
 16777216
 48
0.75
100
AcDbLine
 10
-106.945756
 20
0.0
 30
0.0
 11
56.76135
 21
0.0
 31
0.0
  0
ENDBLK
  5
323
330
320
100
AcDbEntity
  8
0
100
AcDbBlockEnd
  0
BLOCK
  5
326
330
325
100
AcDbEntity
  8
0
100
AcDbBlockBegin
  2
*U8
 70
     1
 10
0.0
 20
0.0
 30
0.0
  3
*U8
  1

  0
LINE
  5
327
330
325
100
AcDbEntity
  8
Center Lines
 62
     0
440
 16777216
 48
0.75
100
AcDbLine
 10
-116.421204
 20
0.0
 30
0.0
 11
78.615964
 21
0.0
 31
0.0
  0
ENDBLK
  5
328
330
325
100
AcDbEntity
  8
0
100
AcDbBlockEnd
  0
BLOCK
  5
32B
330
32A
100
AcDbEntity
  8
0
100
AcDbBlockBegin
  2
*U9
 70
     1
 10
0.0
 20
0.0
 30
0.0
  3
*U9
  1

  0
LINE
  5
32C
330
32A
100
AcDbEntity
  8
Center Lines
  6
Continuous
 62
     0
440
 16777216
 48
0.75
100
AcDbLine
 10
-0.892969
 20
0.0
 30
0.0
 11
0.892969
 21
0.0
 31
0.0
  0
LINE
  5
32D
330
32A
100
AcDbEntity
  8
Center Lines
  6
Continuous
 62
     0
440
 16777216
 48
0.75
100
AcDbLine
 10
0.0
 20
-0.892969
 30
0.0
 11
0.0
 21
0.892969
 31
0.0
  0
LINE
  5
32E
330
32A
100
AcDbEntity
  8
Center Lines
 62
     0
440
 16777216
 48
0.75
 60
     1
100
AcDbLine
 10
-31.5
 20
0.0
 30
0.0
 11
-2.678906
 21
0.0
 31
0.0
  0
LINE
  5
32F
330
32A
100
AcDbEntity
  8
Center Lines
 62
     0
440
 16777216
 48
0.75
 60
     1
100
AcDbLine
 10
2.678906
 20
0.0
 30
0.0
 11
31.5
 21
0.0
 31
0.0
  0
LINE
  5
330
330
32A
100
AcDbEntity
  8
Center Lines
 62
     0
440
 16777216
 48
0.75
 60
     1
100
AcDbLine
 10
0.0
 20
-31.5
 30
0.0
 11
0.0
 21
-2.678906
 31
0.0
  0
LINE
  5
331
330
32A
100
AcDbEntity
  8
Center Lines
 62
     0
440
 16777216
 48
0.75
 60
     1
100
AcDbLine
 10
0.0
 20
2.678906
 30
0.0
 11
0.0
 21
31.5
 31
0.0
  0
ENDBLK
  5
332
330
32A
100
AcDbEntity
  8
0
100
AcDbBlockEnd
  0
BLOCK
  5
335
330
334
100
AcDbEntity
  8
0
100
AcDbBlockBegin
  2
*U10
 70
     1
 10
0.0
 20
0.0
 30
0.0
  3
*U10
  1

  0
LINE
  5
336
330
334
100
AcDbEntity
  8
Center Lines
  6
Continuous
 62
     0
440
 16777216
 48
0.75
100
AcDbLine
 10
-0.892969
 20
0.0
 30
0.0
 11
0.892969
 21
0.0
 31
0.0
  0
LINE
  5
337
330
334
100
AcDbEntity
  8
Center Lines
  6
Continuous
 62
     0
440
 16777216
 48
0.75
100
AcDbLine
 10
0.0
 20
-0.892969
 30
0.0
 11
0.0
 21
0.892969
 31
0.0
  0
LINE
  5
338
330
334
100
AcDbEntity
  8
Center Lines
 62
     0
440
 16777216
 48
0.75
 60
     1
100
AcDbLine
 10
-31.5
 20
0.0
 30
0.0
 11
-2.678906
 21
0.0
 31
0.0
  0
LINE
  5
339
330
334
100
AcDbEntity
  8
Center Lines
 62
     0
440
 16777216
 48
0.75
 60
     1
100
AcDbLine
 10
2.678906
 20
0.0
 30
0.0
 11
31.5
 21
0.0
 31
0.0
  0
LINE
  5
33A
330
334
100
AcDbEntity
  8
Center Lines
 62
     0
440
 16777216
 48
0.75
 60
     1
100
AcDbLine
 10
0.0
 20
-31.5
 30
0.0
 11
0.0
 21
-2.678906
 31
0.0
  0
LINE
  5
33B
330
334
100
AcDbEntity
  8
Center Lines
 62
     0
440
 16777216
 48
0.75
 60
     1
100
AcDbLine
 10
0.0
 20
2.678906
 30
0.0
 11
0.0
 21
31.5
 31
0.0
  0
ENDBLK
  5
33C
330
334
100
AcDbEntity
  8
0
100
AcDbBlockEnd
  0
BLOCK
  5
33F
330
33E
100
AcDbEntity
  8
0
100
AcDbBlockBegin
  2
*U11
 70
     1
 10
0.0
 20
0.0
 30
0.0
  3
*U11
  1

  0
LINE
  5
340
330
33E
100
AcDbEntity
  8
Center Lines
  6
Continuous
 62
     0
440
 16777216
 48
0.75
100
AcDbLine
 10
-0.892969
 20
0.0
 30
0.0
 11
0.892969
 21
0.0
 31
0.0
  0
LINE
  5
341
330
33E
100
AcDbEntity
  8
Center Lines
  6
Continuous
 62
     0
440
 16777216
 48
0.75
100
AcDbLine
 10
0.0
 20
-0.892969
 30
0.0
 11
0.0
 21
0.892969
 31
0.0
  0
LINE
  5
342
330
33E
100
AcDbEntity
  8
Center Lines
 62
     0
440
 16777216
 48
0.75
 60
     1
100
AcDbLine
 10
-31.5
 20
0.0
 30
0.0
 11
-2.678906
 21
0.0
 31
0.0
  0
LINE
  5
343
330
33E
100
AcDbEntity
  8
Center Lines
 62
     0
440
 16777216
 48
0.75
 60
     1
100
AcDbLine
 10
2.678906
 20
0.0
 30
0.0
 11
31.5
 21
0.0
 31
0.0
  0
LINE
  5
344
330
33E
100
AcDbEntity
  8
Center Lines
 62
     0
440
 16777216
 48
0.75
 60
     1
100
AcDbLine
 10
0.0
 20
-31.5
 30
0.0
 11
0.0
 21
-2.678906
 31
0.0
  0
LINE
  5
345
330
33E
100
AcDbEntity
  8
Center Lines
 62
     0
440
 16777216
 48
0.75
 60
     1
100
AcDbLine
 10
0.0
 20
2.678906
 30
0.0
 11
0.0
 21
31.5
 31
0.0
  0
ENDBLK
  5
346
330
33E
100
AcDbEntity
  8
0
100
AcDbBlockEnd
  0
BLOCK
  5
349
330
348
100
AcDbEntity
  8
0
100
AcDbBlockBegin
  2
*U12
 70
     1
 10
0.0
 20
0.0
 30
0.0
  3
*U12
  1

  0
LINE
  5
34A
330
348
100
AcDbEntity
  8
Center Lines
  6
Continuous
 62
     0
440
 16777216
 48
0.75
100
AcDbLine
 10
-0.892969
 20
0.0
 30
0.0
 11
0.892969
 21
0.0
 31
0.0
  0
LINE
  5
34B
330
348
100
AcDbEntity
  8
Center Lines
  6
Continuous
 62
     0
440
 16777216
 48
0.75
100
AcDbLine
 10
0.0
 20
-0.892969
 30
0.0
 11
0.0
 21
0.892969
 31
0.0
  0
LINE
  5
34C
330
348
100
AcDbEntity
  8
Center Lines
 62
     0
440
 16777216
 48
0.75
 60
     1
100
AcDbLine
 10
-31.5
 20
0.0
 30
0.0
 11
-2.678906
 21
0.0
 31
0.0
  0
LINE
  5
34D
330
348
100
AcDbEntity
  8
Center Lines
 62
     0
440
 16777216
 48
0.75
 60
     1
100
AcDbLine
 10
2.678906
 20
0.0
 30
0.0
 11
31.5
 21
0.0
 31
0.0
  0
LINE
  5
34E
330
348
100
AcDbEntity
  8
Center Lines
 62
     0
440
 16777216
 48
0.75
 60
     1
100
AcDbLine
 10
0.0
 20
-31.5
 30
0.0
 11
0.0
 21
-2.678906
 31
0.0
  0
LINE
  5
34F
330
348
100
AcDbEntity
  8
Center Lines
 62
     0
440
 16777216
 48
0.75
 60
     1
100
AcDbLine
 10
0.0
 20
2.678906
 30
0.0
 11
0.0
 21
31.5
 31
0.0
  0
ENDBLK
  5
350
330
348
100
AcDbEntity
  8
0
100
AcDbBlockEnd
  0
BLOCK
  5
353
330
352
100
AcDbEntity
  8
0
100
AcDbBlockBegin
  2
*U13
 70
     1
 10
0.0
 20
0.0
 30
0.0
  3
*U13
  1

  0
LINE
  5
354
330
352
100
AcDbEntity
  8
Center Lines
  6
Continuous
 62
     0
440
 16777216
 48
0.75
100
AcDbLine
 10
-0.892969
 20
0.0
 30
0.0
 11
0.892969
 21
0.0
 31
0.0
  0
LINE
  5
355
330
352
100
AcDbEntity
  8
Center Lines
  6
Continuous
 62
     0
440
 16777216
 48
0.75
100
AcDbLine
 10
0.0
 20
-0.892969
 30
0.0
 11
0.0
 21
0.892969
 31
0.0
  0
LINE
  5
356
330
352
100
AcDbEntity
  8
Center Lines
 62
     0
440
 16777216
 48
0.75
 60
     1
100
AcDbLine
 10
-31.5
 20
0.0
 30
0.0
 11
-2.678906
 21
0.0
 31
0.0
  0
LINE
  5
357
330
352
100
AcDbEntity
  8
Center Lines
 62
     0
440
 16777216
 48
0.75
 60
     1
100
AcDbLine
 10
2.678906
 20
0.0
 30
0.0
 11
31.5
 21
0.0
 31
0.0
  0
LINE
  5
358
330
352
100
AcDbEntity
  8
Center Lines
 62
     0
440
 16777216
 48
0.75
 60
     1
100
AcDbLine
 10
0.0
 20
-31.5
 30
0.0
 11
0.0
 21
-2.678906
 31
0.0
  0
LINE
  5
359
330
352
100
AcDbEntity
  8
Center Lines
 62
     0
440
 16777216
 48
0.75
 60
     1
100
AcDbLine
 10
0.0
 20
2.678906
 30
0.0
 11
0.0
 21
31.5
 31
0.0
  0
ENDBLK
  5
35A
330
352
100
AcDbEntity
  8
0
100
AcDbBlockEnd
  0
BLOCK
  5
35D
330
35C
100
AcDbEntity
  8
0
100
AcDbBlockBegin
  2
*U14
 70
     1
 10
0.0
 20
0.0
 30
0.0
  3
*U14
  1

  0
LINE
  5
35E
330
35C
100
AcDbEntity
  8
Center Lines
  6
Continuous
 62
     0
440
 16777216
 48
0.75
100
AcDbLine
 10
-0.892969
 20
0.0
 30
0.0
 11
0.892969
 21
0.0
 31
0.0
  0
LINE
  5
35F
330
35C
100
AcDbEntity
  8
Center Lines
  6
Continuous
 62
     0
440
 16777216
 48
0.75
100
AcDbLine
 10
0.0
 20
-0.892969
 30
0.0
 11
0.0
 21
0.892969
 31
0.0
  0
LINE
  5
360
330
35C
100
AcDbEntity
  8
Center Lines
 62
     0
440
 16777216
 48
0.75
 60
     1
100
AcDbLine
 10
-5.5
 20
0.0
 30
0.0
 11
-2.678906
 21
0.0
 31
0.0
  0
LINE
  5
361
330
35C
100
AcDbEntity
  8
Center Lines
 62
     0
440
 16777216
 48
0.75
 60
     1
100
AcDbLine
 10
2.678906
 20
0.0
 30
0.0
 11
5.5
 21
0.0
 31
0.0
  0
LINE
  5
362
330
35C
100
AcDbEntity
  8
Center Lines
 62
     0
440
 16777216
 48
0.75
 60
     1
100
AcDbLine
 10
0.0
 20
-5.5
 30
0.0
 11
0.0
 21
-2.678906
 31
0.0
  0
LINE
  5
363
330
35C
100
AcDbEntity
  8
Center Lines
 62
     0
440
 16777216
 48
0.75
 60
     1
100
AcDbLine
 10
0.0
 20
2.678906
 30
0.0
 11
0.0
 21
5.5
 31
0.0
  0
ENDBLK
  5
364
330
35C
100
AcDbEntity
  8
0
100
AcDbBlockEnd
  0
BLOCK
  5
36A
330
369
100
AcDbEntity
  8
0
100
AcDbBlockBegin
  2
*U15
 70
     1
 10
0.0
 20
0.0
 30
0.0
  3
*U15
  1

  0
LINE
  5
36B
330
369
100
AcDbEntity
  8
Center Lines
  6
Continuous
 62
     0
440
 16777216
 48
0.75
100
AcDbLine
 10
0.892969
 20
0.0
 30
0.0
 11
-0.892969
 21
0.0
 31
0.0
  0
LINE
  5
36C
330
369
100
AcDbEntity
  8
Center Lines
  6
Continuous
 62
     0
440
 16777216
 48
0.75
100
AcDbLine
 10
0.0
 20
-0.892969
 30
0.0
 11
0.0
 21
0.892969
 31
0.0
  0
LINE
  5
36D
330
369
100
AcDbEntity
  8
Center Lines
 62
     0
440
 16777216
 48
0.75
100
AcDbLine
 10
31.5
 20
0.0
 30
0.0
 11
2.678906
 21
0.0
 31
0.0
  0
LINE
  5
36E
330
369
100
AcDbEntity
  8
Center Lines
 62
     0
440
 16777216
 48
0.75
100
AcDbLine
 10
-2.678906
 20
0.0
 30
0.0
 11
-31.5
 21
0.0
 31
0.0
  0
LINE
  5
36F
330
369
100
AcDbEntity
  8
Center Lines
 62
     0
440
 16777216
 48
0.75
100
AcDbLine
 10
0.0
 20
-31.5
 30
0.0
 11
0.0
 21
-2.678906
 31
0.0
  0
LINE
  5
370
330
369
100
AcDbEntity
  8
Center Lines
 62
     0
440
 16777216
 48
0.75
100
AcDbLine
 10
0.0
 20
2.678906
 30
0.0
 11
0.0
 21
31.5
 31
0.0
  0
ENDBLK
  5
371
330
369
100
AcDbEntity
  8
0
100
AcDbBlockEnd
  0
BLOCK
  5
367
330
366
100
AcDbEntity
  8
0
100
AcDbBlockBegin
  2
*U16
 70
     1
 10
0.0
 20
0.0
 30
0.0
  3
*U16
  1

  0
INSERT
  5
368
330
366
100
AcDbEntity
  8
Center Lines
 62
     0
440
 16777216
 48
0.75
100
AcDbBlockReference
  2
*U15
 10
0.0
 20
0.0
 30
0.0
  0
ENDBLK
  5
372
330
366
100
AcDbEntity
  8
0
100
AcDbBlockEnd
  0
BLOCK
  5
376
330
375
100
AcDbEntity
  8
0
100
AcDbBlockBegin
  2
*D17
 70
     1
 10
0.0
 20
0.0
 30
0.0
  3
*D17
  1

  0
LINE
  5
377
330
375
100
AcDbEntity
  8
Dimensions
440
 16777216
370
    -2
100
AcDbLine
 10
328.947815
 20
232.048354
 30
0.0
 11
360.543567
 21
232.048354
 31
0.0
  0
LINE
  5
378
330
375
100
AcDbEntity
  8
Dimensions
440
 16777216
370
    -2
100
AcDbLine
 10
328.947815
 20
200.048354
 30
0.0
 11
360.543567
 21
200.048354
 31
0.0
  0
LINE
  5
379
330
375
100
AcDbEntity
  8
Dimensions
440
 16777216
370
    -2
100
AcDbLine
 10
358.443567
 20
228.548354
 30
0.0
 11
358.443567
 21
203.548354
 31
0.0
  0
SOLID
  5
37A
330
375
100
AcDbEntity
  8
Dimensions
440
 16777216
100
AcDbTrace
 10
357.860234
 20
228.548354
 30
0.0
 11
359.026901
 21
228.548354
 31
0.0
 12
358.443567
 22
232.048354
 32
0.0
 13
358.443567
 23
232.048354
 33
0.0
  0
SOLID
  5
37B
330
375
100
AcDbEntity
  8
Dimensions
440
 16777216
100
AcDbTrace
 10
357.860234
 20
203.548354
 30
0.0
 11
359.026901
 21
203.548354
 31
0.0
 12
358.443567
 22
200.048354
 32
0.0
 13
358.443567
 23
200.048354
 33
0.0
  0
MTEXT
  5
37C
330
375
100
AcDbEntity
  8
Dimensions
440
 16777216
100
AcDbMText
 10
355.255368
 20
216.048354
 30
0.0
 40
3.5
 41
0.0
 46
0.0
 71
     5
 72
     1
  1
32
 11
0.0
 21
1.0
 31
0.0
 73
     1
 44
1.0
  0
POINT
  5
37D
330
375
100
AcDbEntity
  8
Defpoints
 62
     0
440
 16777216
100
AcDbPoint
 10
326.847815
 20
232.048354
 30
0.0
  0
POINT
  5
37E
330
375
100
AcDbEntity
  8
Defpoints
 62
     0
440
 16777216
100
AcDbPoint
 10
326.847815
 20
200.048354
 30
0.0
  0
POINT
  5
37F
330
375
100
AcDbEntity
  8
Defpoints
 62
     0
440
 16777216
100
AcDbPoint
 10
358.443567
 20
200.048354
 30
0.0
  0
ENDBLK
  5
380
330
375
100
AcDbEntity
  8
0
100
AcDbBlockEnd
  0
BLOCK
  5
383
330
382
100
AcDbEntity
  8
0
100
AcDbBlockBegin
  2
*D18
 70
     1
 10
0.0
 20
0.0
 30
0.0
  3
*D18
  1

  0
LINE
  5
384
330
382
100
AcDbEntity
  8
Dimensions
440
 16777216
370
    -2
100
AcDbLine
 10
197.867287
 20
219.743723
 30
0.0
 11
197.867287
 21
273.499907
 31
0.0
  0
LINE
  5
385
330
382
100
AcDbEntity
  8
Dimensions
440
 16777216
370
    -2
100
AcDbLine
 10
327.847815
 20
233.148354
 30
0.0
 11
327.847815
 21
273.499907
 31
0.0
  0
LINE
  5
386
330
382
100
AcDbEntity
  8
Dimensions
440
 16777216
370
    -2
100
AcDbLine
 10
201.367287
 20
271.399907
 30
0.0
 11
324.347815
 21
271.399907
 31
0.0
  0
SOLID
  5
387
330
382
100
AcDbEntity
  8
Dimensions
440
 16777216
100
AcDbTrace
 10
201.367287
 20
271.983241
 30
0.0
 11
201.367287
 21
270.816574
 31
0.0
 12
197.867287
 22
271.399907
 32
0.0
 13
197.867287
 23
271.399907
 33
0.0
  0
SOLID
  5
388
330
382
100
AcDbEntity
  8
Dimensions
440
 16777216
100
AcDbTrace
 10
324.347815
 20
271.983241
 30
0.0
 11
324.347815
 21
270.816574
 31
0.0
 12
327.847815
 22
271.399907
 32
0.0
 13
327.847815
 23
271.399907
 33
0.0
  0
MTEXT
  5
389
330
382
100
AcDbEntity
  8
Dimensions
440
 16777216
100
AcDbMText
 10
262.857551
 20
274.588107
 30
0.0
 40
3.5
 41
0.0
 46
0.0
 71
     5
 72
     1
  1
130
 73
     1
 44
1.0
  0
POINT
  5
38A
330
382
100
AcDbEntity
  8
Defpoints
 62
     0
440
 16777216
100
AcDbPoint
 10
197.867287
 20
217.643723
 30
0.0
  0
POINT
  5
38B
330
382
100
AcDbEntity
  8
Defpoints
 62
     0
440
 16777216
100
AcDbPoint
 10
327.847815
 20
231.048354
 30
0.0
  0
POINT
  5
38C
330
382
100
AcDbEntity
  8
Defpoints
 62
     0
440
 16777216
100
AcDbPoint
 10
327.847815
 20
271.399907
 30
0.0
  0
ENDBLK
  5
38D
330
382
100
AcDbEntity
  8
0
100
AcDbBlockEnd
  0
BLOCK
  5
390
330
38F
100
AcDbEntity
  8
0
100
AcDbBlockBegin
  2
*D19
 70
     1
 10
0.0
 20
0.0
 30
0.0
  3
*D19
  1

  0
LINE
  5
391
330
38F
100
AcDbEntity
  8
Dimensions
440
 16777216
370
    -2
100
AcDbLine
 10
224.305815
 20
244.048354
 30
0.0
 11
163.496538
 21
244.048354
 31
0.0
  0
LINE
  5
392
330
38F
100
AcDbEntity
  8
Dimensions
440
 16777216
370
    -2
100
AcDbLine
 10
239.435638
 20
188.048354
 30
0.0
 11
163.496538
 21
188.048354
 31
0.0
  0
LINE
  5
393
330
38F
100
AcDbEntity
  8
Dimensions
440
 16777216
370
    -2
100
AcDbLine
 10
165.596538
 20
240.548354
 30
0.0
 11
165.596538
 21
191.548354
 31
0.0
  0
SOLID
  5
394
330
38F
100
AcDbEntity
  8
Dimensions
440
 16777216
100
AcDbTrace
 10
165.013205
 20
240.548354
 30
0.0
 11
166.179871
 21
240.548354
 31
0.0
 12
165.596538
 22
244.048354
 32
0.0
 13
165.596538
 23
244.048354
 33
0.0
  0
SOLID
  5
395
330
38F
100
AcDbEntity
  8
Dimensions
440
 16777216
100
AcDbTrace
 10
165.013205
 20
191.548354
 30
0.0
 11
166.179871
 21
191.548354
 31
0.0
 12
165.596538
 22
188.048354
 32
0.0
 13
165.596538
 23
188.048354
 33
0.0
  0
MTEXT
  5
396
330
38F
100
AcDbEntity
  8
Dimensions
440
 16777216
100
AcDbMText
 10
162.409533
 20
216.048354
 30
0.0
 40
3.5
 41
0.0
 46
0.0
 71
     5
 72
     1
  1
56
 11
0.0
 21
1.0
 31
0.0
 73
     1
 44
1.0
  0
POINT
  5
397
330
38F
100
AcDbEntity
  8
Defpoints
 62
     0
440
 16777216
100
AcDbPoint
 10
226.405815
 20
244.048354
 30
0.0
  0
POINT
  5
398
330
38F
100
AcDbEntity
  8
Defpoints
 62
     0
440
 16777216
100
AcDbPoint
 10
241.535638
 20
188.048354
 30
0.0
  0
POINT
  5
399
330
38F
100
AcDbEntity
  8
Defpoints
 62
     0
440
 16777216
100
AcDbPoint
 10
165.596538
 20
188.048354
 30
0.0
  0
ENDBLK
  5
39A
330
38F
100
AcDbEntity
  8
0
100
AcDbBlockEnd
  0
BLOCK
  5
39D
330
39C
100
AcDbEntity
  8
0
100
AcDbBlockBegin
  2
*D20
 70
     1
 10
0.0
 20
0.0
 30
0.0
  3
*D20
  1

  0
LINE
  5
39E
330
39C
100
AcDbEntity
  8
Dimensions
440
 16777216
370
    -2
100
AcDbLine
 10
217.235544
 20
239.045778
 30
0.0
 11
175.235544
 21
239.045778
 31
0.0
  0
LINE
  5
39F
330
39C
100
AcDbEntity
  8
Dimensions
440
 16777216
370
    -2
100
AcDbLine
 10
217.235544
 20
193.050929
 30
0.0
 11
175.235544
 21
193.050929
 31
0.0
  0
LINE
  5
3A0
330
39C
100
AcDbEntity
  8
Dimensions
440
 16777216
370
    -2
100
AcDbLine
 10
177.335544
 20
235.545778
 30
0.0
 11
177.335544
 21
196.550929
 31
0.0
  0
SOLID
  5
3A1
330
39C
100
AcDbEntity
  8
Dimensions
440
 16777216
100
AcDbTrace
 10
176.752211
 20
235.545778
 30
0.0
 11
177.918877
 21
235.545778
 31
0.0
 12
177.335544
 22
239.045778
 32
0.0
 13
177.335544
 23
239.045778
 33
0.0
  0
SOLID
  5
3A2
330
39C
100
AcDbEntity
  8
Dimensions
440
 16777216
100
AcDbTrace
 10
176.752211
 20
196.550929
 30
0.0
 11
177.918877
 21
196.550929
 31
0.0
 12
177.335544
 22
193.050929
 32
0.0
 13
177.335544
 23
193.050929
 33
0.0
  0
MTEXT
  5
3A3
330
39C
100
AcDbEntity
  8
Dimensions
440
 16777216
100
AcDbMText
 10
174.148539
 20
216.048354
 30
0.0
 40
3.5
 41
0.0
 46
0.0
 71
     5
 72
     1
  1
46
 11
0.0
 21
1.0
 31
0.0
 73
     1
 44
1.0
  0
POINT
  5
3A4
330
39C
100
AcDbEntity
  8
Defpoints
 62
     0
440
 16777216
100
AcDbPoint
 10
219.335544
 20
239.045778
 30
0.0
  0
POINT
  5
3A5
330
39C
100
AcDbEntity
  8
Defpoints
 62
     0
440
 16777216
100
AcDbPoint
 10
219.335544
 20
193.050929
 30
0.0
  0
POINT
  5
3A6
330
39C
100
AcDbEntity
  8
Defpoints
 62
     0
440
 16777216
100
AcDbPoint
 10
177.335544
 20
193.050929
 30
0.0
  0
ENDBLK
  5
3A7
330
39C
100
AcDbEntity
  8
0
100
AcDbBlockEnd
  0
BLOCK
  5
3AA
330
3A9
100
AcDbEntity
  8
0
100
AcDbBlockBegin
  2
*D21
 70
     1
 10
0.0
 20
0.0
 30
0.0
  3
*D21
  1

  0
LINE
  5
3AB
330
3A9
100
AcDbEntity
  8
Dimensions
440
 16777216
370
    -2
100
AcDbLine
 10
327.847815
 20
233.148354
 30
0.0
 11
327.847815
 21
257.378175
 31
0.0
  0
LINE
  5
3AC
330
3A9
100
AcDbEntity
  8
Dimensions
440
 16777216
370
    -2
100
AcDbLine
 10
245.847815
 20
238.148354
 30
0.0
 11
245.847815
 21
257.378175
 31
0.0
  0
LINE
  5
3AD
330
3A9
100
AcDbEntity
  8
Dimensions
440
 16777216
370
    -2
100
AcDbLine
 10
324.347815
 20
255.278175
 30
0.0
 11
249.347815
 21
255.278175
 31
0.0
  0
SOLID
  5
3AE
330
3A9
100
AcDbEntity
  8
Dimensions
440
 16777216
100
AcDbTrace
 10
324.347815
 20
255.861508
 30
0.0
 11
324.347815
 21
254.694842
 31
0.0
 12
327.847815
 22
255.278175
 32
0.0
 13
327.847815
 23
255.278175
 33
0.0
  0
SOLID
  5
3AF
330
3A9
100
AcDbEntity
  8
Dimensions
440
 16777216
100
AcDbTrace
 10
249.347815
 20
255.861508
 30
0.0
 11
249.347815
 21
254.694842
 31
0.0
 12
245.847815
 22
255.278175
 32
0.0
 13
245.847815
 23
255.278175
 33
0.0
  0
MTEXT
  5
3B0
330
3A9
100
AcDbEntity
  8
Dimensions
440
 16777216
100
AcDbMText
 10
286.847815
 20
258.46518
 30
0.0
 40
3.5
 41
0.0
 46
0.0
 71
     5
 72
     1
  1
82
 73
     1
 44
1.0
  0
POINT
  5
3B1
330
3A9
100
AcDbEntity
  8
Defpoints
 62
     0
440
 16777216
100
AcDbPoint
 10
327.847815
 20
231.048354
 30
0.0
  0
POINT
  5
3B2
330
3A9
100
AcDbEntity
  8
Defpoints
 62
     0
440
 16777216
100
AcDbPoint
 10
245.847815
 20
236.048354
 30
0.0
  0
POINT
  5
3B3
330
3A9
100
AcDbEntity
  8
Defpoints
 62
     0
440
 16777216
100
AcDbPoint
 10
245.847815
 20
255.278175
 30
0.0
  0
ENDBLK
  5
3B4
330
3A9
100
AcDbEntity
  8
0
100
AcDbBlockEnd
  0
BLOCK
  5
3B7
330
3B6
100
AcDbEntity
  8
0
100
AcDbBlockBegin
  2
*D22
 70
     1
 10
0.0
 20
0.0
 30
0.0
  3
*D22
  1

  0
LINE
  5
67F
330
3B6
100
AcDbEntity
  8
Dimensions
440
 16777216
370
    -2
100
AcDbLine
 10
328.947815
 20
232.048354
 30
0.0
 11
360.543567
 21
232.048354
 31
0.0
  0
LINE
  5
680
330
3B6
100
AcDbEntity
  8
Dimensions
440
 16777216
370
    -2
100
AcDbLine
 10
328.947815
 20
200.048354
 30
0.0
 11
360.543567
 21
200.048354
 31
0.0
  0
LINE
  5
681
330
3B6
100
AcDbEntity
  8
Dimensions
440
 16777216
370
    -2
100
AcDbLine
 10
358.443567
 20
228.548354
 30
0.0
 11
358.443567
 21
203.548354
 31
0.0
  0
SOLID
  5
682
330
3B6
100
AcDbEntity
  8
Dimensions
440
 16777216
100
AcDbTrace
 10
357.860234
 20
228.548354
 30
0.0
 11
359.026901
 21
228.548354
 31
0.0
 12
358.443567
 22
232.048354
 32
0.0
 13
358.443567
 23
232.048354
 33
0.0
  0
SOLID
  5
683
330
3B6
100
AcDbEntity
  8
Dimensions
440
 16777216
100
AcDbTrace
 10
357.860234
 20
203.548354
 30
0.0
 11
359.026901
 21
203.548354
 31
0.0
 12
358.443567
 22
200.048354
 32
0.0
 13
358.443567
 23
200.048354
 33
0.0
  0
MTEXT
  5
684
330
3B6
100
AcDbEntity
  8
Dimensions
440
 16777216
100
AcDbMText
 10
355.255368
 20
216.048354
 30
0.0
 40
3.5
 41
0.0
 46
0.0
 71
     5
 72
     1
  1
32
 11
0.0
 21
1.0
 31
0.0
 73
     1
 44
1.0
  0
POINT
  5
685
330
3B6
100
AcDbEntity
  8
Defpoints
 62
     0
440
 16777216
100
AcDbPoint
 10
326.847815
 20
232.048354
 30
0.0
  0
POINT
  5
686
330
3B6
100
AcDbEntity
  8
Defpoints
 62
     0
440
 16777216
100
AcDbPoint
 10
326.847815
 20
200.048354
 30
0.0
  0
POINT
  5
687
330
3B6
100
AcDbEntity
  8
Defpoints
 62
     0
440
 16777216
100
AcDbPoint
 10
358.443567
 20
200.048354
 30
0.0
  0
ENDBLK
  5
3B8
330
3B6
100
AcDbEntity
  8
0
100
AcDbBlockEnd
  0
BLOCK
  5
3C3
330
3C2
100
AcDbEntity
  8
0
100
AcDbBlockBegin
  2
*D23
 70
     1
 10
0.0
 20
0.0
 30
0.0
  3
*D23
  1

  0
LINE
  5
688
330
3C2
100
AcDbEntity
  8
Dimensions
440
 16777216
370
    -2
100
AcDbLine
 10
197.867287
 20
219.743723
 30
0.0
 11
197.867287
 21
273.499907
 31
0.0
  0
LINE
  5
689
330
3C2
100
AcDbEntity
  8
Dimensions
440
 16777216
370
    -2
100
AcDbLine
 10
327.847815
 20
233.148354
 30
0.0
 11
327.847815
 21
273.499907
 31
0.0
  0
LINE
  5
68A
330
3C2
100
AcDbEntity
  8
Dimensions
440
 16777216
370
    -2
100
AcDbLine
 10
201.367287
 20
271.399907
 30
0.0
 11
324.347815
 21
271.399907
 31
0.0
  0
SOLID
  5
68B
330
3C2
100
AcDbEntity
  8
Dimensions
440
 16777216
100
AcDbTrace
 10
201.367287
 20
271.983241
 30
0.0
 11
201.367287
 21
270.816574
 31
0.0
 12
197.867287
 22
271.399907
 32
0.0
 13
197.867287
 23
271.399907
 33
0.0
  0
SOLID
  5
68C
330
3C2
100
AcDbEntity
  8
Dimensions
440
 16777216
100
AcDbTrace
 10
324.347815
 20
271.983241
 30
0.0
 11
324.347815
 21
270.816574
 31
0.0
 12
327.847815
 22
271.399907
 32
0.0
 13
327.847815
 23
271.399907
 33
0.0
  0
MTEXT
  5
68D
330
3C2
100
AcDbEntity
  8
Dimensions
440
 16777216
100
AcDbMText
 10
262.857551
 20
274.588107
 30
0.0
 40
3.5
 41
0.0
 46
0.0
 71
     5
 72
     1
  1
130
 73
     1
 44
1.0
  0
POINT
  5
68E
330
3C2
100
AcDbEntity
  8
Defpoints
 62
     0
440
 16777216
100
AcDbPoint
 10
197.867287
 20
217.643723
 30
0.0
  0
POINT
  5
68F
330
3C2
100
AcDbEntity
  8
Defpoints
 62
     0
440
 16777216
100
AcDbPoint
 10
327.847815
 20
231.048354
 30
0.0
  0
POINT
  5
690
330
3C2
100
AcDbEntity
  8
Defpoints
 62
     0
440
 16777216
100
AcDbPoint
 10
327.847815
 20
271.399907
 30
0.0
  0
ENDBLK
  5
3C4
330
3C2
100
AcDbEntity
  8
0
100
AcDbBlockEnd
  0
BLOCK
  5
3CF
330
3CE
100
AcDbEntity
  8
0
100
AcDbBlockBegin
  2
*D24
 70
     1
 10
0.0
 20
0.0
 30
0.0
  3
*D24
  1

  0
LINE
  5
691
330
3CE
100
AcDbEntity
  8
Dimensions
440
 16777216
370
    -2
100
AcDbLine
 10
224.305815
 20
244.048354
 30
0.0
 11
163.496538
 21
244.048354
 31
0.0
  0
LINE
  5
692
330
3CE
100
AcDbEntity
  8
Dimensions
440
 16777216
370
    -2
100
AcDbLine
 10
239.435638
 20
188.048354
 30
0.0
 11
163.496538
 21
188.048354
 31
0.0
  0
LINE
  5
693
330
3CE
100
AcDbEntity
  8
Dimensions
440
 16777216
370
    -2
100
AcDbLine
 10
165.596538
 20
240.548354
 30
0.0
 11
165.596538
 21
191.548354
 31
0.0
  0
SOLID
  5
694
330
3CE
100
AcDbEntity
  8
Dimensions
440
 16777216
100
AcDbTrace
 10
165.013205
 20
240.548354
 30
0.0
 11
166.179871
 21
240.548354
 31
0.0
 12
165.596538
 22
244.048354
 32
0.0
 13
165.596538
 23
244.048354
 33
0.0
  0
SOLID
  5
695
330
3CE
100
AcDbEntity
  8
Dimensions
440
 16777216
100
AcDbTrace
 10
165.013205
 20
191.548354
 30
0.0
 11
166.179871
 21
191.548354
 31
0.0
 12
165.596538
 22
188.048354
 32
0.0
 13
165.596538
 23
188.048354
 33
0.0
  0
MTEXT
  5
696
330
3CE
100
AcDbEntity
  8
Dimensions
440
 16777216
100
AcDbMText
 10
162.409533
 20
216.048354
 30
0.0
 40
3.5
 41
0.0
 46
0.0
 71
     5
 72
     1
  1
56
 11
0.0
 21
1.0
 31
0.0
 73
     1
 44
1.0
  0
POINT
  5
697
330
3CE
100
AcDbEntity
  8
Defpoints
 62
     0
440
 16777216
100
AcDbPoint
 10
226.405815
 20
244.048354
 30
0.0
  0
POINT
  5
698
330
3CE
100
AcDbEntity
  8
Defpoints
 62
     0
440
 16777216
100
AcDbPoint
 10
241.535638
 20
188.048354
 30
0.0
  0
POINT
  5
699
330
3CE
100
AcDbEntity
  8
Defpoints
 62
     0
440
 16777216
100
AcDbPoint
 10
165.596538
 20
188.048354
 30
0.0
  0
ENDBLK
  5
3D0
330
3CE
100
AcDbEntity
  8
0
100
AcDbBlockEnd
  0
BLOCK
  5
3DB
330
3DA
100
AcDbEntity
  8
0
100
AcDbBlockBegin
  2
*D25
 70
     1
 10
0.0
 20
0.0
 30
0.0
  3
*D25
  1

  0
LINE
  5
69A
330
3DA
100
AcDbEntity
  8
Dimensions
440
 16777216
370
    -2
100
AcDbLine
 10
217.235544
 20
239.045778
 30
0.0
 11
175.235544
 21
239.045778
 31
0.0
  0
LINE
  5
69B
330
3DA
100
AcDbEntity
  8
Dimensions
440
 16777216
370
    -2
100
AcDbLine
 10
217.235544
 20
193.050929
 30
0.0
 11
175.235544
 21
193.050929
 31
0.0
  0
LINE
  5
69C
330
3DA
100
AcDbEntity
  8
Dimensions
440
 16777216
370
    -2
100
AcDbLine
 10
177.335544
 20
235.545778
 30
0.0
 11
177.335544
 21
196.550929
 31
0.0
  0
SOLID
  5
69D
330
3DA
100
AcDbEntity
  8
Dimensions
440
 16777216
100
AcDbTrace
 10
176.752211
 20
235.545778
 30
0.0
 11
177.918877
 21
235.545778
 31
0.0
 12
177.335544
 22
239.045778
 32
0.0
 13
177.335544
 23
239.045778
 33
0.0
  0
SOLID
  5
69E
330
3DA
100
AcDbEntity
  8
Dimensions
440
 16777216
100
AcDbTrace
 10
176.752211
 20
196.550929
 30
0.0
 11
177.918877
 21
196.550929
 31
0.0
 12
177.335544
 22
193.050929
 32
0.0
 13
177.335544
 23
193.050929
 33
0.0
  0
MTEXT
  5
69F
330
3DA
100
AcDbEntity
  8
Dimensions
440
 16777216
100
AcDbMText
 10
174.148539
 20
216.048354
 30
0.0
 40
3.5
 41
0.0
 46
0.0
 71
     5
 72
     1
  1
46
 11
0.0
 21
1.0
 31
0.0
 73
     1
 44
1.0
  0
POINT
  5
6A0
330
3DA
100
AcDbEntity
  8
Defpoints
 62
     0
440
 16777216
100
AcDbPoint
 10
219.335544
 20
239.045778
 30
0.0
  0
POINT
  5
6A1
330
3DA
100
AcDbEntity
  8
Defpoints
 62
     0
440
 16777216
100
AcDbPoint
 10
219.335544
 20
193.050929
 30
0.0
  0
POINT
  5
6A2
330
3DA
100
AcDbEntity
  8
Defpoints
 62
     0
440
 16777216
100
AcDbPoint
 10
177.335544
 20
193.050929
 30
0.0
  0
ENDBLK
  5
3DC
330
3DA
100
AcDbEntity
  8
0
100
AcDbBlockEnd
  0
BLOCK
  5
3E7
330
3E6
100
AcDbEntity
  8
0
100
AcDbBlockBegin
  2
*D26
 70
     1
 10
0.0
 20
0.0
 30
0.0
  3
*D26
  1

  0
LINE
  5
6A3
330
3E6
100
AcDbEntity
  8
Dimensions
440
 16777216
370
    -2
100
AcDbLine
 10
327.847815
 20
233.148354
 30
0.0
 11
327.847815
 21
257.378175
 31
0.0
  0
LINE
  5
6A4
330
3E6
100
AcDbEntity
  8
Dimensions
440
 16777216
370
    -2
100
AcDbLine
 10
245.847815
 20
238.148354
 30
0.0
 11
245.847815
 21
257.378175
 31
0.0
  0
LINE
  5
6A5
330
3E6
100
AcDbEntity
  8
Dimensions
440
 16777216
370
    -2
100
AcDbLine
 10
324.347815
 20
255.278175
 30
0.0
 11
249.347815
 21
255.278175
 31
0.0
  0
SOLID
  5
6A6
330
3E6
100
AcDbEntity
  8
Dimensions
440
 16777216
100
AcDbTrace
 10
324.347815
 20
255.861508
 30
0.0
 11
324.347815
 21
254.694842
 31
0.0
 12
327.847815
 22
255.278175
 32
0.0
 13
327.847815
 23
255.278175
 33
0.0
  0
SOLID
  5
6A7
330
3E6
100
AcDbEntity
  8
Dimensions
440
 16777216
100
AcDbTrace
 10
249.347815
 20
255.861508
 30
0.0
 11
249.347815
 21
254.694842
 31
0.0
 12
245.847815
 22
255.278175
 32
0.0
 13
245.847815
 23
255.278175
 33
0.0
  0
MTEXT
  5
6A8
330
3E6
100
AcDbEntity
  8
Dimensions
440
 16777216
100
AcDbMText
 10
286.847815
 20
258.46518
 30
0.0
 40
3.5
 41
0.0
 46
0.0
 71
     5
 72
     1
  1
82
 73
     1
 44
1.0
  0
POINT
  5
6A9
330
3E6
100
AcDbEntity
  8
Defpoints
 62
     0
440
 16777216
100
AcDbPoint
 10
327.847815
 20
231.048354
 30
0.0
  0
POINT
  5
6AA
330
3E6
100
AcDbEntity
  8
Defpoints
 62
     0
440
 16777216
100
AcDbPoint
 10
245.847815
 20
236.048354
 30
0.0
  0
POINT
  5
6AB
330
3E6
100
AcDbEntity
  8
Defpoints
 62
     0
440
 16777216
100
AcDbPoint
 10
245.847815
 20
255.278175
 30
0.0
  0
ENDBLK
  5
3E8
330
3E6
100
AcDbEntity
  8
0
100
AcDbBlockEnd
  0
ENDSEC
  0
SECTION
  2
ENTITIES
  0
INSERT
  5
28C
330
70
100
AcDbEntity
  8
Border
100
AcDbBlockReference
  2
ISO_A3_SHEET
 10
0.0
 20
0.0
 30
0.0
  0
INSERT
  5
2D2
330
70
100
AcDbEntity
  8
TitleBlock
100
AcDbBlockReference
 66
     1
  2
ISO_TITLEBLOCK
 10
410.0
 20
10.0
 30
0.0
  0
ATTRIB
  5
30E
330
2D2
100
AcDbEntity
  8
TitleBlock
100
AcDbText
 10
360.0
 20
11.5
 30
0.0
 40
3.5
  1

  7
FusionTitle
 11
360.0
 21
15.0
 31
0.0
100
AcDbAttribute
280
     0
  2
DATE_OF_ISSUE
 70
     0
 74
     3
280
     1
  0
ATTRIB
  5
30F
330
2D2
100
AcDbEntity
  8
TitleBlock
100
AcDbText
 10
354.0
 20
11.35
 30
0.0
 40
3.5
  1

  7
FusionTitle
 72
     1
 11
354.0
 21
14.85
 31
0.0
100
AcDbAttribute
280
     0
  2
REV
 70
     0
 74
     3
280
     1
  0
ATTRIB
  5
310
330
2D2
100
AcDbEntity
  8
TitleBlock
100
AcDbText
 10
289.0
 20
11.5
 30
0.0
 40
5.0
  1

  7
FusionTitle
 11
289.0
 21
16.5
 31
0.0
100
AcDbAttribute
280
     0
  2
TITLE_3
 70
     0
 74
     3
280
     1
  0
ATTRIB
  5
311
330
2D2
100
AcDbEntity
  8
TitleBlock
100
AcDbText
 10
350.0
 20
38.5
 30
0.0
 40
3.5
  1

  7
FusionTitle
 11
350.0
 21
42.0
 31
0.0
100
AcDbAttribute
280
     0
  2
DOCUMENT_STATUS
 70
     0
 74
     3
280
     1
  0
ATTRIB
  5
312
330
2D2
100
AcDbEntity
  8
TitleBlock
100
AcDbText
 10
289.0
 20
38.5
 30
0.0
 40
3.5
  1

  7
FusionTitle
 11
289.0
 21
42.0
 31
0.0
100
AcDbAttribute
280
     0
  2
DOCUMENT_TYPE
 70
     0
 74
     3
280
     1
  0
ATTRIB
  5
313
330
2D2
100
AcDbEntity
  8
TitleBlock
100
AcDbText
 10
409.007162
 20
48.5
 30
0.0
 40
3.5
  1

  7
FusionTitle
 72
     2
 11
409.007162
 21
52.0
 31
0.0
100
AcDbAttribute
280
     0
  2
APPROVED_DATE
 70
     0
 74
     3
280
     1
  0
ATTRIB
  5
314
330
2D2
100
AcDbEntity
  8
TitleBlock
100
AcDbText
 10
323.528649
 20
48.5
 30
0.0
 40
3.5
  1
2022/04/09
  7
FusionTitle
 72
     2
 11
348.0
 21
52.0
 31
0.0
100
AcDbAttribute
280
     0
  2
CREATED_DATE
 70
     0
 74
     3
280
     1
  0
ATTRIB
  5
315
330
2D2
100
AcDbEntity
  8
TitleBlock
100
AcDbText
 10
399.101467
 20
11.35
 30
0.0
 40
3.5
  1
1/1
  7
FusionTitle
 72
     1
 11
402.5
 21
14.85
 31
0.0
100
AcDbAttribute
280
     0
  2
SHEET
 70
     0
 74
     3
280
     1
  0
ATTRIB
  5
316
330
2D2
100
AcDbEntity
  8
TitleBlock
100
AcDbText
 10
289.0
 20
19.0
 30
0.0
 40
5.0
  1

  7
FusionTitle
 11
289.0
 21
24.0
 31
0.0
100
AcDbAttribute
280
     0
  2
TITLE_2
 70
     0
 74
     3
280
     1
  0
ATTRIB
  5
317
330
2D2
100
AcDbEntity
  8
TitleBlock
100
AcDbText
 10
379.5
 20
24.751432
 30
0.0
 40
5.0
  1

  7
FusionTitle
 72
     1
 11
379.5
 21
29.751432
 31
0.0
100
AcDbAttribute
280
     0
  2
DRAWING_NUMBER
 70
     0
 74
     3
280
     1
  0
ATTRIB
  5
318
330
2D2
100
AcDbEntity
  8
TitleBlock
100
AcDbText
 10
289.0
 20
26.5
 30
0.0
 40
5.0
  1
面取りジャイアン本体
  7
FusionTitle
 11
289.0
 21
31.5
 31
0.0
100
AcDbAttribute
280
     0
  2
TITLE_1
 70
     0
 74
     3
280
     1
  0
ATTRIB
  5
319
330
2D2
100
AcDbEntity
  8
TitleBlock
100
AcDbText
 10
350.0
 20
48.5
 30
0.0
 40
3.5
  1

  7
FusionTitle
 11
350.0
 21
52.0
 31
0.0
100
AcDbAttribute
280
     0
  2
APPROVED_BY
 70
     0
 74
     3
280
     1
  0
ATTRIB
  5
31A
330
2D2
100
AcDbEntity
  8
TitleBlock
100
AcDbText
 10
289.0
 20
48.5
 30
0.0
 40
3.5
  1
Naoki Soneda
  7
FusionTitle
 11
289.0
 21
52.0
 31
0.0
100
AcDbAttribute
280
     0
  2
CREATED_BY
 70
     0
 74
     3
280
     1
  0
ATTRIB
  5
31B
330
2D2
100
AcDbEntity
  8
TitleBlock
100
AcDbText
 10
255.0
 20
48.5
 30
0.0
 40
3.5
  1

  7
FusionTitle
 11
255.0
 21
52.0
 31
0.0
100
AcDbAttribute
280
     0
  2
TECHNICAL_REFERENCE
 70
     0
 74
     3
280
     1
  0
ATTRIB
  5
31C
330
2D2
100
AcDbEntity
  8
TitleBlock
100
AcDbText
 10
231.0
 20
48.5
 30
0.0
 40
3.5
  1

  7
FusionTitle
 11
231.0
 21
52.0
 31
0.0
100
AcDbAttribute
280
     0
  2
DEPT
 70
     0
 74
     3
280
     1
  0
SEQEND
  5
31D
330
2D2
100
AcDbEntity
  8
TitleBlock
  0
INSERT
  5
31E
330
70
100
AcDbEntity
  8
Center Lines
 48
0.75
100
AcDbBlockReference
  2
*U7
 10
287.847815
 20
216.048354
 30
0.0
  0
INSERT
  5
324
330
70
100
AcDbEntity
  8
Center Lines
 48
0.75
100
AcDbBlockReference
  2
*U8
 10
287.847815
 20
127.860225
 30
0.0
  0
INSERT
  5
329
330
70
100
AcDbEntity
  8
Center Lines
 48
0.75
100
AcDbBlockReference
  2
*U9
 10
115.571412
 20
216.048354
 30
0.0
  0
INSERT
  5
333
330
70
100
AcDbEntity
  8
Center Lines
 48
0.75
100
AcDbBlockReference
  2
*U10
 10
115.571412
 20
216.048354
 30
0.0
  0
INSERT
  5
33D
330
70
100
AcDbEntity
  8
Center Lines
 48
0.75
100
AcDbBlockReference
  2
*U11
 10
115.571412
 20
216.048354
 30
0.0
  0
INSERT
  5
347
330
70
100
AcDbEntity
  8
Center Lines
 48
0.75
100
AcDbBlockReference
  2
*U12
 10
115.571412
 20
216.048354
 30
0.0
  0
INSERT
  5
351
330
70
100
AcDbEntity
  8
Center Lines
 48
0.75
100
AcDbBlockReference
  2
*U13
 10
115.571412
 20
216.048354
 30
0.0
  0
INSERT
  5
35B
330
70
100
AcDbEntity
  8
Center Lines
 48
0.75
100
AcDbBlockReference
  2
*U14
 10
115.571412
 20
216.048354
 30
0.0
  0
INSERT
  5
365
330
70
100
AcDbEntity
  8
Center Lines
 48
0.75
100
AcDbBlockReference
  2
*U16
 10
115.571412
 20
216.048354
 30
0.0
  0
DIMENSION
  5
373
330
70
100
AcDbEntity
  8
Dimensions
100
AcDbDimension
280
     0
  2
*D22
 10
358.443567
 20
200.048354
 30
0.0
 11
358.443567
 21
216.048354
 31
0.0
 70
   160
 71
     5
 42
32.0
 73
     0
 74
     0
 75
     0
  3
ISO-25
100
AcDbAlignedDimension
 13
326.847815
 23
232.048354
 33
0.0
 14
326.847815
 24
200.048354
 34
0.0
 50
90.0
100
AcDbRotatedDimension
1001
ACAD_DIMASSOC_CALC_DIMLFAC
1040
-1.0
1001
ACAD_DIMASSOC_DIMLFAC
1040
-1.0
1001
ACAD_DIMASSOC_OVERRIDDEN_DIMLFAC
1040
0.0
1001
ACAD_DSTYLE_DIMJAG_POSITION
1070
   387
1070
     0
1070
   389
1010
0.0
1020
0.0
1030
0.0
1001
ACAD
1000
DSTYLE
1002
{
1070
   144
1040
1.0
1002
}
  0
DIMENSION
  5
381
330
70
100
AcDbEntity
  8
Dimensions
100
AcDbDimension
280
     0
  2
*D23
 10
327.847815
 20
271.399907
 30
0.0
 11
262.857551
 21
271.399907
 31
0.0
 70
   160
 71
     5
 42
129.980527
 73
     0
 74
     0
 75
     0
  3
ISO-25
100
AcDbAlignedDimension
 13
197.867287
 23
217.643723
 33
0.0
 14
327.847815
 24
231.048354
 34
0.0
100
AcDbRotatedDimension
1001
ACAD_DIMASSOC_CALC_DIMLFAC
1040
-1.0
1001
ACAD_DIMASSOC_DIMLFAC
1040
-1.0
1001
ACAD_DIMASSOC_OVERRIDDEN_DIMLFAC
1040
0.0
1001
ACAD_DSTYLE_DIMJAG_POSITION
1070
   387
1070
     0
1070
   389
1010
0.0
1020
0.0
1030
0.0
1001
ACAD
1000
DSTYLE
1002
{
1070
   144
1040
1.0
1070
   271
1070
     0
1070
   272
1070
     0
1002
}
  0
DIMENSION
  5
38E
330
70
100
AcDbEntity
  8
Dimensions
100
AcDbDimension
280
     0
  2
*D24
 10
165.596538
 20
188.048354
 30
0.0
 11
162.409533
 21
216.048354
 31
0.0
 70
    32
 71
     5
 42
56.0
 73
     0
 74
     0
 75
     0
  3
ISO-25
100
AcDbAlignedDimension
 13
226.405815
 23
244.048354
 33
0.0
 14
241.535638
 24
188.048354
 34
0.0
 50
90.0
100
AcDbRotatedDimension
1001
ACAD_DIMASSOC_CALC_DIMLFAC
1040
-1.0
1001
ACAD_DIMASSOC_DIMLFAC
1040
-1.0
1001
ACAD_DIMASSOC_OVERRIDDEN_DIMLFAC
1040
0.0
1001
ACAD_TC
1000
DSTYLE_TC
1002
{
1070
   176
1004
18000000020000008C8C8CC2000000000000000000000000
1070
   177
1004
18000000020000008C8C8CC2000000000000000000000000
1002
}
1001
ACAD_DSTYLE_DIMJAG_POSITION
1070
   387
1070
     0
1070
   389
1010
0.0
1020
0.0
1030
0.0
1001
ACAD
1000
DSTYLE
1002
{
1070
   144
1040
1.0
1070
   176
1070
   256
1070
   177
1070
   256
1002
}
  0
DIMENSION
  5
39B
330
70
100
AcDbEntity
  8
Dimensions
100
AcDbDimension
280
     0
  2
*D25
 10
177.335544
 20
193.050929
 30
0.0
 11
174.148539
 21
216.048354
 31
0.0
 70
    33
 71
     5
 42
45.994848
 73
     0
 74
     0
 75
     0
  3
ISO-25
100
AcDbAlignedDimension
 13
219.335544
 23
239.045778
 33
0.0
 14
219.335544
 24
193.050929
 34
0.0
1001
ACAD_DIMASSOC_CALC_DIMLFAC
1040
-1.0
1001
ACAD_DIMASSOC_DIMLFAC
1040
-1.0
1001
ACAD_DIMASSOC_OVERRIDDEN_DIMLFAC
1040
0.0
1001
ACAD_TC
1000
DSTYLE_TC
1002
{
1070
   177
1004
18000000020000008C8C8CC2000000000000000000000000
1070
   176
1004
18000000020000008C8C8CC2000000000000000000000000
1002
}
1001
ACAD_DSTYLE_DIMJAG_POSITION
1070
   387
1070
     0
1070
   389
1010
0.0
1020
0.0
1030
0.0
1001
ACAD
1000
DSTYLE
1002
{
1070
   272
1070
     0
1070
   271
1070
     0
1070
   177
1070
   256
1070
   176
1070
   256
1070
   144
1040
1.0
1002
}
  0
DIMENSION
  5
3A8
330
70
100
AcDbEntity
  8
Dimensions
100
AcDbDimension
280
     0
  2
*D26
 10
245.847815
 20
255.278175
 30
0.0
 11
286.847815
 21
258.46518
 31
0.0
 70
    32
 71
     5
 42
82.0
 73
     0
 74
     0
 75
     0
  3
ISO-25
100
AcDbAlignedDimension
 13
327.847815
 23
231.048354
 33
0.0
 14
245.847815
 24
236.048354
 34
0.0
 50
180.0
100
AcDbRotatedDimension
1001
ACAD_DIMASSOC_CALC_DIMLFAC
1040
-1.0
1001
ACAD_DIMASSOC_DIMLFAC
1040
-1.0
1001
ACAD_DIMASSOC_OVERRIDDEN_DIMLFAC
1040
0.0
1001
ACAD_TC
1000
DSTYLE_TC
1002
{
1070
   176
1004
18000000020000008C8C8CC2000000000000000000000000
1070
   177
1004
18000000020000008C8C8CC2000000000000000000000000
1002
}
1001
ACAD_DSTYLE_DIMJAG_POSITION
1070
   387
1070
     0
1070
   389
1010
0.0
1020
0.0
1030
0.0
1001
ACAD
1000
DSTYLE
1002
{
1070
   144
1040
1.0
1070
   176
1070
   256
1070
   177
1070
   256
1002
}
  0
SPLINE
  5
47A
330
70
100
AcDbEntity
  8
表示
100
AcDbSpline
210
0.3213938048430247
220
0.8830222215597249
230
0.3420201433252901
 70
     8
 71
     3
 72
    14
 73
    10
 74
     0
 42
0.000000001
 43
0.0000000001
 40
1.600323141601261
 40
1.600323141601261
 40
1.600323141601261
 40
1.600323141601261
 40
1.676027661016973
 40
1.676027661016973
 40
1.77623467606587
 40
1.77623467606587
 40
1.899578534871243
 40
1.899578534871243
 40
1.927010393343953
 40
1.927010393343953
 40
1.927010393343953
 40
1.927010393343953
 10
241.5356378361091
 20
102.1815203112328
 30
11.16262077796091
 10
241.762887455527
 20
102.1377808808156
 30
11.06200176037055
 10
242.0101385775149
 20
102.1149245393626
 30
10.88867184809169
 10
242.4408028151982
 20
102.1123078751461
 30
10.49073550438152
 10
242.6843385827
 20
102.1462745564768
 30
10.17419209764739
 10
243.0605510320615
 20
102.2549064502418
 30
9.540203922020737
 10
243.2435133500443
 20
102.3609665313379
 30
9.094451334280165
 10
243.3727814444865
 20
102.4947553701859
 30
8.627565141950981
 10
243.394946380002
 20
102.52099670206
 30
8.538987458094197
 10
243.4150230776809
 20
102.5488497734932
 30
8.448210912103604
1001
ACAD_VIEW_EDGE_ID
1071
        0
1071
       -1
1071
        2
1071
        0
  0
SPLINE
  5
47B
330
70
100
AcDbEntity
  8
表示
100
AcDbSpline
 70
     0
 71
     3
 72
    12
 73
     8
 74
     0
 42
0.000000001
 43
0.0000000001
 40
0.3804389033126918
 40
0.3804389033126918
 40
0.3804389033126918
 40
0.3804389033126918
 40
0.3976510361810623
 40
0.3976510361810623
 40
0.4383512139679603
 40
0.4383512139679603
 40
0.4667159580672895
 40
0.4667159580672895
 40
0.4667159580672895
 40
0.4667159580672895
 10
243.4150230661088
 20
131.9387022977898
 30
26.37051447037993
 10
243.4031628548428
 20
131.8984816638785
 30
26.40970809410465
 10
243.389237285866
 20
131.8612388224046
 30
26.45137713440272
 10
243.3347321894424
 20
131.7469015109891
 30
26.59669344248869
 10
243.2831687539719
 20
131.683888196776
 30
26.70825660270202
 10
243.1694571855806
 20
131.614390563549
 30
26.89603018327216
 10
243.1157832997674
 20
131.5968635193349
 30
26.97193093535862
 10
243.0554923061101
 20
131.5915887408773
 30
27.04381293645929
1001
ACAD_VIEW_EDGE_ID
1071
        2
1071
       -1
1071
        2
1071
        0
  0
SPLINE
  5
47C
330
70
100
AcDbEntity
  8
表示
100
AcDbSpline
210
0.0871557427486639
220
-0.9961946980916575
230
0.0000000000013124
 70
     8
 71
     3
 72
    12
 73
     8
 74
     0
 42
0.000000001
 43
0.0000000001
 40
-0.16463288862375
 40
-0.16463288862375
 40
-0.16463288862375
 40
-0.16463288862375
 40
-0.1491206085497307
 40
-0.1491206085497307
 40
-0.0742436527511563
 40
-0.0742436527511563
 40
0.0
 40
0.0
 40
0.0
 40
0.0
 10
243.0554923061101
 20
131.5915887408773
 30
27.04381293645929
 10
243.0203609701421
 20
131.5885151472448
 30
27.08569830900888
 10
242.9842592040051
 20
131.5853566519745
 30
27.12530153905936
 10
242.7736031548982
 20
131.5669266357745
 30
27.33992800202759
 10
242.5271457359342
 20
131.5453644055742
 30
27.50874372114413
 10
242.0716122972068
 20
131.5055103938284
 30
27.70362376543562
 10
241.7821592238584
 20
131.4801865312875
 30
27.76502034430269
 10
241.5356378361091
 20
131.4586187045424
 30
27.76781528951324
1001
ACAD_VIEW_EDGE_ID
1071
        3
1071
       -1
1071
        2
1071
        0
  0
ELLIPSE
  5
47D
330
70
100
AcDbEntity
  8
表示
100
AcDbEllipse
 10
200.405815
 20
127.860225
 30
0.0
 11
320.041464460186
 21
27.99999999850125
 31
0.000000000310184
210
0.0871557427476584
220
-0.9961946980917455
230
0.0000000000000002
 40
0.0871557427522766
 41
1.441925873210588
 42
1.489467225654668
1001
ACAD_VIEW_EDGE_ID
1071
        5
1071
       -1
1071
        2
1071
        0
  0
ARC
  5
47E
330
70
100
AcDbEntity
  8
表示
100
AcDbCircle
 10
127.860225
 20
0.0
 30
226.405815
 40
28.00000000000002
210
1.0
220
0.0000000000000002
230
0.0
100
AcDbArc
 50
85.340186
 51
143.029898
  0
ELLIPSE
  5
47F
330
70
100
AcDbEntity
  8
表示
100
AcDbEllipse
 10
182.862988
 20
127.860225
 30
0.0
 11
-82.49840905988344
 21
26.10986467971636
 31
10.11310864190267
210
0.3213938048432694
220
0.8830222215594892
230
0.3420201433256687
 40
0.3213938048435319
 41
2.126807013371605
 42
2.361996285859705
1001
ACAD_VIEW_EDGE_ID
1071
        7
1071
       -1
1071
        2
1071
        0
  0
SPLINE
  5
480
330
70
100
AcDbEntity
  8
表示
100
AcDbSpline
210
0.0871557777210679
220
-0.9961946950319674
230
-0.0000000353755575
 70
    12
 71
     2
 72
     6
 73
     3
 74
     0
 42
0.000000001
 43
0.0000000001
 40
0.0
 40
0.0
 40
0.0
 40
0.2167407044975801
 40
0.2167407044975801
 40
0.2167407044975801
 10
226.4058146781866
 20
130.1349306970714
 30
27.9074491134179
 41
1.0
 10
223.7052618986384
 20
129.8986629436076
 30
25.21719827671041
 41
1.058933435672751
 10
221.4795939888752
 20
129.7039422327307
 30
23.00000000187901
 41
1.110920077170514
1001
ACAD_VIEW_EDGE_ID
1071
       11
1071
       -1
1071
        2
1071
        0
  0
SPLINE
  5
481
330
70
100
AcDbEntity
  8
表示
100
AcDbSpline
 70
     0
 71
     3
 72
    12
 73
     8
 74
     0
 42
0.000000001
 43
0.0000000001
 40
0.4446889135324045
 40
0.4446889135324045
 40
0.4446889135324045
 40
0.4446889135324045
 40
0.4601567206559018
 40
0.4601567206559018
 40
0.4972935868787066
 40
0.4972935868787066
 40
0.5189936249196114
 40
0.5189936249196114
 40
0.5189936249196114
 40
0.5189936249196114
 10
243.4150230679737
 20
131.9387023065428
 30
26.37051447992781
 10
243.4262765561352
 20
131.976865407596
 30
26.33332585072276
 10
243.4364358591779
 20
132.0183770734747
 30
26.29855297634822
 10
243.4660409604716
 20
132.1683637968617
 30
26.19218435546645
 10
243.4781818039752
 20
132.2900619725369
 30
26.13807825264303
 10
243.481732343155
 20
132.481327022886
 30
26.09484272454029
 10
243.4797209130657
 20
132.556428540076
 30
26.08703106427129
 10
243.4744073955862
 20
132.6320588997278
 30
26.08805956643846
1001
ACAD_VIEW_EDGE_ID
1071
       12
1071
       -1
1071
        2
1071
        0
  0
SPLINE
  5
482
330
70
100
AcDbEntity
  8
表示
100
AcDbSpline
 70
     0
 71
     3
 72
    14
 73
    10
 74
     0
 42
0.000000001
 43
0.0000000001
 40
0.5464645056670932
 40
0.5464645056670932
 40
0.5464645056670932
 40
0.5464645056670932
 40
0.5873340896482747
 40
0.5873340896482747
 40
0.713164357170178
 40
0.713164357170178
 40
0.8389946246920811
 40
0.8389946246920811
 40
0.8798642086732639
 40
0.8798642086732639
 40
0.8798642086732639
 40
0.8798642086732639
 10
237.0655363187981
 20
131.067535496968
 30
19.75244808630123
 10
237.1929729287062
 20
131.0786352236282
 30
19.79492407377074
 10
237.318401041087
 20
131.0973767808391
 30
19.84644827780903
 10
237.8152504385852
 20
131.1864585026487
 30
20.09321819052821
 10
238.1550699420048
 20
131.2753111244747
 30
20.36773513522894
 10
238.686746480782
 20
131.3218267942811
 30
21.01492647264604
 10
238.8946542130954
 20
131.2808940962859
 30
21.40713881987176
 10
239.0445719784641
 20
131.2483971691672
 30
21.94765605376233
 10
239.071620174251
 20
131.2429955603766
 30
22.08173595035805
 10
239.0888875590474
 20
131.2445557928204
 30
22.21540309697775
1001
ACAD_VIEW_EDGE_ID
1071
       16
1071
       -1
1071
        2
1071
        0
  0
SPLINE
  5
483
330
70
100
AcDbEntity
  8
表示
100
AcDbSpline
210
-0.3213938048430247
220
0.8830222215597249
230
0.3420201433252901
 70
     8
 71
     3
 72
    14
 73
    10
 74
     0
 42
0.000000001
 43
0.0000000001
 40
1.600323141601261
 40
1.600323141601261
 40
1.600323141601261
 40
1.600323141601261
 40
1.676027661016973
 40
1.676027661016973
 40
1.77623467606587
 40
1.77623467606587
 40
1.899578534871242
 40
1.899578534871242
 40
1.927010393343953
 40
1.927010393343953
 40
1.927010393343953
 40
1.927010393343953
 10
241.5356378361091
 20
153.5389305795634
 30
-11.16262077796091
 10
241.762887455527
 20
153.5826700099805
 30
-11.06200176037055
 10
242.0101385775148
 20
153.6055263514336
 30
-10.88867184809351
 10
242.4408028151981
 20
153.60814301565
 30
-10.49073550438152
 10
242.6843385827
 20
153.5741763343194
 30
-10.17419209764739
 10
243.0605510320615
 20
153.4655444405544
 30
-9.540203922020737
 10
243.2435133500443
 20
153.3594843594583
 30
-9.094451334280165
 10
243.3727814444865
 20
153.2256955206103
 30
-8.627565141950981
 10
243.394946380002
 20
153.1994541887361
 30
-8.538987458094197
 10
243.4150230776809
 20
153.171601117303
 30
-8.448210912103604
1001
ACAD_VIEW_EDGE_ID
1071
       17
1071
       -1
1071
        2
1071
        0
  0
ELLIPSE
  5
484
330
70
100
AcDbEntity
  8
表示
100
AcDbEllipse
 10
182.862988
 20
127.860225
 30
0.0
 11
82.49840905988454
 21
26.1098646797165
 31
10.11310864190344
210
0.3213938048432698
220
-0.883022221559489
230
-0.3420201433256684
 40
0.3213938048435303
 41
-1.014785640218198
 42
-0.7795963677301039
1001
ACAD_VIEW_EDGE_ID
1071
       24
1071
       -1
1071
        2
1071
        0
  0
SPLINE
  5
485
330
70
100
AcDbEntity
  8
表示
100
AcDbSpline
 70
     0
 71
     3
 72
    10
 73
     6
 74
     0
 42
0.000000001
 43
0.0000000001
 40
3.368162680965913
 40
3.368162680965913
 40
3.368162680965913
 40
3.368162680965913
 40
3.445499961562914
 40
3.445499961562914
 40
3.529358983907065
 40
3.529358983907065
 40
3.529358983907065
 40
3.529358983907065
 10
220.9417852545571
 20
145.6637779706634
 30
-13.81498212372025
 10
221.0533922307392
 20
145.8863502303884
 30
-13.71116480112323
 10
221.1578390301625
 20
146.1024074516554
 30
-13.5987364717148
 10
221.3568367598147
 20
146.5331062420628
 30
-13.34652163648206
 10
221.4576134127517
 20
146.7633495423106
 30
-13.19573491988922
 10
221.5454064759846
 20
146.9849533299857
 30
-13.0263383922429
1001
ACAD_VIEW_EDGE_ID
1071
       34
1071
       -1
1071
        2
1071
        0
  0
ELLIPSE
  5
486
330
70
100
AcDbEntity
  8
表示
100
AcDbEllipse
 10
218.864204
 20
145.611545
 30
-12.0
 11
-2.223314687922378
 21
-1.504312225272407
 31
1.794577214650779
210
0.3213938048432698
220
-0.883022221559489
230
-0.3420201433256687
 40
0.8516507396389132
 41
3.470097648389063
 42
5.961332340341553
1001
ACAD_VIEW_EDGE_ID
1071
       35
1071
       -1
1071
        2
1071
        0
  0
SPLINE
  5
487
330
70
100
AcDbEntity
  8
表示
100
AcDbSpline
210
-0.3213938048472923
220
0.8830222215599301
230
0.3420201433207495
 70
    12
 71
     2
 72
     6
 73
     3
 74
     0
 42
0.000000001
 43
0.0000000001
 40
6.188462158471123
 40
6.188462158471123
 40
6.188462158471123
 40
6.363394165315646
 40
6.363394165315646
 40
6.363394165315646
 10
221.5454064759846
 20
146.9849533299857
 30
-13.0263383922429
 41
1.179495895060654
 10
223.7073959523761
 20
148.4348746029172
 30
-14.73811675117031
 41
1.092284892601594
 10
226.4058146781866
 20
150.2308097201385
 30
-16.83914959867979
 41
1.0
1001
ACAD_VIEW_EDGE_ID
1071
       38
1071
       -1
1071
        2
1071
        0
  0
SPLINE
  5
488
330
70
100
AcDbEntity
  8
表示
100
AcDbSpline
210
-0.3213938048427601
220
0.883022221559473
230
0.3420201433261885
 70
    12
 71
     2
 72
     6
 73
     3
 74
     0
 42
0.000000001
 43
0.0000000001
 40
4.251339282472958
 40
4.251339282472958
 40
4.251339282472958
 40
5.961183286737242
 40
5.961183286737242
 40
5.961183286737242
 10
207.3002508932178
 20
136.7546616604286
 30
0.0
 41
2.488790085500896
 10
209.0808439616654
 20
138.5352547288767
 30
-2.923896984908424
 41
2.185542381567282
 10
217.3205635114258
 20
144.1350018435405
 30
-9.638432269564873
 41
1.397547284096452
1001
ACAD_VIEW_EDGE_ID
1071
       39
1071
       -1
1071
        2
1071
        0
  0
LINE
  5
489
330
70
100
AcDbEntity
  8
表示
100
AcDbLine
 10
218.785666
 20
140.935011
 30
0.0
 11
207.300251
 21
136.754662
 31
0.0
210
-1.0
220
-0.0000000000000002
230
0.0
  0
ELLIPSE
  5
48A
330
70
100
AcDbEntity
  8
表示
100
AcDbEllipse
 10
218.949872
 20
139.058132
 30
5.0
 11
-2.685071998761331
 21
-2.555574242258387
 31
4.07479900232702
210
-0.3213938048432698
220
0.883022221559489
230
0.342020143325669
 40
0.9076733711900764
 41
2.878525612788437
 42
3.759729156078407
1001
ACAD_VIEW_EDGE_ID
1071
       41
1071
       -1
1071
        2
1071
        0
  0
LINE
  5
48B
330
70
100
AcDbEntity
  8
表示
100
AcDbLine
 10
242.287156
 20
139.652325
 30
25.395795
 11
222.598161
 21
141.618139
 31
1.818885
210
-1.0
220
-0.0000000000000002
230
0.0
  0
ELLIPSE
  5
48C
330
70
100
AcDbEntity
  8
表示
100
AcDbEllipse
 10
182.862988
 20
127.860225
 30
0.0
 11
82.49840908254258
 21
26.10986469328597
 31
10.11310862816165
210
0.32139380484327
220
-0.8830222215594892
230
-0.3420201433256685
 40
0.3213938048522405
 41
0.7551446600572893
 42
0.7665517740595305
1001
ACAD_VIEW_EDGE_ID
1071
       43
1071
       -1
1071
        2
1071
        0
  0
SPLINE
  5
48D
330
70
100
AcDbEntity
  8
表示
100
AcDbSpline
210
-0.3213938048434536
220
0.8830222215594208
230
0.3420201433256719
 70
    12
 71
     2
 72
     6
 73
     3
 74
     0
 42
0.000000001
 43
0.0000000001
 40
0.1771582400161813
 40
0.1771582400161813
 40
0.1771582400161813
 40
3.873373107990881
 40
3.873373107990881
 40
3.873373107990881
 10
243.4150230776809
 20
153.171601117303
 30
-8.448210912103604
 41
1.024418048089239
 10
247.1698360861688
 20
147.9624239597888
 30
8.529130740751497
 41
1.266937091974521
 10
242.9360529125285
 20
139.9412442063385
 30
25.25963154319106
 41
1.0
1001
ACAD_VIEW_EDGE_ID
1071
       44
1071
       -1
1071
        2
1071
        0
  0
SPLINE
  5
48E
330
70
100
AcDbEntity
  8
表示
100
AcDbSpline
 70
     0
 71
     3
 72
    31
 73
    27
 74
     0
 42
0.000000001
 43
0.0000000001
 40
1.851365918094902
 40
1.851365918094902
 40
1.851365918094902
 40
1.851365918094902
 40
2.078042687120643
 40
2.078042687120643
 40
2.251113825776139
 40
2.251113825776139
 40
2.424184964431635
 40
2.424184964431635
 40
2.470316240520732
 40
2.470316240520732
 40
2.516447516609829
 40
2.516447516609829
 40
2.556903281741658
 40
2.556903281741658
 40
2.597359046873487
 40
2.597359046873487
 40
2.597359046873487
 40
2.69545834745735
 40
2.69545834745735
 40
2.793557648041213
 40
2.793557648041213
 40
2.989756249208938
 40
2.989756249208938
 40
3.445499961562914
 40
3.445499961562914
 40
3.529358983907067
 40
3.529358983907067
 40
3.529358983907067
 40
3.529358983907067
 10
217.3205635114258
 20
111.5854490472557
 30
9.638432269564873
 10
216.8917353713602
 20
112.2153944307374
 30
9.860568363625134
 10
216.5230358663315
 20
112.8512978621493
 30
10.16760038725442
 10
216.0295448580989
 20
113.9193803005473
 30
10.79306356991401
 10
215.8418688720978
 20
114.4223139888672
 30
11.12630207576876
 10
215.6193863973088
 20
115.3808423866303
 30
11.87131564695482
 10
215.5769766024992
 20
115.8404650287848
 30
12.27559413944073
 10
215.6929463335949
 20
116.2868684501354
 30
12.84230442451371
 10
215.7306822391872
 20
116.3812554843625
 30
12.97712262978166
 10
215.8396726055379
 20
116.5306498824193
 30
13.25147338017632
 10
215.9115010231498
 20
116.5848428353565
 30
13.3912204425942
 10
216.0666321421356
 20
116.6297517352377
 30
13.63042962823238
 10
216.156439838795
 20
116.629369474218
 30
13.74607610764724
 10
216.3501563574459
 20
116.5772972600607
 30
13.95338563176301
 10
216.4538673691474
 20
116.5262431913324
 30
14.04539256127282
 10
216.5492225220234
 20
116.4663611847227
 30
14.11960004380853
 10
216.7804447909318
 20
116.3211560959844
 30
14.29954231189367
 10
216.9966744230817
 20
116.1165882821878
 30
14.41254582156762
 10
217.4237820083419
 20
115.6594149895536
 30
14.58895934936663
 10
217.6332846023781
 20
115.4038973078586
 30
14.64811187212944
 10
218.2532148401607
 20
114.5939891736198
 30
14.76662925867276
 10
218.6509172891708
 20
114.0012686122663
 30
14.76398103921201
 10
219.8164560431793
 20
112.1739442931011
 30
14.60603406307564
 10
220.6906941922754
 20
110.6291038013587
 30
14.19080784119069
 10
221.3568367598147
 20
109.1873446487334
 30
13.34652163648206
 10
221.4576134127517
 20
108.9571013484856
 30
13.19573491988922
 10
221.5454064759846
 20
108.7354975608104
 30
13.0263383922429
1001
ACAD_VIEW_EDGE_ID
1071
       45
1071
       -1
1071
        2
1071
        0
  0
ELLIPSE
  5
48F
330
70
100
AcDbEntity
  8
表示
100
AcDbEllipse
 10
218.864204
 20
110.108906
 30
12.0
 11
2.223314687911257
 21
-1.504312225272437
 31
1.794577214661311
210
0.3213938048432694
220
0.8830222215594892
230
0.3420201433256689
 40
0.8516507396397859
 41
1.432308880996971
 42
2.819739686757455
1001
ACAD_VIEW_EDGE_ID
1071
       46
1071
       -1
1071
        2
1071
        0
  0
SPLINE
  5
490
330
70
100
AcDbEntity
  8
表示
100
AcDbSpline
210
-0.3213938048472923
220
-0.8830222215599301
230
-0.3420201433207495
 70
    12
 71
     2
 72
     6
 73
     3
 74
     0
 42
0.000000001
 43
0.0000000001
 40
6.188462158471121
 40
6.188462158471121
 40
6.188462158471121
 40
6.363394165315645
 40
6.363394165315645
 40
6.363394165315645
 10
221.5454064759846
 20
108.7354975608104
 30
13.0263383922429
 41
1.179495895060654
 10
223.7073959523761
 20
107.2855762878789
 30
14.73811675117031
 41
1.092284892601594
 10
226.4058146781866
 20
105.4896411706577
 30
16.83914959867979
 41
1.0
1001
ACAD_VIEW_EDGE_ID
1071
       49
1071
       -1
1071
        2
1071
        0
  0
SPLINE
  5
491
330
70
100
AcDbEntity
  8
表示
100
AcDbSpline
210
-0.3213938048427627
220
-0.8830222215594732
230
-0.3420201433261856
 70
    12
 71
     2
 72
     6
 73
     3
 74
     0
 42
0.000000001
 43
0.0000000001
 40
4.251339282472943
 40
4.251339282472943
 40
4.251339282472943
 40
5.96118328673724
 40
5.96118328673724
 40
5.96118328673724
 10
207.3002508932178
 20
118.9657892303676
 30
0.0
 41
2.488790085500901
 10
209.0808439616654
 20
117.1851961619195
 30
2.923896984908424
 41
2.185542381567288
 10
217.3205635114258
 20
111.5854490472557
 30
9.638432269564873
 41
1.397547284096451
1001
ACAD_VIEW_EDGE_ID
1071
       50
1071
       -1
1071
        2
1071
        0
  0
SPLINE
  5
492
330
70
100
AcDbEntity
  8
表示
100
AcDbSpline
210
0.3213938048399991
220
0.8830222215607198
230
0.3420201433255643
 70
    12
 71
     2
 72
     6
 73
     3
 74
     0
 42
0.000000001
 43
0.0000000001
 40
0.177158240016184
 40
0.177158240016184
 40
0.177158240016184
 40
1.024015406804226
 40
1.024015406804226
 40
1.024015406804226
 10
243.4150230776809
 20
102.5488497734932
 30
8.448210912103604
 41
1.024418048089239
 10
244.4242283557635
 20
103.9489538718735
 30
3.885101440302605
 41
1.079982726478558
 10
244.9078657978905
 20
105.2777368233201
 30
0.0
 41
1.108804245499302
1001
ACAD_VIEW_EDGE_ID
1071
       55
1071
       -1
1071
        2
1071
        0
  0
SPLINE
  5
493
330
70
100
AcDbEntity
  8
表示
100
AcDbSpline
210
0.0871541041763268
220
-0.9961948414454758
230
0.000001626419661
 70
    12
 71
     2
 72
     6
 73
     3
 74
     0
 42
0.000000001
 43
0.0000000001
 40
0.1362129633903117
 40
0.1362129633903117
 40
0.1362129633903117
 40
0.1373334564271761
 40
0.1373334564271761
 40
0.1373334564271761
 10
221.019187630878
 20
125.4476185627391
 30
22.48430484420715
 41
1.196410221632318
 10
221.0010300957501
 20
125.4460299842594
 30
22.46587262084176
 41
1.197202854021381
 10
220.9829023075722
 20
125.4444440082989
 30
22.4474694759374
 41
1.197995236230273
1001
ACAD_VIEW_EDGE_ID
1071
       68
1071
       -1
1071
        2
1071
        0
  0
ELLIPSE
  5
494
330
70
100
AcDbEntity
  8
表示
100
AcDbEllipse
 10
200.405815
 20
128.864045
 30
1.0
 11
0.0000000000000002
 21
-1.00381983755103
 31
0.0000000007761477
210
-1.0
220
-0.0000000000000002
230
0.0
 40
0.9961946980841204
 41
4.712388979614437
 42
5.487786497656467
1001
ACAD_VIEW_EDGE_ID
1071
       76
1071
       -1
1071
        2
1071
        0
  0
SPLINE
  5
495
330
70
100
AcDbEntity
  8
表示
100
AcDbSpline
210
0.0106216131422729
220
-0.1214055937602041
230
0.992546151641317
 70
    12
 71
     2
 72
     6
 73
     3
 74
     0
 42
0.000000001
 43
0.0000000001
 40
1.20675636598671
 40
1.20675636598671
 40
1.20675636598671
 40
1.705254407381734
 40
1.705254407381734
 40
1.705254407381734
 10
221.4795939857515
 20
129.7039422170892
 30
23.0
 41
1.106696956314843
 10
221.0503089186401
 20
127.5543058367202
 30
22.74165616299797
 41
1.117083464590805
 10
221.019187630878
 20
125.4476185627391
 30
22.48430484420715
 41
1.117844025225861
1001
ACAD_VIEW_EDGE_ID
1071
      107
1071
       -1
1071
        2
1071
        0
  0
ARC
  5
496
330
70
100
AcDbEntity
  8
表示
100
AcDbCircle
 10
127.860225
 20
0.0
 30
246.847815
 40
19.0
210
1.0
220
0.0000000000000002
230
0.0
100
AcDbArc
 50
0.0
 51
180.0
  0
ARC
  5
497
330
70
100
AcDbEntity
  8
表示
100
AcDbCircle
 10
-127.860225
 20
0.0
 30
-247.847815
 40
18.0
210
-1.0
220
-0.0000000000000002
230
0.0
100
AcDbArc
 50
0.0
 51
180.0
  0
ARC
  5
498
330
70
100
AcDbEntity
  8
表示
100
AcDbCircle
 10
-127.860225
 20
0.0
 30
-327.847815
 40
15.0
210
-1.0
220
-0.0000000000000002
230
0.0
100
AcDbArc
 50
0.0
 51
180.0
  0
ARC
  5
499
330
70
100
AcDbEntity
  8
表示
100
AcDbCircle
 10
127.860225
 20
0.0
 30
248.847815
 40
16.0
210
1.0
220
0.0000000000000002
230
0.0
100
AcDbArc
 50
0.0
 51
180.0
  0
LINE
  5
49A
330
70
100
AcDbEntity
  8
表示
100
AcDbLine
 10
200.405815
 20
129.860225
 30
0.0
 11
207.300251
 21
136.754662
 31
0.0
210
-1.0
220
-0.0000000000000002
230
0.0
  0
LINE
  5
49B
330
70
100
AcDbEntity
  8
表示
100
AcDbLine
 10
202.443577
 20
123.822463
 30
0.0
 11
207.300251
 21
118.965789
 31
0.0
210
-1.0
220
-0.0000000000000002
230
0.0
  0
LINE
  5
49C
330
70
100
AcDbEntity
  8
表示
100
AcDbLine
 10
200.405815
 20
128.864045
 30
0.0
 11
200.405815
 21
129.860225
 31
0.0
210
-1.0
220
-0.0000000000000002
230
0.0
  0
ARC
  5
49D
330
70
100
AcDbEntity
  8
表示
100
AcDbCircle
 10
127.860225
 20
0.0
 30
242.936053
 40
28.00000000000001
210
1.0
220
0.0000000000000002
230
0.0
100
AcDbArc
 50
64.439434
 51
68.351897
  0
SPLINE
  5
49E
330
70
100
AcDbEntity
  8
表示
100
AcDbSpline
210
0.7685693494299347
220
0.0672411052086559
230
-0.636223065352998
 70
    12
 71
     2
 72
     6
 73
     3
 74
     0
 42
0.000000001
 43
0.0000000001
 40
0.0
 40
0.0
 40
0.0
 40
0.5425789032718459
 40
0.5425789032718459
 40
0.5425789032718459
 10
242.9360529125285
 20
138.189565950568
 30
26.02507876507298
 41
1.0
 10
243.2777309855274
 20
135.3587274776055
 30
26.13864677388119
 41
1.01010743439062
 10
243.4744073955863
 20
132.6320588997296
 30
26.08805956643846
 41
1.016018663333182
1001
ACAD_VIEW_EDGE_ID
1071
      132
1071
       -1
1071
        2
1071
        0
  0
ARC
  5
49F
330
70
100
AcDbEntity
  8
表示
100
AcDbCircle
 10
127.860225
 20
0.0
 30
245.847815
 40
20.00000029802323
210
1.0
220
0.0000000000000002
230
0.0
100
AcDbArc
 50
0.0
 51
180.0
  0
ELLIPSE
  5
4A0
330
70
100
AcDbEntity
  8
表示
100
AcDbEllipse
 10
222.296147
 20
127.860225
 30
0.0
 11
23.3075409378235
 21
-2.94287211086176
 31
27.84491881362691
210
0.7685693494288564
220
0.0672411052085195
230
-0.6362230653543156
 40
0.7685693494274854
 41
-0.5400059666382175
 42
-0.4831277170248876
1001
ACAD_VIEW_EDGE_ID
1071
      134
1071
       -1
1071
        2
1071
        0
  0
LINE
  5
4A1
330
70
100
AcDbEntity
  8
表示
100
AcDbLine
 10
247.847815
 20
109.860225
 30
0.0
 11
246.847815
 21
108.860225
 31
0.0
210
-1.0
220
-0.0000000000000002
230
0.0
  0
LINE
  5
4A2
330
70
100
AcDbEntity
  8
表示
100
AcDbLine
 10
247.847815
 20
145.860225
 30
0.0
 11
246.847815
 21
146.860225
 31
0.0
210
-1.0
220
-0.0000000000000002
230
0.0
  0
LINE
  5
4A3
330
70
100
AcDbEntity
  8
表示
100
AcDbLine
 10
245.847815
 20
146.860225
 30
0.0
 11
246.847815
 21
146.860225
 31
0.0
210
-1.0
220
-0.0000000000000002
230
0.0
  0
LINE
  5
4A4
330
70
100
AcDbEntity
  8
表示
100
AcDbLine
 10
245.847815
 20
108.860225
 30
0.0
 11
246.847815
 21
108.860225
 31
0.0
210
-1.0
220
-0.0000000000000002
230
0.0
  0
ARC
  5
4A5
330
70
100
AcDbEntity
  8
表示
100
AcDbCircle
 10
-326.847815
 20
112.860225
 30
0.0
 40
1.0
210
0.0
220
-0.0000000000000002
230
-1.0
100
AcDbArc
 50
180.0
 51
270.0
  0
ARC
  5
4A6
330
70
100
AcDbEntity
  8
表示
100
AcDbCircle
 10
-326.847815
 20
142.860225
 30
0.0
 40
1.0
210
0.0
220
-0.0000000000000002
230
-1.0
100
AcDbArc
 50
90.0
 51
180.0
  0
LINE
  5
4A7
330
70
100
AcDbEntity
  8
表示
100
AcDbLine
 10
248.847815
 20
143.860225
 30
0.0
 11
326.847815
 21
143.860225
 31
0.0
210
-1.0
220
-0.0000000000000002
230
0.0
  0
LINE
  5
4A8
330
70
100
AcDbEntity
  8
表示
100
AcDbLine
 10
248.847815
 20
111.860225
 30
0.0
 11
326.847815
 21
111.860225
 31
0.0
210
-1.0
220
-0.0000000000000002
230
0.0
  0
LINE
  5
4A9
330
70
100
AcDbEntity
  8
表示
100
AcDbLine
 10
245.847815
 20
107.860225
 30
0.0
 11
244.907866
 21
105.277737
 31
0.0
210
-1.0
220
-0.0000000000000002
230
0.0
  0
LINE
  5
4AA
330
70
100
AcDbEntity
  8
表示
100
AcDbLine
 10
245.847815
 20
147.860226
 30
0.0
 11
244.907866
 21
150.442714
 31
0.0
210
-1.0
220
-0.0000000000000002
230
0.0
  0
ARC
  5
4AB
330
70
100
AcDbEntity
  8
表示
100
AcDbCircle
 10
-248.047815
 20
112.160225
 30
0.0
 40
0.1999999999999958
210
0.0
220
-0.0000000000000002
230
-1.0
100
AcDbArc
 50
0.0
 51
90.0
  0
ARC
  5
4AC
330
70
100
AcDbEntity
  8
表示
100
AcDbCircle
 10
-248.047815
 20
143.560225
 30
0.0
 40
0.1999999999999958
210
0.0
220
-0.0000000000000002
230
-1.0
100
AcDbArc
 50
270.0
 51
0.0
  0
LINE
  5
4AD
330
70
100
AcDbEntity
  8
表示
100
AcDbLine
 10
248.047815
 20
143.360225
 30
0.0
 11
248.647815
 21
143.360225
 31
0.0
210
-1.0
220
-0.0000000000000002
230
0.0
  0
LINE
  5
4AE
330
70
100
AcDbEntity
  8
表示
100
AcDbLine
 10
248.047815
 20
112.360225
 30
0.0
 11
248.647815
 21
112.360225
 31
0.0
210
-1.0
220
-0.0000000000000002
230
0.0
  0
ARC
  5
4AF
330
70
100
AcDbEntity
  8
表示
100
AcDbCircle
 10
-248.647815
 20
112.160225
 30
0.0
 40
0.2000000000000002
210
0.0
220
-0.0000000000000002
230
-1.0
100
AcDbArc
 50
90.0
 51
180.0
  0
ARC
  5
4B0
330
70
100
AcDbEntity
  8
表示
100
AcDbCircle
 10
-248.647815
 20
143.560225
 30
0.0
 40
0.2000000000000002
210
0.0
220
-0.0000000000000002
230
-1.0
100
AcDbArc
 50
180.0
 51
270.0
  0
LINE
  5
4B1
330
70
100
AcDbEntity
  8
表示
100
AcDbLine
 10
206.834692
 20
124.206636
 30
9.443823
 11
200.772202
 21
123.676237
 31
2.191229
210
-1.0
220
-0.0000000000000002
230
0.0
  0
LINE
  5
4B2
330
70
100
AcDbEntity
  8
表示
100
AcDbLine
 10
198.366862
 20
125.472729
 30
1.465727
 11
206.834692
 21
124.206636
 31
9.443823
210
-1.0
220
-0.0000000000000002
230
0.0
  0
ELLIPSE
  5
4B3
330
70
100
AcDbEntity
  8
表示
100
AcDbEllipse
 10
198.431463
 20
125.354172
 30
1.409821
 11
-0.0701860548672128
 21
0.1187755879519667
 31
0.0499826486999993
210
0.6009849385227028
220
0.584522838804222
230
-0.5451148086276108
 40
0.5195882505404198
 41
-1.227523120492173
 42
0.1064570551006037
1001
ACAD_VIEW_EDGE_ID
1071
        9
1071
       -1
1071
        3
1071
        0
  0
LINE
  5
4B4
330
70
100
AcDbEntity
  8
表示
100
AcDbLine
 10
198.361867
 20
125.390127
 30
1.371646
 11
200.772202
 21
123.676237
 31
2.191229
210
-1.0
220
-0.0000000000000002
230
0.0
  0
LINE
  5
4B5
330
70
100
AcDbEntity
  8
表示
100
AcDbLine
 10
236.380584
 20
131.308756
 30
22.317157
 11
234.94758
 21
131.183384
 31
20.87868
210
-1.0
220
-0.0000000000000002
230
0.0
  0
LINE
  5
4B6
330
70
100
AcDbEntity
  8
表示
100
AcDbLine
 10
236.109153
 20
131.165968
 30
22.985439
 11
235.350666
 21
131.004733
 31
22.973834
210
-1.0
220
-0.0000000000000002
230
0.0
  0
ELLIPSE
  5
4B7
330
70
100
AcDbEntity
  8
表示
100
AcDbEllipse
 10
235.298163
 20
131.247282
 30
23.004064
 11
0.348519138689017
 21
0.0734257222452437
 31
0.0052516025918473
210
-0.010621613142645
220
0.1214055937601305
230
-0.9925461516413221
 40
0.7018361144673728
 41
1.568192662549351
 42
3.138988989340925
1001
ACAD_VIEW_EDGE_ID
1071
       21
1071
       -1
1071
        3
1071
        0
  0
LINE
  5
4B8
330
70
100
AcDbEntity
  8
表示
100
AcDbLine
 10
234.949779
 20
131.173224
 30
22.998734
 11
234.94758
 21
131.183384
 31
23.0
210
-1.0
220
-0.0000000000000002
230
0.0
  0
LINE
  5
4B9
330
70
100
AcDbEntity
  8
表示
100
AcDbLine
 10
221.281909
 20
129.987793
 30
23.0
 11
234.94758
 21
131.183384
 31
23.0
210
-1.0
220
-0.0000000000000002
230
0.0
  0
LINE
  5
4BA
330
70
100
AcDbEntity
  8
表示
100
AcDbLine
 10
221.281909
 20
129.987793
 30
23.0
 11
221.278984
 21
129.977185
 31
22.998734
210
-1.0
220
-0.0000000000000002
230
0.0
  0
ELLIPSE
  5
4BB
330
70
100
AcDbEntity
  8
表示
100
AcDbEllipse
 10
220.933654
 20
129.99055
 30
23.004064
 11
0.3485191386888556
 21
0.0734257222473277
 31
0.005251602592104
210
-0.0106216131426449
220
0.1214055937601306
230
-0.9925461516413218
 40
0.7018361144658496
 41
0.3464621861603574
 42
1.917258512951923
1001
ACAD_VIEW_EDGE_ID
1071
       25
1071
       -1
1071
        3
1071
        0
  0
LINE
  5
4BC
330
70
100
AcDbEntity
  8
表示
100
AcDbLine
 10
220.863836
 20
129.737299
 30
22.973834
 11
219.335544
 21
129.796449
 31
22.997424
210
-1.0
220
-0.0000000000000002
230
0.0
  0
LINE
  5
4BD
330
70
100
AcDbEntity
  8
表示
100
AcDbLine
 10
219.617646
 20
126.572006
 30
22.6
 11
219.788856
 21
125.339979
 31
22.447469
210
-1.0
220
-0.0000000000000002
230
0.0
  0
LINE
  5
4BE
330
70
100
AcDbEntity
  8
表示
100
AcDbLine
 10
219.788856
 20
125.339979
 30
22.447469
 11
220.982902
 21
125.444444
 31
22.447469
210
-1.0
220
-0.0000000000000002
230
0.0
  0
LINE
  5
4BF
330
70
100
AcDbEntity
  8
表示
100
AcDbLine
 10
206.834692
 20
124.206636
 30
9.443823
 11
219.788856
 21
125.339979
 31
22.447469
210
-1.0
220
-0.0000000000000002
230
0.0
  0
LINE
  5
4C0
330
70
100
AcDbEntity
  8
表示
100
AcDbLine
 10
197.932622
 20
127.944995
 30
1.682843
 11
219.051949
 21
129.792697
 31
22.882843
210
-1.0
220
-0.0000000000000002
230
0.0
  0
ELLIPSE
  5
4C1
330
70
100
AcDbEntity
  8
表示
100
AcDbEllipse
 10
198.214434
 20
127.900351
 30
1.405994
 11
-0.2818122733163482
 21
0.0446444715254321
 31
0.2768488705480145
210
-0.0364889081267883
220
-0.9917619244456764
230
0.1227878039689728
 40
0.984576920261902
 41
0.0000000001583345
 42
0.8008267917682182
1001
ACAD_VIEW_EDGE_ID
1071
       46
1071
       -1
1071
        3
1071
        0
  0
ELLIPSE
  5
4C2
330
70
100
AcDbEntity
  8
表示
100
AcDbEllipse
 10
219.333762
 20
129.748052
 30
22.605994
 11
-0.2818122734938787
 21
0.0446444715098967
 31
0.2768488703697777
210
-0.0364889081267883
220
-0.9917619244456764
230
0.122787803968973
 40
0.984576920274002
 41
-0.8008267920821749
 42
-0.0000000004856224
1001
ACAD_VIEW_EDGE_ID
1071
       47
1071
       -1
1071
        3
1071
        0
  0
LINE
  5
4C3
330
70
100
AcDbEntity
  8
表示
100
AcDbLine
 10
219.051949
 20
129.792697
 30
20.761522
 11
221.281909
 21
129.987793
 31
23.0
210
-1.0
220
-0.0000000000000002
230
0.0
  0
ELLIPSE
  5
4C4
330
70
100
AcDbEntity
  8
表示
100
AcDbEllipse
 10
236.110805
 20
131.215853
 30
22.594006
 11
-0.2697784805437922
 21
-0.0929024093939058
 31
0.276848870536766
210
0.2081522104816509
220
-0.9703585999351371
230
-0.1227878039689729
 40
0.984576920259313
 41
3.14159265370757
 42
5.512981350922753
1001
ACAD_VIEW_EDGE_ID
1071
       52
1071
       -1
1071
        3
1071
        0
  0
LINE
  5
4C5
330
70
100
AcDbEntity
  8
表示
100
AcDbLine
 10
198.348183
 20
125.430639
 30
1.4
 11
197.820305
 21
127.914109
 31
1.4
210
-1.0
220
-0.0000000000000002
230
0.0
  0
LINE
  5
4C6
330
70
100
AcDbEntity
  8
表示
100
AcDbLine
 10
236.486747
 20
131.016898
 30
22.6
 11
236.496557
 21
131.297843
 31
22.6
210
-1.0
220
-0.0000000000000002
230
0.0
  0
ELLIPSE
  5
4C7
330
70
100
AcDbEntity
  8
表示
100
AcDbEllipse
 10
198.431463
 20
130.366279
 30
-1.409821
 11
0.0701860548693491
 21
0.1187755879512194
 31
0.0499826486968425
210
0.6009849385227032
220
-0.5845228388042215
230
0.5451148086276108
 40
0.5195882505362416
 41
1.914069533112778
 42
2.305639261944312
1001
ACAD_VIEW_EDGE_ID
1071
        9
1071
       -1
1071
        4
1071
        0
  0
LINE
  5
4C8
330
70
100
AcDbEntity
  8
表示
100
AcDbLine
 10
198.361867
 20
130.330324
 30
-1.371646
 11
200.772202
 21
132.044214
 31
-2.191229
210
-1.0
220
-0.0000000000000002
230
0.0
  0
LINE
  5
4C9
330
70
100
AcDbEntity
  8
表示
100
AcDbLine
 10
200.772202
 20
132.044214
 30
-2.191229
 11
202.443577
 21
131.897988
 31
-1.895395
210
-1.0
220
-0.0000000000000002
230
0.0
  0
ELLIPSE
  5
4CA
330
70
100
AcDbEntity
  8
表示
100
AcDbEllipse
 10
198.44048
 20
130.36549
 30
-1.384953
 11
-0.0242970850719353
 21
-0.1227903525889833
 31
0.0765778605732623
210
0.1005161230066969
220
-0.5407374909983297
230
-0.8351643400220904
 40
0.519588250536267
 41
-0.2127167161017067
 42
1.227523120482997
1001
ACAD_VIEW_EDGE_ID
1071
       12
1071
       -1
1071
        4
1071
        0
  0
LINE
  5
4CB
330
70
100
AcDbEntity
  8
表示
100
AcDbLine
 10
201.573558
 20
131.027969
 30
-1.436802
 11
198.432522
 21
130.244085
 31
-1.307306
210
-1.0
220
-0.0000000000000002
230
0.0
  0
ELLIPSE
  5
4CC
330
70
100
AcDbEntity
  8
表示
100
AcDbEllipse
 10
198.214434
 20
127.8201
 30
-1.405994
 11
0.2818122733397506
 21
0.0446444715233427
 31
0.276848870524183
210
-0.0364889081267888
220
0.9917619244456766
230
-0.1227878039689729
 40
0.9845769202609815
 41
3.545013970746977
 42
4.235328049268806
1001
ACAD_VIEW_EDGE_ID
1071
       46
1071
       -1
1071
        4
1071
        0
  0
LINE
  5
4CD
330
70
100
AcDbEntity
  8
表示
100
AcDbLine
 10
198.348183
 20
130.289812
 30
-1.4
 11
197.847002
 21
127.931941
 31
-1.4
210
-1.0
220
-0.0000000000000002
230
0.0
  0
LINE
  5
4CE
330
70
100
AcDbEntity
  8
表示
100
AcDbLine
 10
197.831758
 20
127.860225
 30
-1.4
 11
197.820305
 21
127.806342
 31
-1.4
210
-1.0
220
-0.0000000000000002
230
0.0
  0
SPLINE
  5
4CF
330
70
100
AcDbEntity
  8
表示
100
AcDbSpline
 70
     0
 71
     3
 72
    12
 73
     8
 74
     0
 42
0.000000001
 43
0.0000000001
 40
0.3804389033126918
 40
0.3804389033126918
 40
0.3804389033126918
 40
0.3804389033126918
 40
0.3976510361810623
 40
0.3976510361810623
 40
0.4383512139679603
 40
0.4383512139679603
 40
0.4667159580672895
 40
0.4667159580672895
 40
0.4667159580672895
 40
0.4667159580672895
 10
243.4150230661088
 20
189.6778390921954
 30
4.078476852399035
 10
243.4031628548428
 20
189.6386454684707
 30
4.038256218487731
 10
243.389237285866
 20
189.5969764281726
 30
4.001013377013805
 10
243.3347321894424
 20
189.4516601200867
 30
3.886676065598294
 10
243.2831687539719
 20
189.3400969598733
 30
3.823662751385199
 10
243.1694571855806
 20
189.1523233793032
 30
3.754165118158198
 10
243.1157832997674
 20
189.0764226272167
 30
3.73663807394405
 10
243.0554923061101
 20
189.004540626116
 30
3.731363295486517
1001
ACAD_VIEW_EDGE_ID
1071
        2
1071
       -1
1071
        2
1071
        0
  0
SPLINE
  5
4D0
330
70
100
AcDbEntity
  8
表示
100
AcDbSpline
210
0.0871557427460787
220
0.0000000000016532
230
-0.9961946980918838
 70
     8
 71
     3
 72
    12
 73
     8
 74
     0
 42
0.000000001
 43
0.0000000001
 40
-0.16463288862375
 40
-0.16463288862375
 40
-0.16463288862375
 40
-0.16463288862375
 40
-0.1491206085497307
 40
-0.1491206085497307
 40
-0.0742436527511563
 40
-0.0742436527511563
 40
0.0
 40
0.0
 40
0.0
 40
0.0
 10
243.0554923061101
 20
189.004540626116
 30
3.731363295486517
 10
243.0203609701421
 20
188.9626552535665
 30
3.728289701854009
 10
242.9842592040051
 20
188.923052023516
 30
3.725131206583682
 10
242.7736031548982
 20
188.7084255605477
 30
3.706701190383682
 10
242.5271457359342
 20
188.5396098414312
 30
3.685138960183394
 10
242.0716122972068
 20
188.3447297971397
 30
3.645284948439439
 10
241.7821592238584
 20
188.2833332182727
 30
3.619961085898466
 10
241.5356378361091
 20
188.2805382730621
 30
3.598393259153453
1001
ACAD_VIEW_EDGE_ID
1071
        3
1071
       -1
1071
        2
1071
        0
  0
ELLIPSE
  5
4D1
330
70
100
AcDbEntity
  8
表示
100
AcDbEllipse
 10
200.405815
 20
216.048354
 30
0.0
 11
320.0414644601867
 21
-0.0000000003100585
 31
27.99999999850122
210
0.0871557427476581
220
-0.0000000000002955
230
-0.9961946980917456
 40
0.0871557427522708
 41
1.441925873210586
 42
1.489467225654665
1001
ACAD_VIEW_EDGE_ID
1071
        5
1071
       -1
1071
        2
1071
        0
  0
ARC
  5
4D2
330
70
100
AcDbEntity
  8
表示
100
AcDbCircle
 10
216.048354
 20
0.0
 30
226.405815
 40
28.00000000000001
210
1.0
220
-0.0000000000000002
230
0.0
100
AcDbArc
 50
175.340186
 51
180.0
  0
ARC
  5
4D3
330
70
100
AcDbEntity
  8
表示
100
AcDbCircle
 10
193.448354
 20
235.498801
 30
17.466518
 40
2.999999999999999
210
0.0871557427476582
220
-0.0000000000002955
230
-0.9961946980917455
100
AcDbArc
 50
82.63447
 51
262.337744
  0
SPLINE
  5
4D4
330
70
100
AcDbEntity
  8
表示
100
AcDbSpline
210
0.0871558489002108
220
0.0000001073759364
230
-0.9961946888045892
 70
    12
 71
     2
 72
     6
 73
     3
 74
     0
 42
0.000000001
 43
0.0000000001
 40
0.0
 40
0.0
 40
0.0
 40
0.2167407044975801
 40
0.2167407044975801
 40
0.2167407044975801
 10
226.4058146781866
 20
188.1409044491574
 30
2.274705251682462
 41
1.0
 10
223.7052618986384
 20
190.8311552858649
 30
2.038437498216808
 41
1.058933435672751
 10
221.4795939888752
 20
193.0483535606963
 30
1.843716787339871
 41
1.110920077170514
1001
ACAD_VIEW_EDGE_ID
1071
       11
1071
       -1
1071
        2
1071
        0
  0
SPLINE
  5
4D5
330
70
100
AcDbEntity
  8
表示
100
AcDbSpline
 70
     0
 71
     3
 72
    12
 73
     8
 74
     0
 42
0.000000001
 43
0.0000000001
 40
0.4446889135324045
 40
0.4446889135324045
 40
0.4446889135324045
 40
0.4446889135324045
 40
0.4601567206559018
 40
0.4601567206559018
 40
0.4972935868787066
 40
0.4972935868787066
 40
0.5189936249196114
 40
0.5189936249196114
 40
0.5189936249196114
 40
0.5189936249196114
 10
243.4150230679737
 20
189.6778390826475
 30
4.078476861152012
 10
243.4262765561352
 20
189.7150277118526
 30
4.116639962205226
 10
243.4364358591779
 20
189.7498005862271
 30
4.158151628083942
 10
243.4660409604716
 20
189.8561692071089
 30
4.308138351470915
 10
243.4781818039752
 20
189.9102753099323
 30
4.429836527146107
 10
243.481732343155
 20
189.953510838035
 30
4.62110157749521
 10
243.4797209130657
 20
189.961322498304
 30
4.696203094685188
 10
243.4744073955862
 20
189.9602939961369
 30
4.771833454336956
1001
ACAD_VIEW_EDGE_ID
1071
       12
1071
       -1
1071
        2
1071
        0
  0
SPLINE
  5
4D6
330
70
100
AcDbEntity
  8
表示
100
AcDbSpline
 70
     0
 71
     3
 72
    10
 73
     6
 74
     0
 42
0.000000001
 43
0.0000000001
 40
0.7648558020206552
 40
0.7648558020206552
 40
0.7648558020206552
 40
0.7648558020206552
 40
0.8389946246920811
 40
0.8389946246920811
 40
0.8798642086732639
 40
0.8798642086732639
 40
0.8798642086732639
 40
0.8798642086732639
 10
238.7166485028585
 20
194.927144045032
 30
3.440095758327515
 10
238.8415756037765
 20
194.7085189161062
 30
3.430738957747962
 10
238.941141752411
 20
194.4736074141165
 30
3.410591778594607
 10
239.0445719784641
 20
194.100697508813
 30
3.388171723776395
 10
239.071620174251
 20
193.9666176122173
 30
3.38277011498576
 10
239.0888875590474
 20
193.8329504655976
 30
3.384330347429568
1001
ACAD_VIEW_EDGE_ID
1071
       16
1071
       -1
1071
        2
1071
        0
  0
SPLINE
  5
4D7
330
70
100
AcDbEntity
  8
表示
100
AcDbSpline
 70
     0
 71
     3
 72
    10
 73
     6
 74
     0
 42
0.000000001
 43
0.0000000001
 40
0.5464645056670932
 40
0.5464645056670932
 40
0.5464645056670932
 40
0.5464645056670932
 40
0.5873340896482747
 40
0.5873340896482747
 40
0.6565698322024795
 40
0.6565698322024795
 40
0.6565698322024795
 40
0.6565698322024795
 10
237.0655363187981
 20
196.2959054762741
 30
3.207310051575404
 10
237.1929729287062
 20
196.2534294888046
 30
3.218409778235582
 10
237.318401041087
 20
196.2019052847663
 30
3.237151335446469
 10
237.6465702905325
 20
196.0389136469566
 30
3.295989852575075
 10
237.8422652265749
 20
195.9097050100154
 30
3.339531130748582
 10
238.0208403903869
 20
195.7603040104168
 30
3.375088057722678
1001
ACAD_VIEW_EDGE_ID
1071
       16
1071
       -1
1071
        2
1071
        0
  0
SPLINE
  5
4D8
330
70
100
AcDbEntity
  8
表示
100
AcDbSpline
210
0.3213938048420561
220
0.3420201433241358
230
-0.8830222215605243
 70
     8
 71
     3
 72
    14
 73
    10
 74
     0
 42
0.000000001
 43
0.0000000001
 40
1.600323141601261
 40
1.600323141601261
 40
1.600323141601261
 40
1.600323141601261
 40
1.676027661016973
 40
1.676027661016973
 40
1.77623467606587
 40
1.77623467606587
 40
1.899578534871242
 40
1.899578534871242
 40
1.927010393343953
 40
1.927010393343953
 40
1.927010393343953
 40
1.927010393343953
 10
241.5356378361091
 20
227.2109743405435
 30
25.67870513416165
 10
241.762887455527
 20
227.1103553229532
 30
25.72244456457884
 10
242.0101385775149
 20
226.9370254106761
 30
25.74530090603185
 10
242.4408028151982
 20
226.5390890669642
 30
25.74791757024832
 10
242.6843385827
 20
226.22254566023
 30
25.71395088891768
 10
243.0605510320615
 20
225.5885574846034
 30
25.60531899515263
 10
243.2435133500443
 20
225.1428048968628
 30
25.49925891405838
 10
243.3727814444865
 20
224.6759187045336
 30
25.3654700752104
 10
243.394946380002
 20
224.5873410206769
 30
25.33922874333621
 10
243.4150230776809
 20
224.4965644746862
 30
25.31137567190308
1001
ACAD_VIEW_EDGE_ID
1071
       17
1071
       -1
1071
        2
1071
        0
  0
ARC
  5
4D9
330
70
100
AcDbEntity
  8
表示
100
AcDbCircle
 10
216.048354
 20
0.0
 30
226.405815
 40
28.00000000000001
210
1.0
220
-0.0000000000000002
230
0.0
100
AcDbArc
 50
0.0
 51
53.029898
  0
ELLIPSE
  5
4DA
330
70
100
AcDbEntity
  8
表示
100
AcDbEllipse
 10
182.862988
 20
216.048354
 30
0.0
 11
82.49840905993059
 21
-10.11310864192471
 31
26.10986467972502
210
0.3213938048432698
220
0.3420201433254067
230
-0.8830222215595906
 40
0.3213938048434472
 41
-1.01478564021864
 42
-0.7795963677307649
1001
ACAD_VIEW_EDGE_ID
1071
       24
1071
       -1
1071
        2
1071
        0
  0
SPLINE
  5
4DB
330
70
100
AcDbEntity
  8
表示
100
AcDbSpline
 70
     0
 71
     3
 72
    31
 73
    27
 74
     0
 42
0.000000001
 43
0.0000000001
 40
1.851365918094904
 40
1.851365918094904
 40
1.851365918094904
 40
1.851365918094904
 40
2.078042687120644
 40
2.078042687120644
 40
2.25111382577614
 40
2.25111382577614
 40
2.424184964431635
 40
2.424184964431635
 40
2.470316240520732
 40
2.470316240520732
 40
2.516447516609829
 40
2.516447516609829
 40
2.556903281741658
 40
2.556903281741658
 40
2.597359046873487
 40
2.597359046873487
 40
2.597359046873487
 40
2.69545834745735
 40
2.69545834745735
 40
2.793557648041212
 40
2.793557648041212
 40
2.989756249208937
 40
2.989756249208937
 40
3.445499961562914
 40
3.445499961562914
 40
3.529358983907065
 40
3.529358983907065
 40
3.529358983907065
 40
3.529358983907065
 10
217.3205635114258
 20
225.6867858321438
 30
16.27477639813878
 10
216.8917353713602
 20
225.9089219262041
 30
15.64483101465703
 10
216.5230358663315
 20
226.2159539498334
 30
15.00892758324517
 10
216.0295448580989
 20
226.841417132493
 30
13.94084514484712
 10
215.8418688720978
 20
227.1746556383478
 30
13.43791145652722
 10
215.6193863973088
 20
227.919669209532
 30
12.47938305876414
 10
215.5769766024992
 20
228.3239477020179
 30
12.01976041660964
 10
215.6929463335949
 20
228.8906579870909
 30
11.57335699525902
 10
215.7306822391872
 20
229.0254761923588
 30
11.47896996103191
 10
215.839672605538
 20
229.2998269427535
 30
11.32957556297515
 10
215.9115010231498
 20
229.4395740051714
 30
11.27538261003792
 10
216.0666321421356
 20
229.6787831908095
 30
11.23047371015673
 10
216.156439838795
 20
229.7944296702244
 30
11.23085597117642
 10
216.3501563574459
 20
230.0017391943402
 30
11.28292818533373
 10
216.4538673691474
 20
230.09374612385
 30
11.33398225406199
 10
216.5492225220234
 20
230.1679536063857
 30
11.39386426067176
 10
216.7804447909318
 20
230.3478958744709
 30
11.53906934941005
 10
216.9966744230817
 20
230.4608993841448
 30
11.74363716320658
 10
217.4237820083419
 20
230.6373129119438
 30
12.20081045584084
 10
217.6332846023781
 20
230.6964654347066
 30
12.45632813753582
 10
218.2532148401607
 20
230.8149828212517
 30
13.26623627177468
 10
218.6509172891708
 20
230.812334601791
 30
13.8589568331281
 10
219.8164560431793
 20
230.6543876256546
 30
15.6862811522933
 10
220.6906941922754
 20
230.2391614037697
 30
17.23112164403574
 10
221.3568367598147
 20
229.394875199061
 30
18.67288079666105
 10
221.4576134127517
 20
229.2440884824682
 30
18.90312409690887
 10
221.5454064759846
 20
229.0746919548219
 30
19.12472788458399
1001
ACAD_VIEW_EDGE_ID
1071
       34
1071
       -1
1071
        2
1071
        0
  0
ELLIPSE
  5
4DC
330
70
100
AcDbEntity
  8
表示
100
AcDbEllipse
 10
218.864204
 20
228.048354
 30
17.751319
 11
2.223314687922575
 21
1.794577214650995
 31
1.504312225271856
210
0.3213938048432694
220
0.3420201433254068
230
-0.8830222215595904
 40
0.8516507396389133
 41
0.3285049947992722
 42
2.819739686751762
1001
ACAD_VIEW_EDGE_ID
1071
       35
1071
       -1
1071
        2
1071
        0
  0
ARC
  5
4DD
330
70
100
AcDbEntity
  8
表示
100
AcDbCircle
 10
-228.048354
 20
-216.48423
 30
-27.466518
 40
2.75
210
-0.0871557427476582
220
-0.0000000000002955
230
-0.9961946980917455
100
AcDbArc
 50
184.388813
 51
352.658311
  0
CIRCLE
  5
4DE
330
70
100
AcDbEntity
  8
表示
100
AcDbCircle
 10
228.048354
 20
-216.48423
 30
27.466518
 40
2.116999999999999
210
0.0871557427476582
220
0.0000000000002956
230
0.9961946980917456
  0
SPLINE
  5
4DF
330
70
100
AcDbEntity
  8
表示
100
AcDbSpline
210
-0.3213938048278593
220
-0.3420201433434682
230
0.8830222215582036
 70
    12
 71
     2
 72
     6
 73
     3
 74
     0
 42
0.000000001
 43
0.0000000001
 40
6.188462158471123
 40
6.188462158471123
 40
6.188462158471123
 40
6.363394165315646
 40
6.363394165315646
 40
6.363394165315646
 10
221.5454064759846
 20
229.0746919548219
 30
19.12472788458399
 41
1.179495895060654
 10
223.7073959523761
 20
230.7864703137511
 30
20.57464915751552
 41
1.092284892601594
 10
226.4058146781866
 20
232.8875031612606
 30
22.37058427473494
 41
1.0
1001
ACAD_VIEW_EDGE_ID
1071
       38
1071
       -1
1071
        2
1071
        0
  0
SPLINE
  5
4E0
330
70
100
AcDbEntity
  8
表示
100
AcDbSpline
210
-0.3213938048418754
220
-0.3420201433267805
230
0.8830222215595659
 70
    12
 71
     2
 72
     6
 73
     3
 74
     0
 42
0.000000001
 43
0.0000000001
 40
4.251339282472958
 40
4.251339282472958
 40
4.251339282472958
 40
5.961183286737242
 40
5.961183286737242
 40
5.961183286737242
 10
207.3002508932178
 20
216.0483535625771
 30
8.894436215030509
 41
2.488790085500896
 10
209.0808439616654
 20
218.9722505474856
 30
10.67502928347858
 41
2.185542381567282
 10
217.3205635114258
 20
225.6867858321438
 30
16.27477639813878
 41
1.397547284096452
1001
ACAD_VIEW_EDGE_ID
1071
       39
1071
       -1
1071
        2
1071
        0
  0
LINE
  5
4E1
330
70
100
AcDbEntity
  8
表示
100
AcDbLine
 10
218.785666
 20
216.048354
 30
13.074786
 11
207.300251
 21
216.048354
 31
8.894436
210
-1.0
220
0.0000000000000002
230
0.0
  0
ELLIPSE
  5
4E2
330
70
100
AcDbEntity
  8
表示
100
AcDbEllipse
 10
218.949872
 20
211.048354
 30
11.197906
 11
2.685071998756268
 21
4.074799002331918
 31
2.555574242256937
210
-0.3213938048432694
220
-0.342020143325407
230
0.8830222215595904
 40
0.9076733711900939
 41
-0.2630670408024918
 42
0.6181365024874177
1001
ACAD_VIEW_EDGE_ID
1071
       41
1071
       -1
1071
        2
1071
        0
  0
LINE
  5
4E3
330
70
100
AcDbEntity
  8
表示
100
AcDbLine
 10
242.287156
 20
190.652559
 30
11.7921
 11
222.598161
 21
214.229469
 31
13.757913
210
-1.0
220
0.0000000000000002
230
0.0
  0
ELLIPSE
  5
4E4
330
70
100
AcDbEntity
  8
表示
100
AcDbEllipse
 10
182.862988
 20
216.048354
 30
0.0
 11
82.49840908249453
 21
-10.1131086281884
 31
26.10986469325808
210
0.3213938048432696
220
0.3420201433254067
230
-0.8830222215595904
 40
0.3213938048521655
 41
0.7551446600565117
 42
0.7665517740587675
1001
ACAD_VIEW_EDGE_ID
1071
       43
1071
       -1
1071
        2
1071
        0
  0
SPLINE
  5
4E5
330
70
100
AcDbEntity
  8
表示
100
AcDbSpline
210
0.321393804843225
220
0.3420201433254483
230
-0.8830222215595908
 70
    12
 71
     2
 72
     6
 73
     3
 74
     0
 42
0.000000001
 43
0.0000000001
 40
0.1771582400161813
 40
0.1771582400161813
 40
0.1771582400161813
 40
3.873373107990881
 40
3.873373107990881
 40
3.873373107990881
 10
243.4150230776809
 20
224.4965644746862
 30
25.31137567190308
 41
1.024418048089239
 10
247.1698360861688
 20
207.5192228218293
 30
20.10219851439251
 41
1.266937091974521
 10
242.9360529125285
 20
190.7887220193861
 30
12.0810187609477
 41
1.0
1001
ACAD_VIEW_EDGE_ID
1071
       44
1071
       -1
1071
        2
1071
        0
  0
ARC
  5
4E6
330
70
100
AcDbEntity
  8
表示
100
AcDbCircle
 10
204.048354
 20
216.48423
 30
27.466518
 40
2.116999999999999
210
0.0871557427476582
220
-0.0000000000002956
230
-0.9961946980917456
100
AcDbArc
 50
185.712417
 51
354.287583
  0
ARC
  5
4E7
330
70
100
AcDbEntity
  8
表示
100
AcDbCircle
 10
228.048354
 20
-216.48423
 30
22.649518
 40
2.117
210
0.0871557427476582
220
0.0000000000002956
230
0.9961946980917456
100
AcDbArc
 50
185.712417
 51
354.287583
  0
SPLINE
  5
4E8
330
70
100
AcDbEntity
  8
表示
100
AcDbSpline
210
0.0871557427479861
220
-0.0000000000000411
230
0.9961946980917169
 70
    12
 71
     2
 72
     6
 73
     3
 74
     0
 42
0.000000001
 43
0.0000000001
 40
0.1362129633903117
 40
0.1362129633903117
 40
0.1362129633903117
 40
2.965306168180294
 40
2.965306168180294
 40
2.965306168180294
 10
221.019187630878
 20
238.5326584067825
 30
2.412606882651743
 41
1.196410221632318
 10
203.8549287475448
 20
221.1087376252708
 30
3.914284952772505
 41
3.197699682626383
 10
202.6978645544335
 20
217.5640487183682
 30
4.015514952641751
 41
3.604105258047936
1001
ACAD_VIEW_EDGE_ID
1071
       60
1071
       -1
1071
        2
1071
        0
  0
CIRCLE
  5
4E9
330
70
100
AcDbEntity
  8
表示
100
AcDbCircle
 10
204.048354
 20
216.48423
 30
22.649518
 40
2.116999999999999
210
0.0871557427476582
220
-0.0000000000002955
230
-0.9961946980917456
  0
SPLINE
  5
4EA
330
70
100
AcDbEntity
  8
表示
100
AcDbSpline
 70
     0
 71
     3
 72
    18
 73
    14
 74
     0
 42
0.000000001
 43
0.0000000001
 40
0.5603599711808787
 40
0.5603599711808787
 40
0.5603599711808787
 40
0.5603599711808787
 40
0.5615371214133336
 40
0.5615371214133336
 40
0.6277530892843522
 40
0.6277530892843522
 40
0.7601850250263891
 40
0.7601850250263891
 40
0.8926169607684258
 40
0.8926169607684258
 40
0.9588329286394444
 40
0.9588329286394444
 40
0.9600100791880274
 40
0.9600100791880274
 40
0.9600100791880274
 40
0.9600100791880274
 10
212.3540909566793
 20
215.0483535644544
 30
1.045338723044551
 10
212.3570817372147
 20
215.0506868971843
 30
1.045599717213917
 10
212.3600766918271
 20
215.053015116333
 30
1.045870605110394
 10
212.5317951533997
 20
215.1860063724289
 30
1.061826472299799
 10
212.7143696429563
 20
215.3000109494806
 30
1.104078108266548
 10
213.2955230516856
 20
215.579339051601
 30
1.25790263413728
 10
213.7287948653213
 20
215.6796850574974
 30
1.390954150263496
 10
214.6083148136163
 20
215.6796850574974
 30
1.467902175083509
 10
215.0581084081573
 20
215.579339051601
 30
1.412108871325472
 10
215.6571441393615
 20
215.3000109494806
 30
1.361537516015232
 10
215.8442818317681
 20
215.1860063724289
 30
1.351631504738179
 10
216.016162212127
 20
215.0530151157091
 30
1.365736641013427
 10
216.0191587066418
 20
215.0506868959328
 30
1.365989936994083
 10
216.0221493724627
 20
215.0483535625753
 30
1.366252251575133
1001
ACAD_VIEW_EDGE_ID
1071
       72
1071
       -1
1071
        2
1071
        0
  0
ELLIPSE
  5
4EB
330
70
100
AcDbEntity
  8
表示
100
AcDbEllipse
 10
200.405815
 20
215.048354
 30
1.00382
 11
0.0
 21
0.0000000005045984
 31
1.003819837544142
210
-1.0
220
0.0000000000000002
230
0.0
 40
0.9961946980909564
 41
1.57079632629413
 42
3.141592651207997
1001
ACAD_VIEW_EDGE_ID
1071
       76
1071
       -1
1071
        2
1071
        0
  0
ARC
  5
4EC
330
70
100
AcDbEntity
  8
表示
100
AcDbCircle
 10
212.679685
 20
213.478162
 30
17.466518
 40
3.0
210
0.0871557427476582
220
-0.0000000000002955
230
-0.9961946980917456
100
AcDbArc
 50
37.855946
 51
82.741594
  0
LINE
  5
4ED
330
70
100
AcDbEntity
  8
表示
100
AcDbLine
 10
217.152755
 20
213.058719
 30
1.465167
 11
234.312351
 21
195.833576
 31
2.966438
210
-1.0
220
0.0000000000000002
230
0.0
  0
ARC
  5
4EE
330
70
100
AcDbEntity
  8
表示
100
AcDbCircle
 10
193.448354
 20
235.498801
 30
17.466518
 40
3.0
210
0.0871557427476581
220
-0.0000000000002955
230
-0.9961946980917455
100
AcDbArc
 50
322.662256
 51
18.344018
  0
SPLINE
  5
4EF
330
70
100
AcDbEntity
  8
表示
100
AcDbSpline
210
-0.0106216131519361
220
-0.9925461516412322
230
-0.1214055937600522
 70
    12
 71
     2
 72
     6
 73
     3
 74
     0
 42
0.000000001
 43
0.0000000001
 40
1.420769604521697
 40
1.420769604521697
 40
1.420769604521697
 40
1.705254407381734
 40
1.705254407381734
 40
1.705254407381734
 10
221.183465155046
 20
238.8260040394325
 30
-0.000000000007276
 41
1.113840966173681
 10
221.0369428587174
 20
238.6794817431055
 30
1.210705700994367
 41
1.117409985521872
 10
221.019187630878
 20
238.5326584067825
 30
2.412606882651743
 41
1.117844025225863
1001
ACAD_VIEW_EDGE_ID
1071
      100
1071
       -1
1071
        2
1071
        0
  0
ELLIPSE
  5
4F0
330
70
100
AcDbEntity
  8
表示
100
AcDbEllipse
 10
215.872069
 20
212.679685
 30
-18.041826
 11
-0.0162316098057525
 21
2.121320347241546
 31
24.5249494547556
210
0.7097870293031755
220
0.7018361144661717
230
-0.0602365459169068
 40
0.1218693434401418
 41
0.6587150749486992
 42
0.6788252559236905
1001
ACAD_VIEW_EDGE_ID
1071
      102
1071
       -1
1071
        2
1071
        0
  0
ARC
  5
4F1
330
70
100
AcDbEntity
  8
表示
100
AcDbCircle
 10
212.679685
 20
213.478162
 30
22.466518
 40
3.0
210
0.0871557427476581
220
-0.0000000000002955
230
-0.9961946980917455
100
AcDbArc
 50
322.144054
 51
355.636806
  0
ELLIPSE
  5
4F2
330
70
100
AcDbEntity
  8
表示
100
AcDbEllipse
 10
236.408894
 20
193.448354
 30
-0.120321
 11
-0.0162316063756115
 21
2.121320346108594
 31
24.52494948197367
210
0.7097870293031753
220
0.7018361144661719
230
-0.0602365459169068
 40
0.1218693432149046
 41
-1.449635305461293
 42
-1.437064737603813
1001
ACAD_VIEW_EDGE_ID
1071
      105
1071
       -1
1071
        2
1071
        0
  0
ARC
  5
4F3
330
70
100
AcDbEntity
  8
表示
100
AcDbCircle
 10
193.448354
 20
235.498801
 30
22.466518
 40
2.999999999999999
210
0.0871557427476582
220
-0.0000000000002955
230
-0.9961946980917456
100
AcDbArc
 50
184.180986
 51
262.337744
  0
ARC
  5
4F4
330
70
100
AcDbEntity
  8
表示
100
AcDbCircle
 10
193.448354
 20
235.498801
 30
22.466518
 40
2.999999999999999
210
0.0871557427476582
220
-0.0000000000002955
230
-0.9961946980917455
100
AcDbArc
 50
316.377556
 51
355.819014
  0
ARC
  5
4F5
330
70
100
AcDbEntity
  8
表示
100
AcDbCircle
 10
216.048354
 20
0.0
 30
246.847815
 40
19.0
210
1.0
220
-0.0000000000000002
230
0.0
100
AcDbArc
 50
0.0
 51
180.0
  0
ARC
  5
4F6
330
70
100
AcDbEntity
  8
表示
100
AcDbCircle
 10
-216.048354
 20
0.0
 30
-247.847815
 40
18.0
210
-1.0
220
0.0000000000000002
230
0.0
100
AcDbArc
 50
0.0
 51
180.0
  0
ARC
  5
4F7
330
70
100
AcDbEntity
  8
表示
100
AcDbCircle
 10
-216.048354
 20
0.0
 30
-327.847815
 40
15.0
210
-1.0
220
0.0000000000000002
230
0.0
100
AcDbArc
 50
0.0
 51
180.0
  0
ARC
  5
4F8
330
70
100
AcDbEntity
  8
表示
100
AcDbCircle
 10
216.048354
 20
0.0
 30
248.847815
 40
16.0
210
1.0
220
-0.0000000000000002
230
0.0
100
AcDbArc
 50
0.0
 51
180.0
  0
SPLINE
  5
4F9
330
70
100
AcDbEntity
  8
表示
100
AcDbSpline
210
0.0106216131316363
220
-0.9925461516401309
230
0.1214055937708309
 70
    12
 71
     2
 72
     6
 73
     3
 74
     0
 42
0.000000001
 43
0.0000000001
 40
1.361241173432324
 40
1.361241173432324
 40
1.361241173432324
 40
2.12581577542543
 40
2.12581577542543
 40
2.12581577542543
 10
202.6978645544336
 20
217.5640487183682
 30
4.01551495264357
 41
1.309386832811212
 10
201.0796375891272
 20
217.3452642425873
 30
2.368428500698428
 41
1.241580780369953
 10
200.4058146781866
 20
217.2444211190141
 30
1.602941795710648
 41
1.0
1001
ACAD_VIEW_EDGE_ID
1071
      115
1071
       -1
1071
        2
1071
        0
  0
ARC
  5
4FA
330
70
100
AcDbEntity
  8
表示
100
AcDbCircle
 10
216.048354
 20
0.0
 30
200.405815
 40
2.0
210
1.0
220
-0.0000000000000002
230
0.0
100
AcDbArc
 50
53.270793
 51
90.0
  0
LINE
  5
4FB
330
70
100
AcDbEntity
  8
表示
100
AcDbLine
 10
200.405815
 20
216.048354
 30
2.0
 11
207.300251
 21
216.048354
 31
8.894436
210
-1.0
220
0.0000000000000002
230
0.0
  0
ARC
  5
4FC
330
70
100
AcDbEntity
  8
表示
100
AcDbCircle
 10
216.048354
 20
0.0
 30
242.936053
 40
28.00000000000001
210
1.0
220
-0.0000000000000002
230
0.0
100
AcDbArc
 50
154.439434
 51
158.351897
  0
SPLINE
  5
4FD
330
70
100
AcDbEntity
  8
表示
100
AcDbSpline
210
0.7685693494264127
220
0.6362230653573163
230
0.0672411052080575
 70
    12
 71
     2
 72
     6
 73
     3
 74
     0
 42
0.000000001
 43
0.0000000001
 40
0.0
 40
0.0
 40
0.0
 40
0.5425789032718459
 40
0.5425789032718459
 40
0.5425789032718459
 10
242.9360529125285
 20
190.0232747975042
 30
10.32934050517724
 41
1.0
 10
243.2777309855274
 20
189.909706788696
 30
7.498502032214673
 41
1.01010743439062
 10
243.4744073955863
 20
189.9602939961369
 30
4.771833454338775
 41
1.016018663333182
1001
ACAD_VIEW_EDGE_ID
1071
      132
1071
       -1
1071
        2
1071
        0
  0
ARC
  5
4FE
330
70
100
AcDbEntity
  8
表示
100
AcDbCircle
 10
216.048354
 20
0.0
 30
245.847815
 40
20.00000029802322
210
1.0
220
-0.0000000000000002
230
0.0
100
AcDbArc
 50
0.0
 51
180.0
  0
ELLIPSE
  5
4FF
330
70
100
AcDbEntity
  8
表示
100
AcDbEllipse
 10
222.296147
 20
216.048354
 30
0.0
 11
-23.30754093782284
 21
27.84491881362602
 31
2.942872110862682
210
0.7685693494288561
220
0.6362230653543356
230
0.0672411052083308
 40
0.7685693494277221
 41
2.601586686951421
 42
2.658464936564739
1001
ACAD_VIEW_EDGE_ID
1071
      134
1071
       -1
1071
        2
1071
        0
  0
ARC
  5
500
330
70
100
AcDbEntity
  8
表示
100
AcDbCircle
 10
-241.535638
 20
190.048354
 30
0.0
 40
2.0
210
0.0
220
-0.0000000000002967
230
-1.0
100
AcDbArc
 50
200.0
 51
270.0
  0
LINE
  5
501
330
70
100
AcDbEntity
  8
表示
100
AcDbLine
 10
226.405815
 20
188.048354
 30
0.0
 11
241.535638
 21
188.048354
 31
0.0
210
-1.0
220
0.0000000000000002
230
0.0
  0
ARC
  5
502
330
70
100
AcDbEntity
  8
表示
100
AcDbCircle
 10
-241.535638
 20
242.048354
 30
0.0
 40
2.0
210
0.0
220
-0.0000000000002967
230
-1.0
100
AcDbArc
 50
90.0
 51
160.0
  0
LINE
  5
503
330
70
100
AcDbEntity
  8
表示
100
AcDbLine
 10
226.405815
 20
244.048354
 30
0.0
 11
241.535638
 21
244.048354
 31
0.0
210
-1.0
220
0.0000000000000002
230
0.0
  0
LINE
  5
504
330
70
100
AcDbEntity
  8
表示
100
AcDbLine
 10
247.847815
 20
198.048354
 30
0.0
 11
246.847815
 21
197.048354
 31
0.0
210
-1.0
220
0.0000000000000002
230
0.0
  0
LINE
  5
505
330
70
100
AcDbEntity
  8
表示
100
AcDbLine
 10
247.847815
 20
234.048354
 30
0.0
 11
246.847815
 21
235.048354
 31
0.0
210
-1.0
220
0.0000000000000002
230
0.0
  0
LINE
  5
506
330
70
100
AcDbEntity
  8
表示
100
AcDbLine
 10
245.847815
 20
235.048354
 30
0.0
 11
246.847815
 21
235.048354
 31
0.0
210
-1.0
220
0.0000000000000002
230
0.0
  0
LINE
  5
507
330
70
100
AcDbEntity
  8
表示
100
AcDbLine
 10
245.847815
 20
197.048354
 30
0.0
 11
246.847815
 21
197.048354
 31
0.0
210
-1.0
220
0.0000000000000002
230
0.0
  0
ARC
  5
508
330
70
100
AcDbEntity
  8
表示
100
AcDbCircle
 10
-326.847815
 20
201.048354
 30
0.0
 40
1.0
210
0.0
220
-0.0000000000002967
230
-1.0
100
AcDbArc
 50
180.0
 51
270.0
  0
ARC
  5
509
330
70
100
AcDbEntity
  8
表示
100
AcDbCircle
 10
-326.847815
 20
231.048354
 30
0.0
 40
1.0
210
0.0
220
-0.0000000000002967
230
-1.0
100
AcDbArc
 50
90.0
 51
180.0
  0
LINE
  5
50A
330
70
100
AcDbEntity
  8
表示
100
AcDbLine
 10
248.847815
 20
232.048354
 30
0.0
 11
326.847815
 21
232.048354
 31
0.0
210
-1.0
220
0.0000000000000002
230
0.0
  0
LINE
  5
50B
330
70
100
AcDbEntity
  8
表示
100
AcDbLine
 10
248.847815
 20
200.048354
 30
0.0
 11
326.847815
 21
200.048354
 31
0.0
210
-1.0
220
0.0000000000000002
230
0.0
  0
LINE
  5
50C
330
70
100
AcDbEntity
  8
表示
100
AcDbLine
 10
221.183465
 20
238.826004
 30
0.0
 11
226.405815
 21
244.048354
 31
0.0
210
-1.0
220
0.0000000000000002
230
0.0
  0
LINE
  5
50D
330
70
100
AcDbEntity
  8
表示
100
AcDbLine
 10
221.405815
 20
193.048354
 30
0.0
 11
226.405815
 21
188.048354
 31
0.0
210
-1.0
220
0.0000000000000002
230
0.0
  0
LINE
  5
50E
330
70
100
AcDbEntity
  8
表示
100
AcDbLine
 10
245.847815
 20
196.048353
 30
0.0
 11
243.415023
 21
189.364313
 31
0.0
210
-1.0
220
0.0000000000000002
230
0.0
  0
LINE
  5
50F
330
70
100
AcDbEntity
  8
表示
100
AcDbLine
 10
245.847815
 20
236.048354
 30
0.0
 11
243.415023
 21
242.732394
 31
0.0
210
-1.0
220
0.0000000000000002
230
0.0
  0
ARC
  5
510
330
70
100
AcDbEntity
  8
表示
100
AcDbCircle
 10
-248.047815
 20
200.348354
 30
0.0
 40
0.1999999999999957
210
0.0
220
-0.0000000000002967
230
-1.0
100
AcDbArc
 50
0.0
 51
90.0
  0
ARC
  5
511
330
70
100
AcDbEntity
  8
表示
100
AcDbCircle
 10
-248.047815
 20
231.748354
 30
0.0
 40
0.1999999999999957
210
0.0
220
-0.0000000000002967
230
-1.0
100
AcDbArc
 50
270.0
 51
0.0
  0
LINE
  5
512
330
70
100
AcDbEntity
  8
表示
100
AcDbLine
 10
248.047815
 20
231.548354
 30
0.0
 11
248.647815
 21
231.548354
 31
0.0
210
-1.0
220
0.0000000000000002
230
0.0
  0
LINE
  5
513
330
70
100
AcDbEntity
  8
表示
100
AcDbLine
 10
248.047815
 20
200.548354
 30
0.0
 11
248.647815
 21
200.548354
 31
0.0
210
-1.0
220
0.0000000000000002
230
0.0
  0
ARC
  5
514
330
70
100
AcDbEntity
  8
表示
100
AcDbCircle
 10
-248.647815
 20
200.348354
 30
0.0
 40
0.2000000000000002
210
0.0
220
-0.0000000000002967
230
-1.0
100
AcDbArc
 50
90.0
 51
180.0
  0
ARC
  5
515
330
70
100
AcDbEntity
  8
表示
100
AcDbCircle
 10
-248.647815
 20
231.748354
 30
0.0
 40
0.2000000000000002
210
0.0
220
-0.0000000000002967
230
-1.0
100
AcDbArc
 50
180.0
 51
270.0
  0
LINE
  5
516
330
70
100
AcDbEntity
  8
表示
100
AcDbLine
 10
236.380584
 20
193.731196
 30
3.44853
 11
215.261256
 21
214.931196
 31
1.600829
210
-1.0
220
0.0000000000000002
230
0.0
  0
LINE
  5
517
330
70
100
AcDbEntity
  8
表示
100
AcDbLine
 10
236.109153
 20
193.062914
 30
3.305742
 11
235.350666
 21
193.074519
 31
3.144507
210
-1.0
220
0.0000000000000002
230
0.0
  0
ELLIPSE
  5
518
330
70
100
AcDbEntity
  8
表示
100
AcDbEllipse
 10
235.298163
 20
193.04429
 30
3.387056
 11
0.3485191386890167
 21
-0.0052516025918258
 31
0.0734257222452464
210
-0.0106216131426448
220
0.9925461516413582
230
0.1214055937598363
 40
0.7018361144673728
 41
1.568192662549351
 42
3.138988989340925
1001
ACAD_VIEW_EDGE_ID
1071
       21
1071
       -1
1071
        3
1071
        0
  0
LINE
  5
519
330
70
100
AcDbEntity
  8
表示
100
AcDbLine
 10
234.949779
 20
193.04962
 30
3.312999
 11
234.94758
 21
193.048354
 31
3.323159
210
-1.0
220
0.0000000000000002
230
0.0
  0
LINE
  5
51A
330
70
100
AcDbEntity
  8
表示
100
AcDbLine
 10
221.281909
 20
193.048354
 30
2.127568
 11
234.94758
 21
193.048354
 31
3.323159
210
-1.0
220
0.0000000000000002
230
0.0
  0
LINE
  5
51B
330
70
100
AcDbEntity
  8
表示
100
AcDbLine
 10
221.281909
 20
193.048354
 30
2.127568
 11
221.278984
 21
193.04962
 31
2.116959
210
-1.0
220
0.0000000000000002
230
0.0
  0
ELLIPSE
  5
51C
330
70
100
AcDbEntity
  8
表示
100
AcDbEllipse
 10
220.933654
 20
193.04429
 30
2.130324
 11
0.3485191386888555
 21
-0.0052516025920825
 31
0.0734257222473305
210
-0.0106216131426446
220
0.9925461516413578
230
0.1214055937598364
 40
0.7018361144658499
 41
0.3464621861603574
 42
1.917258512951924
1001
ACAD_VIEW_EDGE_ID
1071
       25
1071
       -1
1071
        3
1071
        0
  0
LINE
  5
51D
330
70
100
AcDbEntity
  8
表示
100
AcDbLine
 10
220.863836
 20
193.074519
 30
1.877074
 11
219.335544
 21
193.050929
 31
1.936223
210
-1.0
220
0.0000000000000002
230
0.0
  0
LINE
  5
51E
330
70
100
AcDbEntity
  8
表示
100
AcDbLine
 10
197.932622
 20
214.365511
 30
0.08477
 11
219.051949
 21
193.165511
 31
1.932471
210
-1.0
220
0.0000000000000002
230
0.0
  0
ARC
  5
51F
330
70
100
AcDbEntity
  8
表示
100
AcDbCircle
 10
-204.048354
 20
216.48423
 30
-21.666518
 40
2.850000000000003
210
-0.0871557427476577
220
0.0000000000002955
230
0.9961946980917456
100
AcDbArc
 50
181.950038
 51
358.049962
  0
LINE
  5
520
330
70
100
AcDbEntity
  8
表示
100
AcDbLine
 10
198.224724
 20
215.033793
 30
-0.008716
 11
198.999685
 21
215.022188
 31
-0.035792
210
-1.0
220
0.0000000000000002
230
0.0
  0
ELLIPSE
  5
521
330
70
100
AcDbEntity
  8
表示
100
AcDbEllipse
 10
199.009273
 20
215.052418
 30
0.21219
 11
-0.3559745927157129
 21
0.0052516025921757
 31
0.0117905072249035
210
-0.010621613142646
220
-0.9925461516412848
230
0.121405593760434
 40
0.7018361144664037
 41
1.568192662554455
 42
3.138988989352206
1001
ACAD_VIEW_EDGE_ID
1071
       38
1071
       -1
1071
        3
1071
        0
  0
LINE
  5
522
330
70
100
AcDbEntity
  8
表示
100
AcDbLine
 10
199.365224
 20
215.047087
 30
0.199753
 11
199.365625
 21
215.048354
 31
0.210141
210
-1.0
220
0.0000000000000002
230
0.0
  0
LINE
  5
523
330
70
100
AcDbEntity
  8
表示
100
AcDbLine
 10
213.031296
 20
215.048354
 30
1.405732
 11
199.365625
 21
215.048354
 31
0.210141
210
-1.0
220
0.0000000000000002
230
0.0
  0
LINE
  5
524
330
70
100
AcDbEntity
  8
表示
100
AcDbLine
 10
213.031296
 20
215.048354
 30
1.405732
 11
213.036019
 21
215.047087
 31
1.395793
210
-1.0
220
0.0000000000000002
230
0.0
  0
ELLIPSE
  5
525
330
70
100
AcDbEntity
  8
表示
100
AcDbEllipse
 10
213.373782
 20
215.052418
 30
1.468921
 11
-0.3559745927150988
 21
0.0052516025917109
 31
0.0117905072211575
210
-0.010621613142646
220
-0.9925461516412848
230
0.121405593760434
 40
0.7018361144697631
 41
0.3464621861451274
 42
1.917258512946715
1001
ACAD_VIEW_EDGE_ID
1071
       42
1071
       -1
1071
        3
1071
        0
  0
LINE
  5
526
330
70
100
AcDbEntity
  8
表示
100
AcDbLine
 10
213.486515
 20
215.022188
 30
1.231642
 11
214.981318
 21
215.045778
 31
1.555278
210
-1.0
220
0.0000000000000002
230
0.0
  0
ELLIPSE
  5
527
330
70
100
AcDbEntity
  8
表示
100
AcDbEllipse
 10
198.214434
 20
214.64236
 30
0.040125
 11
-0.2818122733290355
 21
-0.2768488705352656
 31
0.0446444715244042
210
-0.0364889081267886
220
-0.1227878039692668
230
-0.9917619244456401
 40
0.9845769202595777
 41
0.0000000001123104
 42
2.371388697327674
1001
ACAD_VIEW_EDGE_ID
1071
       46
1071
       -1
1071
        3
1071
        0
  0
ELLIPSE
  5
528
330
70
100
AcDbEntity
  8
表示
100
AcDbEllipse
 10
219.333762
 20
193.44236
 30
1.887827
 11
-0.2818122734938897
 21
-0.2768488703697534
 31
0.0446444715099779
210
-0.0364889081267885
220
-0.122787803969267
230
-0.9917619244456401
 40
0.9845769202740061
 41
-0.8008267920822952
 42
-0.0000000004856737
1001
ACAD_VIEW_EDGE_ID
1071
       47
1071
       -1
1071
        3
1071
        0
  0
LINE
  5
529
330
70
100
AcDbEntity
  8
表示
100
AcDbLine
 10
199.365625
 20
215.048354
 30
0.210141
 11
221.281909
 21
193.048354
 31
2.127568
210
-1.0
220
0.0000000000000002
230
0.0
  0
ELLIPSE
  5
52A
330
70
100
AcDbEntity
  8
表示
100
AcDbEllipse
 10
236.110805
 20
193.454347
 30
3.355628
 11
0.2697784805438093
 21
0.2768488705367758
 31
0.0929024093938251
210
0.2081522104816507
220
0.1227878039686853
230
-0.9703585999351735
 40
0.9845769202593134
 41
0.0000000001177771
 42
2.37138869733296
1001
ACAD_VIEW_EDGE_ID
1071
       52
1071
       -1
1071
        3
1071
        0
  0
ELLIPSE
  5
52B
330
70
100
AcDbEntity
  8
表示
100
AcDbEllipse
 10
214.991477
 20
214.654347
 30
1.507926
 11
0.2697784806890866
 21
0.2768488703909706
 31
0.0929024094065386
210
0.2081522104816505
220
0.122787803968685
230
-0.9703585999351734
 40
0.9845769202720473
 41
-0.800826792007898
 42
-0.0000000004090046
1001
ACAD_VIEW_EDGE_ID
1071
       53
1071
       -1
1071
        3
1071
        0
  0
LINE
  5
52C
330
70
100
AcDbEntity
  8
表示
100
AcDbLine
 10
234.94758
 20
193.048354
 30
3.323159
 11
213.031296
 21
215.048354
 31
1.405732
210
-1.0
220
0.0000000000000002
230
0.0
  0
ARC
  5
52D
330
70
100
AcDbEntity
  8
表示
100
AcDbCircle
 10
204.048354
 20
216.48423
 30
17.916518
 40
4.000000000000001
210
0.0871557427476576
220
-0.0000000000002955
230
-0.9961946980917456
100
AcDbArc
 50
180.469949
 51
359.530051
  0
CIRCLE
  5
52E
330
70
100
AcDbEntity
  8
表示
100
AcDbCircle
 10
204.048354
 20
216.48423
 30
17.166518
 40
4.0
210
0.0871557427476577
220
-0.0000000000002955
230
-0.9961946980917456
  0
SPLINE
  5
52F
330
70
100
AcDbEntity
  8
表示
100
AcDbSpline
 70
     0
 71
     3
 72
    26
 73
    22
 74
     0
 42
0.000000001
 43
0.0000000001
 40
5.497787143782137
 40
5.497787143782137
 40
5.497787143782137
 40
5.497787143782137
 40
5.819555580684833
 40
5.819555580684833
 40
6.140961177468423
 40
6.140961177468423
 40
6.461439386746228
 40
6.461439386746228
 40
6.780821068191915
 40
6.780821068191915
 40
7.099369996782672
 40
7.099369996782672
 40
7.417652074304413
 40
7.417652074304413
 40
7.736323752520916
 40
7.736323752520916
 40
8.055904955844805
 40
8.055904955844805
 40
8.376581969552615
 40
8.376581969552615
 40
8.639379797371933
 40
8.639379797371933
 40
8.639379797371933
 40
8.639379797371933
 10
217.3557896891253
 20
201.1983535625732
 30
-0.5100685718607565
 10
217.6589979505302
 20
201.1983535625732
 30
-0.4684700206471462
 10
217.9621591318938
 20
201.2477246110157
 30
-0.4268788647841575
 10
218.53750330418
 20
201.4402500510423
 30
-0.3479961346456548
 10
218.8096267646313
 20
201.583274854358
 30
-0.3107137010447332
 10
219.2947641904176
 20
201.9482689654451
 30
-0.2443107057952147
 10
219.5078577922169
 20
202.1699556639687
 30
-0.2151783615845488
 10
219.8533601629806
 20
202.6692128317118
 30
-0.1679836013081513
 10
219.9859723458947
 20
202.946504360365
 30
-0.1498915125339408
 10
220.1575927973288
 20
203.528562061163
 30
-0.1264852625099593
 10
220.1968073556155
 20
203.8331460994177
 30
-0.1211416423120681
 10
220.1782161183285
 20
204.4391370515878
 30
-0.1236759015955613
 10
220.1204965654153
 20
204.7404307484048
 30
-0.1315421865128883
 10
219.9140374928929
 20
205.3098342811209
 30
-0.1597064006236906
 10
219.7652318310405
 20
205.5777989869639
 30
-0.1800148486436228
 10
219.3913248490494
 20
206.0537608086542
 30
-0.2311085947458196
 10
219.1660815039089
 20
206.2615061670076
 30
-0.2619150606496987
 10
218.6615789710044
 20
206.595823778196
 30
-0.330993737141398
 10
218.3822265348819
 20
206.7220674177806
 30
-0.3692793202117173
 10
217.8510509502444
 20
206.8655099051557
 30
-0.442121722160664
 10
217.6034288710199
 20
206.8983535625739
 30
-0.4760938010476821
 10
217.3557896891253
 20
206.8983535625739
 30
-0.5100685718625755
1001
ACAD_VIEW_EDGE_ID
1071
   -38913
1071
       -1
1071
        3
1071
        0
  0
LINE
  5
530
330
70
100
AcDbEntity
  8
表示
100
AcDbLine
 10
206.834692
 20
225.492176
 30
3.653589
 11
200.772202
 21
218.239583
 31
4.183989
210
-1.0
220
0.0000000000000002
230
0.0
  0
LINE
  5
531
330
70
100
AcDbEntity
  8
表示
100
AcDbLine
 10
198.366862
 20
217.514081
 30
2.387496
 11
206.834692
 21
225.492176
 31
3.653589
210
-1.0
220
0.0000000000000002
230
0.0
  0
ELLIPSE
  5
532
330
70
100
AcDbEntity
  8
表示
100
AcDbEllipse
 10
198.431463
 20
217.458175
 30
2.506053
 11
0.0701860548671775
 21
-0.0499826486999949
 31
0.118775587951974
210
0.6009849385227028
220
-0.5451148086277844
230
-0.5845228388040603
 40
0.5195882505403548
 41
1.914069533097482
 42
3.2480497086904
1001
ACAD_VIEW_EDGE_ID
1071
        9
1071
       -1
1071
        4
1071
        0
  0
LINE
  5
533
330
70
100
AcDbEntity
  8
表示
100
AcDbLine
 10
198.361867
 20
217.419999
 30
2.470099
 11
200.772202
 21
218.239583
 31
4.183989
210
-1.0
220
0.0000000000000002
230
0.0
  0
LINE
  5
534
330
70
100
AcDbEntity
  8
表示
100
AcDbLine
 10
200.772202
 20
218.239583
 30
4.183989
 11
202.809969
 21
217.878897
 31
4.005707
210
-1.0
220
0.0000000000000002
230
0.0
  0
ELLIPSE
  5
535
330
70
100
AcDbEntity
  8
表示
100
AcDbEllipse
 10
198.44048
 20
217.433306
 30
2.505264
 11
0.0242970850719395
 21
0.076577860573298
 31
0.1227903525889602
210
0.1005161230066969
220
0.8351643400219302
230
-0.5407374909985774
 40
0.519588250536267
 41
2.928875937488085
 42
4.369115774072789
1001
ACAD_VIEW_EDGE_ID
1071
       12
1071
       -1
1071
        4
1071
        0
  0
LINE
  5
536
330
70
100
AcDbEntity
  8
表示
100
AcDbLine
 10
202.352674
 20
217.517276
 30
3.362181
 11
198.432522
 21
217.355659
 31
2.38386
210
-1.0
220
0.0000000000000002
230
0.0
  0
LINE
  5
537
330
70
100
AcDbEntity
  8
表示
100
AcDbLine
 10
221.281909
 20
239.048354
 30
-2.127568
 11
221.405815
 21
239.048354
 31
-2.138408
210
-1.0
220
0.0000000000000002
230
0.0
  0
LINE
  5
538
330
70
100
AcDbEntity
  8
表示
100
AcDbLine
 10
221.281909
 20
239.048354
 30
-2.127568
 11
221.278984
 21
239.047087
 31
-2.116959
210
-1.0
220
0.0000000000000002
230
0.0
  0
ELLIPSE
  5
539
330
70
100
AcDbEntity
  8
表示
100
AcDbEllipse
 10
220.933654
 20
239.052418
 30
-2.130324
 11
-0.3485191386888884
 21
-0.0052516025920835
 31
0.0734257222473429
210
-0.0106216131426451
220
-0.9925461516413578
230
-0.1214055937598364
 40
0.7018361144657693
 41
3.488054839750203
 42
5.058851166541693
1001
ACAD_VIEW_EDGE_ID
1071
       25
1071
       -1
1071
        4
1071
        0
  0
LINE
  5
53A
330
70
100
AcDbEntity
  8
表示
100
AcDbLine
 10
220.863836
 20
239.022188
 30
-1.877074
 11
219.335544
 21
239.045778
 31
-1.936223
210
-1.0
220
0.0000000000000002
230
0.0
  0
LINE
  5
53B
330
70
100
AcDbEntity
  8
表示
100
AcDbLine
 10
219.617646
 20
238.648354
 30
1.288219
 11
219.788856
 21
238.495823
 31
2.520247
210
-1.0
220
0.0000000000000002
230
0.0
  0
LINE
  5
53C
330
70
100
AcDbEntity
  8
表示
100
AcDbLine
 10
219.788856
 20
238.495823
 30
2.520247
 11
220.982902
 21
238.495823
 31
2.415781
210
-1.0
220
0.0000000000000002
230
0.0
  0
LINE
  5
53D
330
70
100
AcDbEntity
  8
表示
100
AcDbLine
 10
206.834692
 20
225.492176
 30
3.653589
 11
219.788856
 21
238.495823
 31
2.520247
210
-1.0
220
0.0000000000000002
230
0.0
  0
LINE
  5
53E
330
70
100
AcDbEntity
  8
表示
100
AcDbLine
 10
197.932622
 20
217.731196
 30
-0.08477
 11
219.051949
 21
238.931196
 31
-1.932471
210
-1.0
220
0.0000000000000002
230
0.0
  0
LINE
  5
53F
330
70
100
AcDbEntity
  8
表示
100
AcDbLine
 10
198.224724
 20
217.062914
 30
0.008716
 11
198.999685
 21
217.074519
 31
0.035792
210
-1.0
220
0.0000000000000002
230
0.0
  0
ELLIPSE
  5
540
330
70
100
AcDbEntity
  8
表示
100
AcDbEllipse
 10
199.009273
 20
217.04429
 30
-0.21219
 11
0.355974592715713
 21
0.0052516025921755
 31
0.0117905072249036
210
-0.0106216131426456
220
0.9925461516412848
230
-0.121405593760434
 40
0.7018361144664041
 41
4.709785316144248
 42
6.280581642941999
1001
ACAD_VIEW_EDGE_ID
1071
       38
1071
       -1
1071
        4
1071
        0
  0
LINE
  5
541
330
70
100
AcDbEntity
  8
表示
100
AcDbLine
 10
199.365224
 20
217.04962
 30
-0.199753
 11
199.365625
 21
217.048354
 31
-0.210141
210
-1.0
220
0.0000000000000002
230
0.0
  0
LINE
  5
542
330
70
100
AcDbEntity
  8
表示
100
AcDbLine
 10
200.405815
 20
217.048354
 30
-0.301146
 11
199.365625
 21
217.048354
 31
-0.210141
210
-1.0
220
0.0000000000000002
230
0.0
  0
ELLIPSE
  5
543
330
70
100
AcDbEntity
  8
表示
100
AcDbEllipse
 10
198.214434
 20
217.454347
 30
-0.040125
 11
0.2818122733290346
 21
-0.2768488705352663
 31
0.0446444715244043
210
-0.0364889081267885
220
0.1227878039692668
230
0.99176192444564
 40
0.9845769202595773
 41
3.141592653702105
 42
5.51298135091747
1001
ACAD_VIEW_EDGE_ID
1071
       46
1071
       -1
1071
        4
1071
        0
  0
ELLIPSE
  5
544
330
70
100
AcDbEntity
  8
表示
100
AcDbEllipse
 10
219.333762
 20
238.654347
 30
-1.887827
 11
0.2818122734938743
 21
-0.2768488703697689
 31
0.0446444715099792
210
-0.0364889081267885
220
0.122787803969267
230
0.99176192444564
 40
0.9845769202740019
 41
2.340765861507622
 42
3.141592653104174
1001
ACAD_VIEW_EDGE_ID
1071
       47
1071
       -1
1071
        4
1071
        0
  0
SPLINE
  5
545
330
70
100
AcDbEntity
  8
表示
100
AcDbSpline
210
-0.8830222215588182
220
0.3420201433258721
230
0.3213938048448961
 70
     8
 71
     3
 72
    14
 73
    10
 74
     0
 42
0.000000001
 43
0.0000000001
 40
1.600323141601261
 40
1.600323141601261
 40
1.600323141601261
 40
1.600323141601261
 40
1.676027661016973
 40
1.676027661016973
 40
1.77623467606587
 40
1.77623467606587
 40
1.899578534871243
 40
1.899578534871243
 40
1.927010393343953
 40
1.927010393343953
 40
1.927010393343953
 40
1.927010393343953
 10
89.89270701462192
 20
204.8857327846071
 30
21.21671498720845
 10
89.84896758420473
 20
204.9863518021975
 30
20.98946536779052
 10
89.82611124275171
 20
205.1596817144764
 30
20.74221424580269
 10
89.82349457853525
 20
205.5576180581866
 30
20.3115500081194
 10
89.85746125986407
 20
205.8741614649207
 30
20.06801424061753
 10
89.96609315362912
 20
206.5081496405473
 30
19.691801791256
 10
90.0721532347252
 20
206.9539022282879
 30
19.5088394732733
 10
90.20594207357317
 20
207.4207884206171
 30
19.37957137883104
 10
90.23218340544735
 20
207.5093661044739
 30
19.35740644331555
 10
90.26003647688048
 20
207.6001426504645
 30
19.33732974563663
1001
ACAD_VIEW_EDGE_ID
1071
        0
1071
       -1
1071
        2
1071
        0
  0
SPLINE
  5
546
330
70
100
AcDbEntity
  8
表示
100
AcDbSpline
 70
     0
 71
     3
 72
    12
 73
     8
 74
     0
 42
0.000000001
 43
0.0000000001
 40
0.3804389033126918
 40
0.3804389033126918
 40
0.3804389033126918
 40
0.3804389033126918
 40
0.3976510361810623
 40
0.3976510361810623
 40
0.4383512139679603
 40
0.4383512139679603
 40
0.4667159580672895
 40
0.4667159580672895
 40
0.4667159580672895
 40
0.4667159580672895
 10
119.6498890011826
 20
189.6778390921972
 30
19.33732975720874
 10
119.6096683672713
 20
189.6386454684725
 30
19.34918996847478
 10
119.5724255257973
 20
189.5969764281744
 30
19.36311553745155
 10
119.4580882143818
 20
189.4516601200885
 30
19.41762063387512
 10
119.3950749001687
 20
189.3400969598751
 30
19.46918406934563
 10
119.3255772669417
 20
189.152323379305
 30
19.582895637737
 10
119.3080502227276
 20
189.0764226272185
 30
19.63656952355011
 10
119.3027754442701
 20
189.0045406261179
 30
19.69686051720744
1001
ACAD_VIEW_EDGE_ID
1071
        2
1071
       -1
1071
        2
1071
        0
  0
SPLINE
  5
547
330
70
100
AcDbEntity
  8
表示
100
AcDbSpline
210
0.9961946980916575
220
0.0000000000013095
230
0.0871557427486625
 70
     8
 71
     3
 72
    12
 73
     8
 74
     0
 42
0.000000001
 43
0.0000000001
 40
-0.16463288862375
 40
-0.16463288862375
 40
-0.16463288862375
 40
-0.16463288862375
 40
-0.1491206085497307
 40
-0.1491206085497307
 40
-0.0742436527511563
 40
-0.0742436527511563
 40
0.0
 40
0.0
 40
0.0
 40
0.0
 10
119.3027754442701
 20
189.0045406261179
 30
19.69686051720744
 10
119.2997018506376
 20
188.9626552535683
 30
19.7319918531754
 10
119.2965433553672
 20
188.9230520235178
 30
19.76809361931244
 10
119.2781133391672
 20
188.7084255605495
 30
19.97874966841935
 10
119.2565511089669
 20
188.539609841433
 30
20.22520708738336
 10
119.2166970972212
 20
188.3447297971415
 30
20.68074052611075
 10
119.1913732346802
 20
188.2833332182745
 30
20.97019359945918
 10
119.1698054079352
 20
188.2805382730639
 30
21.21671498720845
1001
ACAD_VIEW_EDGE_ID
1071
        3
1071
       -1
1071
        2
1071
        0
  0
ELLIPSE
  5
548
330
70
100
AcDbEntity
  8
表示
100
AcDbEllipse
 10
115.571412
 20
216.048354
 30
62.346538
 11
-27.99999999849938
 21
0.0000000003104016
 31
320.0414644601655
210
-0.9961946980917455
220
-0.0000000000002952
230
-0.0871557427476582
 40
0.0871557427522765
 41
4.583518526800371
 42
4.631059879244453
1001
ACAD_VIEW_EDGE_ID
1071
        5
1071
       -1
1071
        2
1071
        0
  0
ARC
  5
549
330
70
100
AcDbEntity
  8
表示
100
AcDbCircle
 10
-115.571412
 20
216.048354
 30
-36.346538
 40
28.00000000000002
210
0.0
220
0.0
230
-1.0
100
AcDbArc
 50
265.340186
 51
323.029898
  0
ELLIPSE
  5
54A
330
70
100
AcDbEntity
  8
表示
100
AcDbEllipse
 10
115.571412
 20
216.048354
 30
79.889365
 11
26.10986467970916
 21
-10.11310864180956
 31
82.49840905976451
210
0.8830222215595902
220
-0.3420201433254073
230
-0.3213938048432698
 40
0.3213938048436715
 41
2.12680701337278
 42
2.361996285861442
1001
ACAD_VIEW_EDGE_ID
1071
        7
1071
       -1
1071
        2
1071
        0
  0
ARC
  5
54B
330
70
100
AcDbEntity
  8
表示
100
AcDbCircle
 10
-193.448354
 20
16.180988
 30
-120.565487
 40
2.999999999999999
210
-0.9961946980917455
220
-0.0000000000002952
230
-0.0871557427476581
100
AcDbArc
 50
274.833729
 51
82.337744
  0
LINE
  5
54C
330
70
100
AcDbEntity
  8
表示
100
AcDbLine
 10
117.69898
 20
193.048354
 30
38.02833
 11
117.415129
 21
193.048354
 31
41.272759
  0
SPLINE
  5
54D
330
70
100
AcDbEntity
  8
表示
100
AcDbSpline
210
0.9961946949729231
220
-0.000000036058051
230
0.0871557783959479
 70
    12
 71
     2
 72
     6
 73
     3
 74
     0
 42
0.000000001
 43
0.0000000001
 40
0.0
 40
0.0
 40
0.0
 40
0.2167407044975801
 40
0.2167407044975801
 40
0.2167407044975801
 10
117.8461174004642
 20
188.1409044491593
 30
36.34653814513099
 41
1.0
 10
117.6098496470004
 20
190.8311552858649
 30
39.04709092467918
 41
1.058933435672751
 10
117.4151289361234
 20
193.0483535606963
 30
41.27275883444236
 41
1.110920077170514
1001
ACAD_VIEW_EDGE_ID
1071
       11
1071
       -1
1071
        2
1071
        0
  0
SPLINE
  5
54E
330
70
100
AcDbEntity
  8
表示
100
AcDbSpline
 70
     0
 71
     3
 72
    12
 73
     8
 74
     0
 42
0.000000001
 43
0.0000000001
 40
0.4446889135324045
 40
0.4446889135324045
 40
0.4446889135324045
 40
0.4446889135324045
 40
0.4601567206559018
 40
0.4601567206559018
 40
0.4972935868787066
 40
0.4972935868787066
 40
0.5189936249196114
 40
0.5189936249196114
 40
0.5189936249196114
 40
0.5189936249196114
 10
119.6498890099356
 20
189.6778390826493
 30
19.33732975534387
 10
119.6880521109888
 20
189.7150277118544
 30
19.32607626718239
 10
119.7295637768675
 20
189.7498005862289
 30
19.31591696413963
 10
119.8795505002545
 20
189.8561692071107
 30
19.28631186284593
 10
120.0012486759296
 20
189.9102753099341
 30
19.27417101934235
 10
120.1925137262787
 20
189.9535108380369
 30
19.27062048016253
 10
120.2676152434687
 20
189.9613224983059
 30
19.27263191025185
 10
120.3432456031205
 20
189.9602939961387
 30
19.27794542773135
1001
ACAD_VIEW_EDGE_ID
1071
       12
1071
       -1
1071
        2
1071
        0
  0
SPLINE
  5
54F
330
70
100
AcDbEntity
  8
表示
100
AcDbSpline
 70
     0
 71
     3
 72
    12
 73
     8
 74
     0
 42
0.000000001
 43
0.0000000001
 40
0.568940067451842
 40
0.568940067451842
 40
0.568940067451842
 40
0.568940067451842
 40
0.5873340896482747
 40
0.5873340896482747
 40
0.713164357170178
 40
0.713164357170178
 40
0.8330669005159482
 40
0.8330669005159482
 40
0.8330669005159482
 40
0.8330669005159482
 10
118.8032122066397
 20
196.2176312695373
 30
25.47866109943935
 10
118.8113722228499
 20
196.1940450946876
 30
25.42251923718938
 10
118.8205740632693
 20
196.1686341548302
 30
25.36696330425357
 10
118.8976452060396
 20
195.955135372049
 30
24.93710238473236
 10
118.9864978278656
 20
195.6806184273482
 30
24.59728288131271
 10
119.0319178468944
 20
195.0486713225509
 30
24.07812968820926
 10
118.9957949328964
 20
194.678015841615
 30
23.87741577722127
 10
118.9711185832748
 20
194.2907659678658
 30
23.76115582307949
1001
ACAD_VIEW_EDGE_ID
1071
       16
1071
       -1
1071
        2
1071
        0
  0
SPLINE
  5
550
330
70
100
AcDbEntity
  8
表示
100
AcDbSpline
210
-0.8830222215597238
220
0.3420201433252916
230
-0.3213938048430261
 70
     8
 71
     3
 72
    14
 73
    10
 74
     0
 42
0.000000001
 43
0.0000000001
 40
1.600323141601261
 40
1.600323141601261
 40
1.600323141601261
 40
1.600323141601261
 40
1.676027661016973
 40
1.676027661016973
 40
1.77623467606587
 40
1.77623467606587
 40
1.899578534871242
 40
1.899578534871242
 40
1.927010393343953
 40
1.927010393343953
 40
1.927010393343953
 40
1.927010393343953
 10
141.2501172829452
 20
227.2109743405435
 30
21.21671498720845
 10
141.2938567133624
 20
227.1103553229532
 30
20.98946536779052
 10
141.3167130548154
 20
226.9370254106761
 30
20.74221424580269
 10
141.3193297190319
 20
226.5390890669642
 30
20.3115500081194
 10
141.2853630377012
 20
226.22254566023
 30
20.06801424061753
 10
141.1767311439362
 20
225.5885574846034
 30
19.691801791256
 10
141.0706710628401
 20
225.1428048968628
 30
19.5088394732733
 10
140.9368822239921
 20
224.6759187045336
 30
19.37957137883104
 10
140.9106408921179
 20
224.5873410206769
 30
19.35740644331555
 10
140.8827878206848
 20
224.4965644746862
 30
19.33732974563663
1001
ACAD_VIEW_EDGE_ID
1071
       17
1071
       -1
1071
        2
1071
        0
  0
SPLINE
  5
551
330
70
100
AcDbEntity
  8
表示
100
AcDbSpline
 70
     0
 71
     3
 72
    12
 73
     8
 74
     0
 42
0.000000001
 43
0.0000000001
 40
0.3804389033140059
 40
0.3804389033140059
 40
0.3804389033140059
 40
0.3804389033140059
 40
0.397651036182444
 40
0.397651036182444
 40
0.438351213969499
 40
0.438351213969499
 40
0.4667159580689438
 40
0.4667159580689438
 40
0.4667159580689438
 40
0.4667159580689438
 10
111.4929352963845
 20
242.4188680329553
 30
19.33732975720874
 10
111.533155930294
 20
242.45806165668
 30
19.34918996847479
 10
111.5703987717679
 20
242.4997306969781
 30
19.36311553745159
 10
111.6847360831834
 20
242.6450470050641
 30
19.41762063387517
 10
111.7477493973965
 20
242.7566101652774
 30
19.46918406934567
 10
111.8172470306235
 20
242.9443837458475
 30
19.58289563773706
 10
111.8347740748377
 20
243.020284497934
 30
19.63656952355016
 10
111.8400488532952
 20
243.0921664990346
 30
19.69686051720744
1001
ACAD_VIEW_EDGE_ID
1071
       19
1071
       -1
1071
        2
1071
        0
  0
SPLINE
  5
552
330
70
100
AcDbEntity
  8
表示
100
AcDbSpline
210
-0.9961946980916575
220
-0.0000000000013095
230
0.0871557427486625
 70
     8
 71
     3
 72
    12
 73
     8
 74
     0
 42
0.000000001
 43
0.0000000001
 40
-0.1646328886237495
 40
-0.1646328886237495
 40
-0.1646328886237495
 40
-0.1646328886237495
 40
-0.1491206085497305
 40
-0.1491206085497305
 40
-0.0742436527511563
 40
-0.0742436527511563
 40
0.0
 40
0.0
 40
0.0
 40
0.0
 10
111.8400488532952
 20
243.0921664990346
 30
19.69686051720744
 10
111.8431224469277
 20
243.1340518715842
 30
19.73199185317539
 10
111.846280942198
 20
243.1736551016347
 30
19.76809361931244
 10
111.864710958398
 20
243.3882815646029
 30
19.97874966841935
 10
111.8862731885983
 20
243.5570972837195
 30
20.22520708738336
 10
111.9261272003441
 20
243.751977328011
 30
20.68074052611075
 10
111.9514510628851
 20
243.813373906878
 30
20.97019359945918
 10
111.9730188896301
 20
243.8161688520886
 30
21.21671498720845
1001
ACAD_VIEW_EDGE_ID
1071
       20
1071
       -1
1071
        2
1071
        0
  0
ELLIPSE
  5
553
330
70
100
AcDbEntity
  8
表示
100
AcDbEllipse
 10
115.571412
 20
216.048354
 30
62.346538
 11
27.9999999985053
 21
-0.0000000003092384
 31
320.0414644602332
210
0.9961946980917455
220
0.0000000000002951
230
-0.0871557427476582
 40
0.087155742752264
 41
4.583518526800398
 42
4.631059879244471
1001
ACAD_VIEW_EDGE_ID
1071
       22
1071
       -1
1071
        2
1071
        0
  0
ARC
  5
554
330
70
100
AcDbEntity
  8
表示
100
AcDbCircle
 10
-115.571412
 20
216.048354
 30
-36.346538
 40
28.00000000000002
210
0.0
220
0.0
230
-1.0
100
AcDbArc
 50
85.340186
 51
143.029898
  0
ELLIPSE
  5
555
330
70
100
AcDbEntity
  8
表示
100
AcDbEllipse
 10
115.571412
 20
216.048354
 30
79.889365
 11
-26.109864679715
 21
10.11310864187355
 31
82.49840905984866
210
-0.8830222215595904
220
0.342020143325407
230
-0.3213938048432697
 40
0.3213938048436077
 41
2.126807013371932
 42
2.361996285860199
1001
ACAD_VIEW_EDGE_ID
1071
       24
1071
       -1
1071
        2
1071
        0
  0
ARC
  5
556
330
70
100
AcDbEntity
  8
表示
100
AcDbCircle
 10
238.648354
 20
36.326412
 30
109.697769
 40
3.0
210
0.9961946980917455
220
0.0000000000002951
230
-0.0871557427476582
100
AcDbArc
 50
274.833729
 51
82.337744
  0
LINE
  5
557
330
70
100
AcDbEntity
  8
表示
100
AcDbLine
 10
113.443845
 20
239.048354
 30
38.02833
 11
113.727695
 21
239.048354
 31
41.272759
  0
SPLINE
  5
558
330
70
100
AcDbEntity
  8
表示
100
AcDbSpline
210
-0.9961946888010341
220
0.0000001074145123
230
0.0871558489408458
 70
    12
 71
     2
 72
     6
 73
     3
 74
     0
 42
0.000000001
 43
0.0000000001
 40
0.0
 40
0.0
 40
0.0
 40
0.2167407044975856
 40
0.2167407044975856
 40
0.2167407044975856
 10
113.2967068971011
 20
243.9558026759932
 30
36.34653814513099
 41
1.0
 10
113.5329746505667
 20
241.2655518392857
 30
39.04709092467918
 41
1.05893343567275
 10
113.7276953614437
 20
239.0483535644544
 30
41.27275883444237
 41
1.110920077170511
1001
ACAD_VIEW_EDGE_ID
1071
       28
1071
       -1
1071
        2
1071
        0
  0
SPLINE
  5
559
330
70
100
AcDbEntity
  8
表示
100
AcDbSpline
 70
     0
 71
     3
 72
    12
 73
     8
 74
     0
 42
0.000000001
 43
0.0000000001
 40
0.4446889135324043
 40
0.4446889135324043
 40
0.4446889135324043
 40
0.4446889135324043
 40
0.4601567206559019
 40
0.4601567206559019
 40
0.4972935868787068
 40
0.4972935868787068
 40
0.5189936249196117
 40
0.5189936249196117
 40
0.5189936249196117
 40
0.5189936249196117
 10
111.4929352876315
 20
242.4188680425032
 30
19.33732975534389
 10
111.4547721865783
 20
242.3816794132963
 30
19.32607626718239
 10
111.4132605206996
 20
242.3469065389217
 30
19.31591696413963
 10
111.2632737973126
 20
242.24053791804
 30
19.28631186284593
 10
111.1415756216374
 20
242.1864318152166
 30
19.27417101934235
 10
110.9503105712883
 20
242.1431962871138
 30
19.27062048016253
 10
110.8752090540984
 20
242.1353846268448
 30
19.27263191025185
 10
110.7995786944466
 20
242.136413129012
 30
19.27794542773135
1001
ACAD_VIEW_EDGE_ID
1071
       29
1071
       -1
1071
        2
1071
        0
  0
SPLINE
  5
55A
330
70
100
AcDbEntity
  8
表示
100
AcDbSpline
 70
     0
 71
     3
 72
    12
 73
     8
 74
     0
 42
0.000000001
 43
0.0000000001
 40
0.5689400674518433
 40
0.5689400674518433
 40
0.5689400674518433
 40
0.5689400674518433
 40
0.5873340896482748
 40
0.5873340896482748
 40
0.7131643571701776
 40
0.7131643571701776
 40
0.833066900515946
 40
0.833066900515946
 40
0.833066900515946
 40
0.833066900515946
 10
112.3396120909274
 20
235.8790758556152
 30
25.47866109943934
 10
112.3314520747171
 20
235.9026620304649
 30
25.42251923718936
 10
112.3222502342978
 20
235.9280729703223
 30
25.36696330425356
 10
112.2451790915274
 20
236.1415717531035
 30
24.93710238473235
 10
112.1563264696997
 20
236.4160886978043
 30
24.59728288131271
 10
112.1109064506708
 20
237.0480358026016
 30
24.07812968820926
 10
112.1470293646689
 20
237.4186912835376
 30
23.87741577722128
 10
112.1717057142905
 20
237.8059411572867
 30
23.7611558230795
1001
ACAD_VIEW_EDGE_ID
1071
       33
1071
       -1
1071
        2
1071
        0
  0
SPLINE
  5
55B
330
70
100
AcDbEntity
  8
表示
100
AcDbSpline
 70
     0
 71
     3
 72
    31
 73
    27
 74
     0
 42
0.000000001
 43
0.0000000001
 40
1.851365918094904
 40
1.851365918094904
 40
1.851365918094904
 40
1.851365918094904
 40
2.078042687120644
 40
2.078042687120644
 40
2.25111382577614
 40
2.25111382577614
 40
2.424184964431635
 40
2.424184964431635
 40
2.470316240520732
 40
2.470316240520732
 40
2.516447516609829
 40
2.516447516609829
 40
2.556903281741658
 40
2.556903281741658
 40
2.597359046873487
 40
2.597359046873487
 40
2.597359046873487
 40
2.69545834745735
 40
2.69545834745735
 40
2.793557648041212
 40
2.793557648041212
 40
2.989756249208937
 40
2.989756249208937
 40
3.445499961562914
 40
3.445499961562914
 40
3.529358983907065
 40
3.529358983907065
 40
3.529358983907065
 40
3.529358983907065
 10
131.8461885469223
 20
225.6867858321457
 30
45.43178931189172
 10
131.2162431634406
 20
225.9089219262059
 30
45.86061745195729
 10
130.5803397320287
 20
226.2159539498352
 30
46.22931695698603
 10
129.5122572936307
 20
226.841417132493
 30
46.72280796521867
 10
129.0093236053108
 20
227.1746556383478
 30
46.91048395121973
 10
128.0507952075477
 20
227.9196692095338
 30
47.13296642600877
 10
127.5911725653932
 20
228.3239477020197
 30
47.17537622081838
 10
127.1447691440426
 20
228.8906579870927
 30
47.05940648972268
 10
127.0503821098154
 20
229.0254761923606
 30
47.02167058413036
 10
126.9009877117587
 20
229.2998269427553
 30
46.91268021777962
 10
126.8467947588215
 20
229.4395740051732
 30
46.84085180016779
 10
126.8018858589403
 20
229.6787831908114
 30
46.68572068118199
 10
126.80226811996
 20
229.7944296702262
 30
46.5959129845226
 10
126.8543403341173
 20
230.001739194342
 30
46.40219646587167
 10
126.9053944028455
 20
230.0937461238518
 30
46.29848545417016
 10
126.9652764094535
 20
230.1679536063875
 30
46.20313030129414
 10
127.1104814981918
 20
230.3478958744727
 30
45.97190803238578
 10
127.3150493119883
 20
230.4608993841466
 30
45.75567840023589
 10
127.7722226046225
 20
230.6373129119456
 30
45.32857081497566
 10
128.0277402863175
 20
230.6964654347084
 30
45.11906822093943
 10
128.8376484205564
 20
230.8149828212517
 30
44.49913798315684
 10
129.4303689819098
 20
230.812334601791
 30
44.1014355341468
 10
131.257693301075
 20
230.6543876256565
 30
42.93589678013823
 10
132.8025337928175
 20
230.2391614037715
 30
42.06165863104221
 10
134.2442929454446
 20
229.3948751990629
 30
41.39551606350285
 10
134.4745362456924
 20
229.24408848247
 30
41.29473941056583
 10
134.6961400333675
 20
229.0746919548237
 30
41.206946347333
1001
ACAD_VIEW_EDGE_ID
1071
       34
1071
       -1
1071
        2
1071
        0
  0
ELLIPSE
  5
55C
330
70
100
AcDbEntity
  8
表示
100
AcDbEllipse
 10
133.322731
 20
228.048354
 30
43.888149
 11
-1.504312225271861
 21
-1.794577214651063
 31
2.223314687922514
210
-0.8830222215595908
220
0.3420201433254073
230
-0.3213938048432697
 40
0.8516507396389108
 41
3.470097648389096
 42
5.96133234034159
1001
ACAD_VIEW_EDGE_ID
1071
       35
1071
       -1
1071
        2
1071
        0
  0
SPLINE
  5
55D
330
70
100
AcDbEntity
  8
表示
100
AcDbSpline
210
-0.8830222215662789
220
0.3420201432448785
230
-0.3213938049105895
 70
    12
 71
     2
 72
     6
 73
     3
 74
     0
 42
0.000000001
 43
0.0000000001
 40
6.188462158471123
 40
6.188462158471123
 40
6.188462158471123
 40
6.363394165315646
 40
6.363394165315646
 40
6.363394165315646
 10
134.6961400333675
 20
229.0746919548237
 30
41.206946347333
 41
1.179495895060654
 10
136.1460613062972
 20
230.7864703137529
 30
39.04495687094142
 41
1.092284892601594
 10
137.9419964235185
 20
232.8875031612624
 30
36.34653814513099
 41
1.0
1001
ACAD_VIEW_EDGE_ID
1071
       38
1071
       -1
1071
        2
1071
        0
  0
SPLINE
  5
55E
330
70
100
AcDbEntity
  8
表示
100
AcDbSpline
210
-0.8830222215596041
220
0.3420201433254629
230
-0.3213938048431721
 70
    12
 71
     2
 72
     6
 73
     3
 74
     0
 42
0.000000001
 43
0.0000000001
 40
4.251339282472958
 40
4.251339282472958
 40
4.251339282472958
 40
5.961183286737242
 40
5.961183286737242
 40
5.961183286737242
 10
124.465848363814
 20
216.048353562579
 30
55.45210193009973
 41
2.488790085500896
 10
126.2464414322603
 20
218.9722505474874
 30
53.67150886165211
 41
2.185542381567282
 10
131.8461885469223
 20
225.6867858321457
 30
45.43178931189173
 41
1.397547284096452
1001
ACAD_VIEW_EDGE_ID
1071
       39
1071
       -1
1071
        2
1071
        0
  0
LINE
  5
55F
330
70
100
AcDbEntity
  8
表示
100
AcDbLine
 10
128.646198
 20
216.048354
 30
43.966686
 11
124.465848
 21
216.048354
 31
55.452102
  0
ELLIPSE
  5
560
330
70
100
AcDbEntity
  8
表示
100
AcDbEllipse
 10
126.769319
 20
211.048354
 30
43.802481
 11
-2.555574242256777
 21
-4.074799002327264
 31
2.685071998760774
210
0.8830222215595904
220
-0.3420201433254075
230
0.3213938048432694
 40
0.9076733711901583
 41
2.878525612788303
 42
3.759729156078337
1001
ACAD_VIEW_EDGE_ID
1071
       41
1071
       -1
1071
        2
1071
        0
  0
LINE
  5
561
330
70
100
AcDbEntity
  8
表示
100
AcDbLine
 10
127.363512
 20
190.652559
 30
20.465197
 11
129.329326
 21
214.229469
 31
40.154191
  0
ELLIPSE
  5
562
330
70
100
AcDbEntity
  8
表示
100
AcDbEllipse
 10
115.571412
 20
216.048354
 30
79.889365
 11
-26.10986469328439
 21
10.11310862816129
 31
82.49840908253794
210
-0.8830222215595902
220
0.342020143325407
230
-0.3213938048432698
 40
0.3213938048521857
 41
3.896737313646992
 42
3.908144427649234
1001
ACAD_VIEW_EDGE_ID
1071
       43
1071
       -1
1071
        2
1071
        0
  0
SPLINE
  5
563
330
70
100
AcDbEntity
  8
表示
100
AcDbSpline
210
-0.8830222215595213
220
0.3420201433253884
230
-0.3213938048434795
 70
    12
 71
     2
 72
     6
 73
     3
 74
     0
 42
0.000000001
 43
0.0000000001
 40
0.1771582400161813
 40
0.1771582400161813
 40
0.1771582400161813
 40
3.873373107990881
 40
3.873373107990881
 40
3.873373107990881
 10
140.8827878206848
 20
224.4965644746862
 30
19.33732974563663
 41
1.024418048089239
 10
135.673610663176
 20
207.5192228218293
 30
15.58251673714874
 41
1.266937091974521
 10
127.6524309097312
 20
190.7887220193879
 30
19.81629991078903
 41
1.0
1001
ACAD_VIEW_EDGE_ID
1071
       44
1071
       -1
1071
        2
1071
        0
  0
SPLINE
  5
564
330
70
100
AcDbEntity
  8
表示
100
AcDbSpline
 70
     0
 71
     3
 72
    31
 73
    27
 74
     0
 42
0.000000001
 43
0.0000000001
 40
1.851365918094902
 40
1.851365918094902
 40
1.851365918094902
 40
1.851365918094902
 40
2.078042687120643
 40
2.078042687120643
 40
2.251113825776139
 40
2.251113825776139
 40
2.424184964431635
 40
2.424184964431635
 40
2.470316240520732
 40
2.470316240520732
 40
2.516447516609829
 40
2.516447516609829
 40
2.556903281741658
 40
2.556903281741658
 40
2.597359046873487
 40
2.597359046873487
 40
2.597359046873487
 40
2.69545834745735
 40
2.69545834745735
 40
2.793557648041213
 40
2.793557648041213
 40
2.989756249208938
 40
2.989756249208938
 40
3.445499961562914
 40
3.445499961562914
 40
3.529358983907067
 40
3.529358983907067
 40
3.529358983907067
 40
3.529358983907067
 10
99.29663575064296
 20
206.4099212930068
 30
45.43178931189172
 10
99.92658113412472
 20
206.1877851989466
 30
45.86061745195729
 10
100.5624845655366
 20
205.8807531753173
 30
46.22931695698603
 10
101.6305670039364
 20
205.2552899926577
 30
46.72280796521867
 10
102.1335006922563
 20
204.922051486803
 30
46.91048395121973
 10
103.0920290900194
 20
204.1770379156169
 30
47.13296642600877
 10
103.5516517321739
 20
203.772759423131
 30
47.17537622081838
 10
103.9980551535245
 20
203.206049138058
 30
47.05940648972268
 10
104.0924421877516
 20
203.07123093279
 30
47.02167058413037
 10
104.2418365858084
 20
202.7968801823954
 30
46.91268021777964
 10
104.2960295387456
 20
202.6571331199775
 30
46.84085180016779
 10
104.3409384386268
 20
202.4179239343393
 30
46.68572068118199
 10
104.3405561776071
 20
202.3022774549245
 30
46.5959129845226
 10
104.2884839634498
 20
202.0949679308087
 30
46.40219646587167
 10
104.2374298947216
 20
202.0029610012989
 30
46.29848545417017
 10
104.1775478881118
 20
201.9287535187632
 30
46.20313030129414
 10
104.0323427993735
 20
201.748811250678
 30
45.97190803238579
 10
103.827774985577
 20
201.6358077410041
 30
45.7556784002359
 10
103.3706016929427
 20
201.4593942132051
 30
45.32857081497566
 10
103.1150840112477
 20
201.4002416904423
 30
45.11906822093943
 10
102.3051758770088
 20
201.2817243038989
 30
44.49913798315684
 10
101.7124553156554
 20
201.2843725233597
 30
44.1014355341468
 10
99.88513099649026
 20
201.4423194994961
 30
42.93589678013823
 10
98.34029050474782
 20
201.8575457213792
 30
42.06165863104221
 10
96.89853135212253
 20
202.7018319260878
 30
41.39551606350284
 10
96.66828805187471
 20
202.8526186426807
 30
41.29473941056583
 10
96.44668426419958
 20
203.022015170327
 30
41.206946347333
1001
ACAD_VIEW_EDGE_ID
1071
       45
1071
       -1
1071
        2
1071
        0
  0
ELLIPSE
  5
565
330
70
100
AcDbEntity
  8
表示
100
AcDbEllipse
 10
97.820093
 20
204.048354
 30
43.888149
 11
1.504312225272216
 21
1.794577214653747
 31
2.22331468792063
210
0.8830222215595901
220
-0.3420201433254073
230
-0.3213938048432697
 40
0.8516507396387835
 41
3.470097648390298
 42
5.961332340342281
1001
ACAD_VIEW_EDGE_ID
1071
       46
1071
       -1
1071
        2
1071
        0
  0
SPLINE
  5
566
330
70
100
AcDbEntity
  8
表示
100
AcDbSpline
210
0.8830222215564321
220
-0.3420201433646741
230
-0.3213938048101595
 70
    12
 71
     2
 72
     6
 73
     3
 74
     0
 42
0.000000001
 43
0.0000000001
 40
6.188462158471121
 40
6.188462158471121
 40
6.188462158471121
 40
6.363394165315645
 40
6.363394165315645
 40
6.363394165315645
 10
96.44668426419958
 20
203.022015170327
 30
41.20694634733301
 41
1.179495895060654
 10
94.99676299126804
 20
201.3102368113996
 30
39.04495687094142
 41
1.092284892601594
 10
93.20082787404862
 20
199.2092039638901
 30
36.34653814513099
 41
1.0
1001
ACAD_VIEW_EDGE_ID
1071
       49
1071
       -1
1071
        2
1071
        0
  0
SPLINE
  5
567
330
70
100
AcDbEntity
  8
表示
100
AcDbSpline
210
0.8830222215595416
220
-0.3420201433260322
230
-0.321393804842738
 70
    12
 71
     2
 72
     6
 73
     3
 74
     0
 42
0.000000001
 43
0.0000000001
 40
4.251339282472943
 40
4.251339282472943
 40
4.251339282472943
 40
5.96118328673724
 40
5.96118328673724
 40
5.96118328673724
 10
106.676975933753
 20
216.0483535625735
 30
55.45210193009974
 41
2.488790085500901
 10
104.896382865305
 20
213.1244565776633
 30
53.67150886165213
 41
2.185542381567288
 10
99.29663575064296
 20
206.4099212930068
 30
45.43178931189172
 41
1.397547284096451
1001
ACAD_VIEW_EDGE_ID
1071
       50
1071
       -1
1071
        2
1071
        0
  0
LINE
  5
568
330
70
100
AcDbEntity
  8
表示
100
AcDbLine
 10
102.496627
 20
216.048354
 30
43.966686
 11
106.676976
 21
216.048354
 31
55.452102
  0
ELLIPSE
  5
569
330
70
100
AcDbEntity
  8
表示
100
AcDbEllipse
 10
104.373506
 20
221.048354
 30
43.802481
 11
2.555574242256775
 21
4.074799002327269
 31
2.685071998760762
210
-0.8830222215595902
220
0.3420201433254074
230
0.3213938048432696
 40
0.9076733711901589
 41
2.878525612788301
 42
3.759729156078336
1001
ACAD_VIEW_EDGE_ID
1071
       52
1071
       -1
1071
        2
1071
        0
  0
LINE
  5
56A
330
70
100
AcDbEntity
  8
表示
100
AcDbLine
 10
103.779313
 20
241.444148
 30
20.465197
 11
101.813499
 21
217.867238
 31
40.154191
  0
ELLIPSE
  5
56B
330
70
100
AcDbEntity
  8
表示
100
AcDbEllipse
 10
115.571412
 20
216.048354
 30
79.889365
 11
26.1098646931767
 21
-10.1131086282715
 31
82.49840908235936
210
0.8830222215595904
220
-0.3420201433254072
230
-0.3213938048432697
 40
0.3213938048521173
 41
3.89673731364417
 42
3.908144427646464
1001
ACAD_VIEW_EDGE_ID
1071
       54
1071
       -1
1071
        2
1071
        0
  0
SPLINE
  5
56C
330
70
100
AcDbEntity
  8
表示
100
AcDbSpline
210
-0.8830222215594499
220
0.3420201433254054
230
0.3213938048436579
 70
    12
 71
     2
 72
     6
 73
     3
 74
     0
 42
0.000000001
 43
0.0000000001
 40
0.177158240016184
 40
0.177158240016184
 40
0.177158240016184
 40
3.873373107990881
 40
3.873373107990881
 40
3.873373107990881
 10
90.26003647688048
 20
207.6001426504645
 30
19.33732974563663
 41
1.024418048089239
 10
95.46921363438924
 20
224.5774843033214
 30
15.58251673714874
 41
1.266937091974519
 10
103.4903933878358
 20
241.3079851057628
 30
19.81629991078903
 41
1.0
1001
ACAD_VIEW_EDGE_ID
1071
       55
1071
       -1
1071
        2
1071
        0
  0
LINE
  5
56D
330
70
100
AcDbEntity
  8
表示
100
AcDbLine
 10
119.216724
 20
217.564049
 30
55.823053
 11
119.586927
 21
217.564049
 31
60.054488
  0
SPLINE
  5
56E
330
70
100
AcDbEntity
  8
表示
100
AcDbSpline
210
0.996194343618643
220
-0.0000040216215892
230
-0.0871597942060894
 70
    12
 71
     2
 72
     6
 73
     3
 74
     0
 42
0.000000001
 43
0.0000000001
 40
0.1362129633903117
 40
0.1362129633903117
 40
0.1362129633903117
 40
0.1369354240596851
 40
0.1369354240596851
 40
0.1369354240596851
 10
117.9840190314353
 20
238.5326584067843
 30
41.73316519243956
 41
1.196410221632318
 10
117.9850435406642
 20
238.5207710602226
 30
41.74487538650988
 41
1.196921287482376
 10
117.9860669671361
 20
238.508895811623
 30
41.75657320463161
 41
1.197432249325337
1001
ACAD_VIEW_EDGE_ID
1071
       60
1071
       -1
1071
        2
1071
        0
  0
SPLINE
  5
56F
330
70
100
AcDbEntity
  8
表示
100
AcDbSpline
210
0.9961946980899835
220
-0.0000000000091789
230
-0.0871557427677965
 70
    12
 71
     2
 72
     6
 73
     3
 74
     0
 42
0.000000001
 43
0.0000000001
 40
2.826146533888656
 40
2.826146533888656
 40
2.826146533888656
 40
2.965306168180294
 40
2.965306168180294
 40
2.965306168180294
 10
119.5771191999883
 20
217.8788971061385
 30
59.9423834424722
 41
3.560265193136957
 10
119.5824845645857
 20
217.7196094323444
 30
60.0037098404455
 41
3.584114664894627
 10
119.5869271014253
 20
217.56404871837
 30
60.054488268884
 41
3.604105258047936
1001
ACAD_VIEW_EDGE_ID
1071
       60
1071
       -1
1071
        2
1071
        0
  0
LINE
  5
570
330
70
100
AcDbEntity
  8
表示
100
AcDbLine
 10
117.984019
 20
238.532658
 30
41.733165
 11
117.79413
 21
238.532658
 31
39.562729
  0
LINE
  5
571
330
70
100
AcDbEntity
  8
表示
100
AcDbLine
 10
111.9261
 20
214.532658
 30
55.823053
 11
111.555897
 21
214.532658
 31
60.054488
  0
SPLINE
  5
572
330
70
100
AcDbEntity
  8
表示
100
AcDbSpline
210
0.9961943433840879
220
-0.0000040242826208
230
0.0871597968868156
 70
    12
 71
     2
 72
     6
 73
     3
 74
     0
 42
0.000000001
 43
0.0000000001
 40
0.1362129633903117
 40
0.1362129633903117
 40
0.1362129633903117
 40
0.136935424059685
 40
0.136935424059685
 40
0.136935424059685
 10
113.15880526613
 20
193.5640487183682
 30
41.73316519243956
 41
1.196410221632318
 10
113.157780756901
 20
193.5759360649299
 30
41.74487538650987
 41
1.196921287482376
 10
113.1567573304292
 20
193.5878113135295
 30
41.75657320463161
 41
1.197432249325336
1001
ACAD_VIEW_EDGE_ID
1071
       68
1071
       -1
1071
        2
1071
        0
  0
SPLINE
  5
573
330
70
100
AcDbEntity
  8
表示
100
AcDbSpline
210
0.9961946981073914
220
0.0000000000679194
230
0.0871557425688254
 70
    12
 71
     2
 72
     6
 73
     3
 74
     0
 42
0.000000001
 43
0.0000000001
 40
2.826146533888669
 40
2.826146533888669
 40
2.826146533888669
 40
2.965306168180307
 40
2.965306168180307
 40
2.965306168180307
 10
111.5657050975787
 20
214.217810019014
 30
59.9423834424722
 41
3.560265193136962
 10
111.5603397329814
 20
214.3770976928081
 30
60.0037098404455
 41
3.584114664894632
 10
111.55589719614
 20
214.5326584067825
 30
60.054488268884
 41
3.60410525804794
1001
ACAD_VIEW_EDGE_ID
1071
       68
1071
       -1
1071
        2
1071
        0
  0
LINE
  5
574
330
70
100
AcDbEntity
  8
表示
100
AcDbLine
 10
113.158805
 20
193.564049
 30
41.733165
 11
113.348694
 21
193.564049
 31
39.562729
  0
SPLINE
  5
575
330
70
100
AcDbEntity
  8
表示
100
AcDbSpline
 70
     0
 71
     3
 72
    18
 73
    14
 74
     0
 42
0.000000001
 43
0.0000000001
 40
0.5603599711808787
 40
0.5603599711808787
 40
0.5603599711808787
 40
0.5603599711808787
 40
0.5615371214133336
 40
0.5615371214133336
 40
0.6277530892843522
 40
0.6277530892843522
 40
0.7601850250263891
 40
0.7601850250263891
 40
0.8926169607684258
 40
0.8926169607684258
 40
0.9588329286394444
 40
0.9588329286394444
 40
0.9600100791880274
 40
0.9600100791880274
 40
0.9600100791880274
 40
0.9600100791880274
 10
116.6167508718281
 20
215.0483535644544
 30
50.39826186663821
 10
116.6170118659975
 20
215.0506868971843
 30
50.39527108610281
 10
116.6172827538939
 20
215.053015116333
 30
50.39227613149044
 10
116.6332386210833
 20
215.1860063724289
 30
50.22055766991781
 10
116.6754902570501
 20
215.3000109494806
 30
50.03798318036122
 10
116.8293147829208
 20
215.579339051601
 30
49.45682977163192
 10
116.962366299047
 20
215.6796850574974
 30
49.02355795799624
 10
117.039314323867
 20
215.6796850574974
 30
48.14403800970128
 10
116.983521020109
 20
215.579339051601
 30
47.69424441516028
 10
116.9329496647988
 20
215.3000109494806
 30
47.09520868395599
 10
116.9230436535217
 20
215.1860063724289
 30
46.90807099154946
 10
116.937148789797
 20
215.0530151157091
 30
46.7361906111905
 10
116.9374020857776
 20
215.0506868959328
 30
46.73319411667575
 10
116.9376644003587
 20
215.0483535625753
 30
46.73020345085483
1001
ACAD_VIEW_EDGE_ID
1071
       72
1071
       -1
1071
        2
1071
        0
  0
ELLIPSE
  5
576
330
70
100
AcDbEntity
  8
表示
100
AcDbEllipse
 10
116.575232
 20
215.048354
 30
62.346538
 11
1.003819837544142
 21
0.0000000001659542
 31
0.0
210
0.0
220
0.0
230
1.0
 40
0.9961946980909564
 41
1.570796326630202
 42
3.141592651544822
1001
ACAD_VIEW_EDGE_ID
1071
       76
1071
       -1
1071
        2
1071
        0
  0
LINE
  5
577
330
70
100
AcDbEntity
  8
表示
100
AcDbLine
 10
115.571412
 20
215.048354
 30
62.346538
 11
115.781553
 21
215.048354
 31
59.944614
  0
SPLINE
  5
578
330
70
100
AcDbEntity
  8
表示
100
AcDbSpline
 70
     0
 71
     3
 72
    18
 73
    14
 74
     0
 42
0.000000001
 43
0.0000000001
 40
0.560359971180879
 40
0.560359971180879
 40
0.560359971180879
 40
0.560359971180879
 40
0.5615371214133335
 40
0.5615371214133335
 40
0.6277530892843519
 40
0.6277530892843519
 40
0.760185025026389
 40
0.760185025026389
 40
0.8926169607684258
 40
0.8926169607684258
 40
0.958832928639444
 40
0.958832928639444
 40
0.9600100791880272
 40
0.9600100791880272
 40
0.9600100791880272
 40
0.9600100791880272
 10
114.526073425739
 20
217.0483535606964
 30
50.39826186663821
 10
114.5258124315696
 20
217.0460202279664
 30
50.39527108610281
 10
114.5255415436732
 20
217.0436920088178
 30
50.39227613149044
 10
114.5095856764837
 20
216.9107007527218
 30
50.22055766991782
 10
114.467334040517
 20
216.7966961756702
 30
50.03798318036123
 10
114.3135095146463
 20
216.5173680735497
 30
49.45682977163193
 10
114.1804579985201
 20
216.4170220676533
 30
49.02355795799624
 10
114.1035099737
 20
216.4170220676533
 30
48.14403800970128
 10
114.1593032774581
 20
216.5173680735497
 30
47.69424441516028
 10
114.2098746327683
 20
216.7966961756702
 30
47.09520868395599
 10
114.2197806440454
 20
216.9107007527218
 30
46.90807099154946
 10
114.2056755077701
 20
217.0436920094417
 30
46.7361906111905
 10
114.2054222117895
 20
217.0460202292179
 30
46.73319411667575
 10
114.2051598972084
 20
217.0483535625753
 30
46.73020345085483
1001
ACAD_VIEW_EDGE_ID
1071
       83
1071
       -1
1071
        2
1071
        0
  0
ELLIPSE
  5
579
330
70
100
AcDbEntity
  8
表示
100
AcDbEllipse
 10
114.567592
 20
217.048354
 30
62.346538
 11
1.003819837544142
 21
0.0000000001659542
 31
0.0
210
0.0
220
0.0
230
1.0
 40
0.9961946980909564
 41
4.712388980219995
 42
6.283185305134614
1001
ACAD_VIEW_EDGE_ID
1071
       87
1071
       -1
1071
        2
1071
        0
  0
LINE
  5
57A
330
70
100
AcDbEntity
  8
表示
100
AcDbLine
 10
115.571412
 20
217.048354
 30
62.346538
 11
115.361271
 21
217.048354
 31
59.944614
  0
SPLINE
  5
57B
330
70
100
AcDbEntity
  8
表示
100
AcDbSpline
210
-0.1214055937592982
220
-0.9925461516414772
230
0.0106216131376404
 70
    12
 71
     2
 72
     6
 73
     3
 74
     0
 42
0.000000001
 43
0.0000000001
 40
1.206756365986709
 40
1.206756365986709
 40
1.206756365986709
 40
1.705254407381734
 40
1.705254407381734
 40
1.705254407381734
 10
113.7276953770852
 20
239.0483535625753
 30
41.27275883756602
 41
1.106696956314845
 10
115.8773317574541
 20
238.7900097255733
 30
41.70204390467747
 41
1.117083464590807
 10
117.9840190314353
 20
238.5326584067843
 30
41.73316519243956
 41
1.117844025225863
1001
ACAD_VIEW_EDGE_ID
1071
      100
1071
       -1
1071
        2
1071
        0
  0
SPLINE
  5
57C
330
70
100
AcDbEntity
  8
表示
100
AcDbSpline
210
-0.1214055937600942
220
-0.9925461516413363
230
-0.0106216131417193
 70
    12
 71
     2
 72
     6
 73
     3
 74
     0
 42
0.000000001
 43
0.0000000001
 40
1.20675636598671
 40
1.20675636598671
 40
1.20675636598671
 40
1.705254407381734
 40
1.705254407381734
 40
1.705254407381734
 10
117.4151289204819
 20
193.0483535625753
 30
41.27275883756602
 41
1.106696956314843
 10
115.265492540113
 20
193.3066973995774
 30
41.70204390467747
 41
1.117083464590805
 10
113.15880526613
 20
193.5640487183682
 30
41.73316519243956
 41
1.117844025225861
1001
ACAD_VIEW_EDGE_ID
1071
      107
1071
       -1
1071
        2
1071
        0
  0
SPLINE
  5
57D
330
70
100
AcDbEntity
  8
表示
100
AcDbSpline
210
0.1214055937931955
220
-0.9925461516376426
230
-0.0106216131085365
 70
    12
 71
     2
 72
     6
 73
     3
 74
     0
 42
0.000000001
 43
0.0000000001
 40
1.361241173432324
 40
1.361241173432324
 40
1.361241173432324
 40
2.12581577542543
 40
2.12581577542543
 40
2.12581577542543
 10
119.5869271014271
 20
217.56404871837
 30
60.054488268884
 41
1.309386832811212
 10
117.939840649482
 20
217.3452642425891
 30
61.67271523419033
 41
1.241580780369953
 10
117.1743539444942
 20
217.2444211190141
 30
62.34653814513098
 41
1.0
1001
ACAD_VIEW_EDGE_ID
1071
      115
1071
       -1
1071
        2
1071
        0
  0
ARC
  5
57E
330
70
100
AcDbEntity
  8
表示
100
AcDbCircle
 10
-115.571412
 20
216.048354
 30
-62.346538
 40
2.0
210
0.0
220
0.0
230
-1.0
100
AcDbArc
 50
143.270793
 51
180.0
  0
LINE
  5
57F
330
70
100
AcDbEntity
  8
表示
100
AcDbLine
 10
117.571412
 20
216.048354
 30
62.346538
 11
124.465848
 21
216.048354
 31
55.452102
  0
SPLINE
  5
580
330
70
100
AcDbEntity
  8
表示
100
AcDbSpline
210
0.1214055937706588
220
-0.9925461516401499
230
0.0106216131318325
 70
    12
 71
     2
 72
     6
 73
     3
 74
     0
 42
0.000000001
 43
0.0000000001
 40
1.361241173432407
 40
1.361241173432407
 40
1.361241173432407
 40
2.12581577542543
 40
2.12581577542543
 40
2.12581577542543
 10
111.55589719614
 20
214.5326584067825
 30
60.054488268884
 41
1.309386832810958
 10
113.2029836480851
 20
214.7514428825634
 30
61.67271523419035
 41
1.241580780369741
 10
113.9684703530729
 20
214.8522860061366
 30
62.34653814513098
 41
1.0
1001
ACAD_VIEW_EDGE_ID
1071
      118
1071
       -1
1071
        2
1071
        0
  0
ARC
  5
581
330
70
100
AcDbEntity
  8
表示
100
AcDbCircle
 10
-115.571412
 20
216.048354
 30
-62.346538
 40
2.0
210
0.0
220
0.0
230
-1.0
100
AcDbArc
 50
323.270793
 51
0.0
  0
LINE
  5
582
330
70
100
AcDbEntity
  8
表示
100
AcDbLine
 10
113.571412
 20
216.048354
 30
62.346538
 11
106.676976
 21
216.048354
 31
55.452102
  0
LINE
  5
583
330
70
100
AcDbEntity
  8
表示
100
AcDbLine
 10
117.174354
 20
217.244421
 30
62.346538
 11
115.571412
 21
217.048354
 31
62.346538
  0
LINE
  5
584
330
70
100
AcDbEntity
  8
表示
100
AcDbLine
 10
113.96847
 20
214.852286
 30
62.346538
 11
115.571412
 21
215.048354
 31
62.346538
  0
LINE
  5
585
330
70
100
AcDbEntity
  8
表示
100
AcDbLine
 10
114.567592
 20
216.048354
 30
62.346538
 11
113.571412
 21
216.048354
 31
62.346538
  0
LINE
  5
586
330
70
100
AcDbEntity
  8
表示
100
AcDbLine
 10
116.575232
 20
216.048354
 30
62.346538
 11
117.571412
 21
216.048354
 31
62.346538
  0
SPLINE
  5
587
330
70
100
AcDbEntity
  8
表示
100
AcDbSpline
210
0.0672411052088273
220
0.6362230653488555
230
0.7685693494333492
 70
    12
 71
     2
 72
     6
 73
     3
 74
     0
 42
0.000000001
 43
0.0000000001
 40
0.0
 40
0.0
 40
0.0
 40
0.5425789032718527
 40
0.5425789032718527
 40
0.5425789032718527
 10
105.2420716436063
 20
242.0734323276447
 30
19.81629991078903
 41
1.0
 10
108.0729101165689
 20
242.1870003364547
 30
19.47462183779019
 41
1.01010743439062
 10
110.7995786944448
 20
242.136413129012
 30
19.27794542773123
 41
1.016018663333183
1001
ACAD_VIEW_EDGE_ID
1071
      127
1071
       -1
1071
        2
1071
        0
  0
ELLIPSE
  5
588
330
70
100
AcDbEntity
  8
表示
100
AcDbEllipse
 10
115.571412
 20
216.048354
 30
40.456206
 11
-2.942872110857571
 21
-27.84491881362595
 31
23.30754093782233
210
-0.067241105208331
220
-0.6362230653543354
230
-0.7685693494288563
 40
0.7685693494276885
 41
2.601586686951563
 42
2.658464936564886
1001
ACAD_VIEW_EDGE_ID
1071
      128
1071
       -1
1071
        2
1071
        0
  0
SPLINE
  5
589
330
70
100
AcDbEntity
  8
表示
100
AcDbSpline
210
0.0672411052088196
220
0.6362230653488968
230
-0.7685693494333155
 70
    12
 71
     2
 72
     6
 73
     3
 74
     0
 42
0.000000001
 43
0.0000000001
 40
0.0
 40
0.0
 40
0.0
 40
0.5425789032718459
 40
0.5425789032718459
 40
0.5425789032718459
 10
125.9007526539608
 20
190.023274797506
 30
19.81629991078903
 41
1.0
 10
123.0699141809982
 20
189.909706788696
 30
19.47462183779019
 41
1.01010743439062
 10
120.3432456031223
 20
189.9602939961387
 30
19.27794542773125
 41
1.016018663333182
1001
ACAD_VIEW_EDGE_ID
1071
      132
1071
       -1
1071
        2
1071
        0
  0
ELLIPSE
  5
58A
330
70
100
AcDbEntity
  8
表示
100
AcDbEllipse
 10
115.571412
 20
216.048354
 30
40.456206
 11
2.942872110840427
 21
27.84491881362579
 31
23.3075409378207
210
0.0672411052083309
220
0.6362230653543353
230
-0.7685693494288563
 40
0.7685693494275739
 41
2.601586686952041
 42
2.65846493656538
1001
ACAD_VIEW_EDGE_ID
1071
      134
1071
       -1
1071
        2
1071
        0
  0
LINE
  5
58B
330
70
100
AcDbEntity
  8
表示
100
AcDbLine
 10
111.917823
 20
206.604531
 30
55.917661
 11
111.387424
 21
213.857124
 31
61.980151
  0
LINE
  5
58C
330
70
100
AcDbEntity
  8
表示
100
AcDbLine
 10
113.183916
 20
214.582627
 30
64.385491
 11
111.917823
 21
206.604531
 31
55.917661
  0
ELLIPSE
  5
58D
330
70
100
AcDbEntity
  8
表示
100
AcDbEllipse
 10
113.065359
 20
214.638532
 30
64.32089
 11
0.1187755879519803
 21
-0.0499826486999715
 31
0.0701860548672048
210
0.5845228388040605
220
0.5451148086277838
230
-0.6009849385227028
 40
0.5195882505403266
 41
-1.227523120492162
 42
0.1064570551009474
1001
ACAD_VIEW_EDGE_ID
1071
        9
1071
       -1
1071
        3
1071
        0
  0
LINE
  5
58E
330
70
100
AcDbEntity
  8
表示
100
AcDbLine
 10
113.101313
 20
214.676708
 30
64.390486
 11
111.387424
 21
213.857124
 31
61.980151
  0
LINE
  5
58F
330
70
100
AcDbEntity
  8
表示
100
AcDbLine
 10
111.387424
 20
213.857124
 30
61.980151
 11
111.703123
 21
214.495823
 31
58.371693
  0
ELLIPSE
  5
590
330
70
100
AcDbEntity
  8
表示
100
AcDbEllipse
 10
113.066148
 20
214.663401
 30
64.311873
 11
0.1227903525889593
 21
0.0765778605732954
 31
0.0242970850719557
210
0.5407374909985771
220
-0.8351643400219302
230
-0.1005161230066967
 40
0.5195882505363402
 41
-0.2127167161017025
 42
1.227523120482923
1001
ACAD_VIEW_EDGE_ID
1071
       12
1071
       -1
1071
        3
1071
        0
  0
LINE
  5
591
330
70
100
AcDbEntity
  8
表示
100
AcDbLine
 10
111.703123
 20
214.495823
 30
58.371693
 11
113.187552
 21
214.741048
 31
64.319831
  0
LINE
  5
592
330
70
100
AcDbEntity
  8
表示
100
AcDbLine
 10
119.019943
 20
193.731196
 30
26.371769
 11
117.172241
 21
214.931196
 31
47.491097
  0
LINE
  5
593
330
70
100
AcDbEntity
  8
表示
100
AcDbLine
 10
117.69898
 20
193.048354
 30
41.470444
 11
118.894571
 21
193.048354
 31
27.804773
  0
LINE
  5
594
330
70
100
AcDbEntity
  8
表示
100
AcDbLine
 10
117.69898
 20
193.048354
 30
41.470444
 11
117.688371
 21
193.04962
 31
41.473369
  0
ELLIPSE
  5
595
330
70
100
AcDbEntity
  8
表示
100
AcDbEllipse
 10
117.701737
 20
193.04429
 30
41.818699
 11
-0.073425722239227
 21
0.0052516025910919
 31
0.3485191386887909
210
0.1214055937598367
220
0.9925461516413578
230
0.0106216131426448
 40
0.7018361144642519
 41
3.488054839720845
 42
4.292755423947925
1001
ACAD_VIEW_EDGE_ID
1071
       25
1071
       -1
1071
        3
1071
        0
  0
LINE
  5
596
330
70
100
AcDbEntity
  8
表示
100
AcDbLine
 10
114.283193
 20
193.448354
 30
43.134706
 11
113.051165
 21
193.600884
 31
42.963496
  0
LINE
  5
597
330
70
100
AcDbEntity
  8
表示
100
AcDbLine
 10
111.917823
 20
206.604531
 30
55.917661
 11
113.051165
 21
193.600884
 31
42.963496
  0
LINE
  5
598
330
70
100
AcDbEntity
  8
表示
100
AcDbLine
 10
115.656182
 20
214.365511
 30
64.819731
 11
117.503883
 21
193.165511
 31
43.700404
  0
ELLIPSE
  5
599
330
70
100
AcDbEntity
  8
表示
100
AcDbEllipse
 10
115.783602
 20
215.052418
 30
63.74308
 11
0.0117905072245017
 21
0.0052516025921264
 31
0.3559745927157065
210
0.1214055937604336
220
-0.9925461516412848
230
0.0106216131426458
 40
0.7018361144673452
 41
2.132015229570705
 42
3.138988989350588
1001
ACAD_VIEW_EDGE_ID
1071
       38
1071
       -1
1071
        3
1071
        0
  0
LINE
  5
59A
330
70
100
AcDbEntity
  8
表示
100
AcDbLine
 10
115.771166
 20
215.047087
 30
63.387129
 11
115.781553
 21
215.048354
 31
63.386727
  0
LINE
  5
59B
330
70
100
AcDbEntity
  8
表示
100
AcDbLine
 10
116.977145
 20
215.048354
 30
49.721056
 11
115.781553
 21
215.048354
 31
63.386727
  0
LINE
  5
59C
330
70
100
AcDbEntity
  8
表示
100
AcDbLine
 10
116.978312
 20
215.034962
 30
48.456361
 11
117.12669
 21
215.045778
 31
47.771035
  0
ELLIPSE
  5
59D
330
70
100
AcDbEntity
  8
表示
100
AcDbEllipse
 10
115.611537
 20
214.64236
 30
64.537919
 11
0.0446444715219487
 21
-0.2768488705070986
 31
0.2818122733570812
210
-0.9917619244456403
220
-0.1227878039692666
230
0.0364889081267886
 40
0.984576920258063
 41
0.0000000000105449
 42
2.360809830566956
1001
ACAD_VIEW_EDGE_ID
1071
       46
1071
       -1
1071
        3
1071
        0
  0
ELLIPSE
  5
59E
330
70
100
AcDbEntity
  8
表示
100
AcDbEllipse
 10
117.459239
 20
193.44236
 30
43.418591
 11
0.0446444715086357
 21
-0.2768488703542337
 31
0.2818122735096367
210
-0.99176192444564
220
-0.1227878039692666
230
0.0364889081267885
 40
0.984576920271661
 41
-0.7899189644119057
 42
-0.0000000005425449
1001
ACAD_VIEW_EDGE_ID
1071
       47
1071
       -1
1071
        3
1071
        0
  0
LINE
  5
59F
330
70
100
AcDbEntity
  8
表示
100
AcDbLine
 10
115.781553
 20
215.048354
 30
63.386727
 11
117.69898
 21
193.048354
 31
41.470444
  0
ELLIPSE
  5
5A0
330
70
100
AcDbEntity
  8
表示
100
AcDbEllipse
 10
118.92704
 20
193.454347
 30
26.641548
 11
-0.092902409402322
 21
-0.2768488704393036
 31
0.2697784806409174
210
-0.9703585999351735
220
0.1227878039686856
230
-0.2081522104816508
 40
0.9845769202560774
 41
3.14159265335541
 42
5.330862515484763
1001
ACAD_VIEW_EDGE_ID
1071
       52
1071
       -1
1071
        3
1071
        0
  0
ELLIPSE
  5
5A1
330
70
100
AcDbEntity
  8
表示
100
AcDbEllipse
 10
117.079338
 20
214.654347
 30
47.760875
 11
-0.0929024094064515
 21
-0.2768488703919387
 31
0.2697784806881089
210
-0.9703585999351737
220
0.1227878039686854
230
-0.2081522104816506
 40
0.9845769202719942
 41
2.340765861585299
 42
3.141592653184284
1001
ACAD_VIEW_EDGE_ID
1071
       53
1071
       -1
1071
        3
1071
        0
  0
LINE
  5
5A2
330
70
100
AcDbEntity
  8
表示
100
AcDbLine
 10
118.894571
 20
193.048354
 30
27.804773
 11
116.977145
 21
215.048354
 31
49.721056
  0
CIRCLE
  5
5A3
330
70
100
AcDbEntity
  8
表示
100
AcDbCircle
 10
-204.048354
 20
35.195559
 30
-120.865487
 40
4.000000000000001
210
-0.9961946980917456
220
-0.0000000000002952
230
-0.0871557427476576
  0
LINE
  5
5A4
330
70
100
AcDbEntity
  8
表示
100
AcDbLine
 10
114.283193
 20
193.448354
 30
43.134706
 11
117.507799
 21
193.050886
 31
43.421109
  0
LINE
  5
5A5
330
70
100
AcDbEntity
  8
表示
100
AcDbLine
 10
113.187797
 20
214.741083
 30
64.320852
 11
115.562845
 21
215.033833
 31
64.531799
  0
LINE
  5
5A6
330
70
100
AcDbEntity
  8
表示
100
AcDbLine
 10
119.225002
 20
225.492176
 30
55.917661
 11
119.755401
 21
218.239583
 31
61.980151
  0
LINE
  5
5A7
330
70
100
AcDbEntity
  8
表示
100
AcDbLine
 10
117.958908
 20
217.514081
 30
64.385491
 11
119.225002
 21
225.492176
 31
55.917661
  0
ELLIPSE
  5
5A8
330
70
100
AcDbEntity
  8
表示
100
AcDbEllipse
 10
118.077465
 20
217.458175
 30
64.32089
 11
-0.1187755879519803
 21
0.0499826486999715
 31
0.0701860548672048
210
-0.5845228388040605
220
-0.5451148086277838
230
-0.6009849385227028
 40
0.5195882505403266
 41
-1.227523120492162
 42
0.1064570551009474
1001
ACAD_VIEW_EDGE_ID
1071
        9
1071
       -1
1071
        4
1071
        0
  0
LINE
  5
5A9
330
70
100
AcDbEntity
  8
表示
100
AcDbLine
 10
118.041511
 20
217.419999
 30
64.390486
 11
119.755401
 21
218.239583
 31
61.980151
  0
LINE
  5
5AA
330
70
100
AcDbEntity
  8
表示
100
AcDbLine
 10
119.755401
 20
218.239583
 30
61.980151
 11
119.439702
 21
217.600884
 31
58.371693
  0
ELLIPSE
  5
5AB
330
70
100
AcDbEntity
  8
表示
100
AcDbEllipse
 10
118.076676
 20
217.433306
 30
64.311873
 11
-0.1227903525889593
 21
-0.0765778605732954
 31
0.0242970850719557
210
-0.5407374909985771
220
0.8351643400219302
230
-0.1005161230066967
 40
0.5195882505363402
 41
-0.2127167161017025
 42
1.227523120482923
1001
ACAD_VIEW_EDGE_ID
1071
       12
1071
       -1
1071
        4
1071
        0
  0
LINE
  5
5AC
330
70
100
AcDbEntity
  8
表示
100
AcDbLine
 10
119.439702
 20
217.600884
 30
58.371693
 11
117.955272
 21
217.355659
 31
64.319831
  0
LINE
  5
5AD
330
70
100
AcDbEntity
  8
表示
100
AcDbLine
 10
112.122882
 20
238.365511
 30
26.371769
 11
113.970584
 21
217.165511
 31
47.491097
  0
LINE
  5
5AE
330
70
100
AcDbEntity
  8
表示
100
AcDbLine
 10
113.443845
 20
239.048354
 30
41.470444
 11
112.248253
 21
239.048354
 31
27.804773
  0
LINE
  5
5AF
330
70
100
AcDbEntity
  8
表示
100
AcDbLine
 10
113.443845
 20
239.048354
 30
41.470444
 11
113.454453
 21
239.047087
 31
41.473369
  0
ELLIPSE
  5
5B0
330
70
100
AcDbEntity
  8
表示
100
AcDbEllipse
 10
113.441088
 20
239.052418
 30
41.818699
 11
0.0734257222386652
 21
-0.0052516025910238
 31
0.3485191386887403
210
-0.1214055937598367
220
-0.9925461516413577
230
0.0106216131426448
 40
0.7018361144649499
 41
3.488054839718482
 42
4.292755423946728
1001
ACAD_VIEW_EDGE_ID
1071
       25
1071
       -1
1071
        4
1071
        0
  0
LINE
  5
5B1
330
70
100
AcDbEntity
  8
表示
100
AcDbLine
 10
116.859631
 20
238.648354
 30
43.134706
 11
118.091659
 21
238.495823
 31
42.963496
  0
LINE
  5
5B2
330
70
100
AcDbEntity
  8
表示
100
AcDbLine
 10
119.225002
 20
225.492176
 30
55.917661
 11
118.091659
 21
238.495823
 31
42.963496
  0
LINE
  5
5B3
330
70
100
AcDbEntity
  8
表示
100
AcDbLine
 10
115.486643
 20
217.731196
 30
64.819731
 11
113.638941
 21
238.931196
 31
43.700404
  0
ELLIPSE
  5
5B4
330
70
100
AcDbEntity
  8
表示
100
AcDbEllipse
 10
115.359222
 20
217.04429
 30
63.74308
 11
-0.0117905072245017
 21
-0.0052516025921264
 31
0.3559745927157065
210
-0.1214055937604336
220
0.9925461516412848
230
0.0106216131426458
 40
0.7018361144673452
 41
2.132015229570705
 42
3.138988989350588
1001
ACAD_VIEW_EDGE_ID
1071
       38
1071
       -1
1071
        4
1071
        0
  0
LINE
  5
5B5
330
70
100
AcDbEntity
  8
表示
100
AcDbLine
 10
115.371659
 20
217.04962
 30
63.387129
 11
115.361271
 21
217.048354
 31
63.386727
  0
LINE
  5
5B6
330
70
100
AcDbEntity
  8
表示
100
AcDbLine
 10
114.16568
 20
217.048354
 30
49.721056
 11
115.361271
 21
217.048354
 31
63.386727
  0
LINE
  5
5B7
330
70
100
AcDbEntity
  8
表示
100
AcDbLine
 10
114.164513
 20
217.061745
 30
48.456361
 11
114.016134
 21
217.050929
 31
47.771035
  0
ELLIPSE
  5
5B8
330
70
100
AcDbEntity
  8
表示
100
AcDbEllipse
 10
115.531287
 20
217.454347
 30
64.537919
 11
-0.0446444715219487
 21
0.2768488705070986
 31
0.2818122733570812
210
0.9917619244456403
220
0.1227878039692666
230
0.0364889081267886
 40
0.984576920258063
 41
0.0000000000105449
 42
2.360809830566956
1001
ACAD_VIEW_EDGE_ID
1071
       46
1071
       -1
1071
        4
1071
        0
  0
ELLIPSE
  5
5B9
330
70
100
AcDbEntity
  8
表示
100
AcDbEllipse
 10
113.683585
 20
238.654347
 30
43.418591
 11
-0.0446444715084029
 21
0.2768488703516833
 31
0.281812273511891
210
0.99176192444564
220
0.1227878039692667
230
0.0364889081267885
 40
0.9845769202718209
 41
-0.7899189644205542
 42
-0.0000000005509593
1001
ACAD_VIEW_EDGE_ID
1071
       47
1071
       -1
1071
        4
1071
        0
  0
LINE
  5
5BA
330
70
100
AcDbEntity
  8
表示
100
AcDbLine
 10
115.361271
 20
217.048354
 30
63.386727
 11
113.443845
 21
239.048354
 31
41.470444
  0
ELLIPSE
  5
5BB
330
70
100
AcDbEntity
  8
表示
100
AcDbEllipse
 10
112.215784
 20
238.64236
 30
26.641548
 11
0.092902409401948
 21
0.2768488704435943
 31
0.2697784806366429
210
0.9703585999351735
220
-0.1227878039686856
230
-0.2081522104816508
 40
0.9845769202563186
 41
3.141592653370913
 42
5.330862515501103
1001
ACAD_VIEW_EDGE_ID
1071
       52
1071
       -1
1071
        4
1071
        0
  0
ELLIPSE
  5
5BC
330
70
100
AcDbEntity
  8
表示
100
AcDbEllipse
 10
114.063486
 20
217.44236
 30
47.760875
 11
0.0929024094064515
 21
0.2768488703919387
 31
0.2697784806881089
210
0.9703585999351737
220
-0.1227878039686854
230
-0.2081522104816506
 40
0.9845769202719942
 41
2.340765861585299
 42
3.141592653184284
1001
ACAD_VIEW_EDGE_ID
1071
       53
1071
       -1
1071
        4
1071
        0
  0
LINE
  5
5BD
330
70
100
AcDbEntity
  8
表示
100
AcDbLine
 10
112.248253
 20
239.048354
 30
27.804773
 11
114.16568
 21
217.048354
 31
49.721056
  0
CIRCLE
  5
5BE
330
70
100
AcDbEntity
  8
表示
100
AcDbCircle
 10
228.048354
 20
55.340983
 30
109.397769
 40
4.000000000000001
210
0.9961946980917456
220
0.0000000000002952
230
-0.0871557427476576
  0
LINE
  5
5BF
330
70
100
AcDbEntity
  8
表示
100
AcDbLine
 10
116.859631
 20
238.648354
 30
43.134706
 11
113.635025
 21
239.045821
 31
43.421109
  0
LINE
  5
5C0
330
70
100
AcDbEntity
  8
表示
100
AcDbLine
 10
117.955027
 20
217.355624
 30
64.320852
 11
115.57998
 21
217.062874
 31
64.531799
  0
SPLINE
  5
5C1
330
70
100
AcDbEntity
  8
表示
100
AcDbSpline
 70
     0
 71
     3
 72
    12
 73
     8
 74
     0
 42
0.000000001
 43
0.0000000001
 40
0.3804389033126918
 40
0.3804389033126918
 40
0.3804389033126918
 40
0.3804389033126918
 40
0.3976510361810623
 40
0.3976510361810623
 40
0.4383512139679603
 40
0.4383512139679603
 40
0.4667159580672895
 40
0.4667159580672895
 40
0.4667159580672895
 40
0.4667159580672895
 10
82.56844522210121
 20
95.4706284274539
 30
28.72228592340253
 10
82.53161850330616
 20
95.42703755052299
 30
28.72846106512952
 10
82.49543697329409
 20
95.38347645301428
 30
28.73897711484278
 10
82.37604736175853
 20
95.24031010165435
 30
28.78807061960106
 10
82.29502936509106
 20
95.14443961923644
 30
28.84569647472927
 10
82.16548089625211
 20
95.00892959320891
 30
28.97938785978295
 10
82.11513423580255
 20
94.96159599053362
 30
29.04399243627813
 10
82.06877223372613
 20
94.92523143422387
 30
29.1171910229732
1001
ACAD_VIEW_EDGE_ID
1071
        2
1071
       -1
1071
        2
1071
        0
  0
SPLINE
  5
5C2
330
70
100
AcDbEntity
  8
表示
100
AcDbSpline
210
0.6427876096853553
220
0.4411356560453571
230
0.6262774319743767
 70
     8
 71
     3
 72
    12
 73
     8
 74
     0
 42
0.000000001
 43
0.0000000001
 40
-0.16463288862375
 40
-0.16463288862375
 40
-0.16463288862375
 40
-0.16463288862375
 40
-0.1491206085497307
 40
-0.1491206085497307
 40
-0.0742436527511563
 40
-0.0742436527511563
 40
0.0
 40
0.0
 40
0.0
 40
0.0
 10
82.06877223372613
 20
94.92523143422387
 30
29.1171910229732
 10
82.04175726893117
 20
94.90404194359598
 30
29.15984356501031
 10
82.01399607185885
 20
94.88507879542884
 30
29.20169382653512
 10
81.8520077616049
 20
94.78788516439271
 30
29.43641353289786
 10
81.66248925018953
 20
94.74144671551812
 30
29.66363840049053
 10
81.31219742464509
 20
94.75138597659725
 30
30.01616376944912
 10
81.08961651871686
 20
94.8087436625974
 30
30.20421098627048
 10
80.90004881718414
 20
94.89805878901917
 30
30.33586459319122
1001
ACAD_VIEW_EDGE_ID
1071
        3
1071
       -1
1071
        2
1071
        0
  0
ARC
  5
5C3
330
70
100
AcDbEntity
  8
細線
100
AcDbCircle
 10
139.742035
 20
15.758313
 30
1.025936
 40
28.00000000000002
210
0.7071067811866527
220
-0.4071957137922735
230
-0.578093115915639
100
AcDbArc
 50
127.72706
 51
180.0
  0
ELLIPSE
  5
5C4
330
70
100
AcDbEntity
  8
表示
100
AcDbEllipse
 10
49.272424
 20
132.882194
 30
36.042105
 11
-246.102479631578
 21
118.9180325688031
 31
168.8271601521377
210
-0.6427876096864255
220
-0.4411356560451378
230
-0.6262774319734327
 40
0.0871557427597329
 41
4.58351852678903
 42
4.631059879237267
1001
ACAD_VIEW_EDGE_ID
1071
        5
1071
       -1
1071
        2
1071
        0
  0
ARC
  5
5C5
330
70
100
AcDbEntity
  8
表示
100
AcDbCircle
 10
139.742035
 20
15.758313
 30
-14.103887
 40
28.00000000000001
210
0.7071067811866527
220
-0.4071957137922735
230
-0.578093115915639
100
AcDbArc
 50
130.450979
 51
188.140691
  0
LINE
  5
5C6
330
70
100
AcDbEntity
  8
細線
100
AcDbLine
 10
79.01857
 20
100.346558
 30
28.429144
 11
82.068772
 21
94.925231
 31
29.117191
210
-0.7071067811866527
220
0.4071957137922735
230
0.578093115915639
  0
ARC
  5
5C7
330
70
100
AcDbEntity
  8
表示
100
AcDbCircle
 10
-39.962578
 20
-51.910572
 30
-112.863134
 40
2.999999999999999
210
-0.6427876096864257
220
-0.4411356560451376
230
-0.6262774319734326
100
AcDbArc
 50
310.252099
 51
129.955373
  0
LINE
  5
5C8
330
70
100
AcDbEntity
  8
表示
100
AcDbLine
 10
74.461786
 20
101.906976
 30
32.006933
 11
65.477541
 21
106.248211
 31
38.170157
210
-0.7071067811866527
220
0.4071957137922735
230
0.578093115915639
  0
SPLINE
  5
5C9
330
70
100
AcDbEntity
  8
表示
100
AcDbSpline
210
0.6427876153811633
220
0.4411356594168279
230
0.6262774237536256
 70
    12
 71
     2
 72
     6
 73
     3
 74
     0
 42
0.000000001
 43
0.0000000001
 40
0.0
 40
0.0
 40
0.0
 40
0.2167407044975801
 40
0.2167407044975801
 40
0.2167407044975801
 10
69.26565949780524
 20
100.405700615056
 30
38.39750605241716
 41
1.0
 10
67.18901378378359
 20
103.6085537518947
 30
38.27287983874703
 41
1.058933435672751
 10
65.4775405770215
 20
106.2482108210138
 30
38.17015686324339
 41
1.110920077170514
1001
ACAD_VIEW_EDGE_ID
1071
       11
1071
       -1
1071
        2
1071
        0
  0
SPLINE
  5
5CA
330
70
100
AcDbEntity
  8
表示
100
AcDbSpline
 70
     0
 71
     3
 72
    12
 73
     8
 74
     0
 42
0.000000001
 43
0.0000000001
 40
0.4446889135324045
 40
0.4446889135324045
 40
0.4446889135324045
 40
0.4446889135324045
 40
0.4601567206559018
 40
0.4601567206559018
 40
0.4972935868787066
 40
0.4972935868787066
 40
0.5189936249196114
 40
0.5189936249196114
 40
0.5189936249196114
 40
0.5189936249196114
 10
82.56844522960909
 20
95.47062842245258
 30
28.72228593288128
 10
82.60338803494596
 20
95.51198935836556
 30
28.7164266875734
 10
82.63992492746002
 20
95.55318436959669
 30
28.71452690611295
 10
82.76691552453849
 20
95.68916461030767
 30
28.72286507817444
 10
82.86155400258667
 20
95.77801017518277
 30
28.75504178529445
 10
82.99930942702394
 20
95.88979380123964
 30
28.83866056720217
 10
83.05099192324997
 20
95.92758026324281
 30
28.87874059520255
 10
83.10071343918115
 20
95.95969941407792
 30
28.92612596835716
1001
ACAD_VIEW_EDGE_ID
1071
       12
1071
       -1
1071
        2
1071
        0
  0
LINE
  5
5CB
330
70
100
AcDbEntity
  8
細線
100
AcDbLine
 10
83.100713
 20
95.959699
 30
28.926126
 11
67.769393
 21
123.209069
 31
25.467777
210
-0.7071067811866527
220
0.4071957137922735
230
0.578093115915639
  0
ARC
  5
5CC
330
70
100
AcDbEntity
  8
細線
100
AcDbCircle
 10
118.848017
 20
34.241852
 30
-70.900104
 40
1.0
210
0.4873751437995159
220
-0.8662440974457259
230
0.1099392234229489
100
AcDbArc
 50
219.057271
 51
309.057271
  0
LINE
  5
5CD
330
70
100
AcDbEntity
  8
細線
100
AcDbLine
 10
66.535598
 20
122.533369
 30
25.613309
 11
77.462672
 21
103.111958
 31
28.078174
210
-0.7071067811866527
220
0.4071957137922735
230
0.578093115915639
  0
SPLINE
  5
5CE
330
70
100
AcDbEntity
  8
表示
100
AcDbSpline
 70
     0
 71
     3
 72
    14
 73
    10
 74
     0
 42
0.000000001
 43
0.0000000001
 40
0.5464645056670932
 40
0.5464645056670932
 40
0.5464645056670932
 40
0.5464645056670932
 40
0.5873340896482747
 40
0.5873340896482747
 40
0.713164357170178
 40
0.713164357170178
 40
0.8389946246920811
 40
0.8389946246920811
 40
0.8798642086732639
 40
0.8798642086732639
 40
0.8798642086732639
 40
0.8798642086732639
 10
77.46267213361625
 20
103.1119579727665
 30
28.07817400607928
 10
77.56063211664423
 20
103.0298599711209
 30
28.03538074914104
 10
77.66257546765428
 20
102.9442941982656
 30
28.00337680181656
 10
78.07689133542499
 20
102.5765069158615
 30
27.90975445729964
 10
78.38000830209239
 20
102.249883738511
 30
27.92275602545124
 10
78.7888519336102
 20
101.523218895039
 30
28.01498057141726
 10
78.90692111266616
 20
101.1012400615968
 30
28.09698770111391
 10
78.9899501836453
 20
100.5850632701886
 30
28.30279819686439
 10
79.0052566321001
 20
100.4622332148897
 30
28.36125066554814
 10
79.01856976792351
 20
100.3465581383707
 30
28.42914425932031
1001
ACAD_VIEW_EDGE_ID
1071
       16
1071
       -1
1071
        2
1071
        0
  0
SPLINE
  5
5CF
330
70
100
AcDbEntity
  8
表示
100
AcDbSpline
210
-0.3971312619661126
220
-0.2108154587599484
230
-0.8932209150691866
 70
     8
 71
     3
 72
    14
 73
    10
 74
     0
 42
0.000000001
 43
0.0000000001
 40
1.600323141601261
 40
1.600323141601261
 40
1.600323141601261
 40
1.600323141601261
 40
1.676027661016973
 40
1.676027661016973
 40
1.77623467606587
 40
1.77623467606587
 40
1.899578534871242
 40
1.899578534871242
 40
1.927010393343953
 40
1.927010393343953
 40
1.927010393343953
 40
1.927010393343953
 10
96.51318707471546
 20
135.7165332195577
 30
20.68179375148975
 10
96.70480526948086
 20
135.5595478686241
 30
20.63365041314864
 10
96.89580008852955
 20
135.3264699043616
 30
20.60374339338887
 10
97.2021759524223
 20
134.826839053474
 30
20.58544833765882
 10
97.35036367438169
 20
134.4550520936804
 30
20.60731130697604
 10
97.53957169975729
 20
133.7393103451345
 30
20.69211563914541
 10
97.59394979294757
 20
133.2571979165409
 30
20.78172562328655
 10
97.59075314392248
 20
132.7683807966546
 30
20.89851609793914
 10
97.58787069641494
 20
132.6762535412908
 30
20.92154126368769
 10
97.58237196980008
 20
132.5825226405677
 30
20.94610813030158
1001
ACAD_VIEW_EDGE_ID
1071
       17
1071
       -1
1071
        2
1071
        0
  0
ARC
  5
5D0
330
70
100
AcDbEntity
  8
細線
100
AcDbCircle
 10
139.742035
 20
15.758313
 30
1.025936
 40
28.00000000000001
210
0.7071067811866527
220
-0.4071957137922735
230
-0.578093115915639
100
AcDbArc
 50
0.0
 51
21.616044
  0
ARC
  5
5D1
330
70
100
AcDbEntity
  8
表示
100
AcDbCircle
 10
139.742035
 20
15.758313
 30
-14.103887
 40
28.00000000000001
210
0.7071067811866527
220
-0.4071957137922735
230
-0.578093115915639
100
AcDbArc
 50
314.889207
 51
8.140691
  0
ELLIPSE
  5
5D2
330
70
100
AcDbEntity
  8
表示
100
AcDbEllipse
 10
36.867772
 20
140.025557
 30
46.183492
 11
-76.79764685419525
 21
31.22911647192952
 31
26.77407737789279
210
-0.3971312619670483
220
-0.2108154587601539
230
-0.8932209150687222
 40
0.3213938048436282
 41
2.126807013372215
 42
2.361996285860603
1001
ACAD_VIEW_EDGE_ID
1071
       24
1071
       -1
1071
        2
1071
        0
  0
SPLINE
  5
5D3
330
70
100
AcDbEntity
  8
表示
100
AcDbSpline
 70
     0
 71
     3
 72
    31
 73
    27
 74
     0
 42
0.000000001
 43
0.0000000001
 40
1.851365918094904
 40
1.851365918094904
 40
1.851365918094904
 40
1.851365918094904
 40
2.078042687120644
 40
2.078042687120644
 40
2.25111382577614
 40
2.25111382577614
 40
2.424184964431635
 40
2.424184964431635
 40
2.470316240520732
 40
2.470316240520732
 40
2.516447516609829
 40
2.516447516609829
 40
2.556903281741658
 40
2.556903281741658
 40
2.597359046873487
 40
2.597359046873487
 40
2.597359046873487
 40
2.69545834745735
 40
2.69545834745735
 40
2.793557648041212
 40
2.793557648041212
 40
2.989756249208937
 40
2.989756249208937
 40
3.445499961562914
 40
3.445499961562914
 40
3.529358983907065
 40
3.529358983907065
 40
3.529358983907065
 40
3.529358983907065
 10
72.74096203375757
 20
140.5014722868527
 30
30.12173684218578
 10
71.9922960955173
 20
140.6011849323868
 30
29.8775526792997
 10
71.28193454676057
 20
140.7433937870069
 30
29.54627594552585
 10
70.17773537332596
 20
141.0207682461396
 30
28.85392830301498
 10
69.689400589461
 20
141.1648348433641
 30
28.47978070274803
 10
68.85429979282344
 20
141.474203801466
 30
27.62525283931973
 10
68.49930925227091
 20
141.6348332374555
 30
27.15125646404158
 10
68.26565734915857
 20
141.8691496644073
 30
26.49980566731028
 10
68.2255989519399
 20
141.9255700057124
 30
26.34578966433583
 10
68.1970289871333
 20
142.04465150432
 30
26.0384311209873
 10
68.20949914379434
 20
142.1075859514708
 30
25.88510405314082
 10
68.28743802236022
 20
142.2216952951562
 30
25.63171088679519
 10
68.35121195303054
 20
142.2798280878028
 30
25.51341827971373
 10
68.52501083273819
 20
142.391636439524
 30
25.31215306719059
 10
68.63444627060108
 20
142.4454147587294
 30
25.22872918402391
 10
68.74421551876548
 20
142.4916383596041
 30
25.16548915524618
 10
69.01038985598098
 20
142.6037238164367
 30
25.01214135496048
 10
69.30793858351626
 20
142.6913608684194
 30
24.94032534475264
 10
69.93321958874912
 20
142.8478298680302
 30
24.856116329016
 10
70.26203857910786
 20
142.9149269894069
 30
24.84865366204576
 10
71.27308698796423
 20
143.0891787231712
 30
24.8902289523503
 10
71.973421814836
 20
143.1664242184233
 30
25.0044925887396
 10
74.08969558904027
 20
143.3067713677878
 30
25.4780218825108
 10
75.80024250020051
 20
143.2403707635126
 30
26.10480535874013
 10
77.29075410060341
 20
142.8659547533016
 30
27.03937605713145
 10
77.52482055420841
 20
142.7953977705506
 30
27.20105212978524
 10
77.74359716556318
 20
142.7113952798686
 30
27.37595616097133
1001
ACAD_VIEW_EDGE_ID
1071
       34
1071
       -1
1071
        2
1071
        0
  0
ELLIPSE
  5
5D4
330
70
100
AcDbEntity
  8
表示
100
AcDbEllipse
 10
74.876554
 20
142.404843
 30
28.723012
 11
-2.635830268050148
 21
-1.174376721156255
 31
1.449078661363315
210
-0.3971312619670482
220
-0.2108154587601537
230
-0.8932209150687221
 40
0.8516507396386817
 41
3.470097648391673
 42
5.961332340344521
1001
ACAD_VIEW_EDGE_ID
1071
       35
1071
       -1
1071
        2
1071
        0
  0
SPLINE
  5
5D5
330
70
100
AcDbEntity
  8
表示
100
AcDbSpline
210
0.397131262070459
220
0.2108154585303903
230
0.8932209150769734
 70
    12
 71
     2
 72
     6
 73
     3
 74
     0
 42
0.000000001
 43
0.0000000001
 40
6.188462158471123
 40
6.188462158471123
 40
6.188462158471123
 40
6.363394165315646
 40
6.363394165315646
 40
6.363394165315646
 10
77.74359716556318
 20
142.7113952798686
 30
27.37595616097133
 41
1.179495895060654
 10
80.29760374944999
 20
143.8209036352009
 30
25.97856683700957
 41
1.092284892601594
 10
83.47559182890927
 20
145.1711095416963
 30
24.24694292626009
 41
1.0
1001
ACAD_VIEW_EDGE_ID
1071
       38
1071
       -1
1071
        2
1071
        0
  0
SPLINE
  5
5D6
330
70
100
AcDbEntity
  8
表示
100
AcDbSpline
210
0.3971312619670888
220
0.210815458760239
230
0.8932209150686842
 70
    12
 71
     2
 72
     6
 73
     3
 74
     0
 42
0.000000001
 43
0.0000000001
 40
4.251339282472958
 40
4.251339282472958
 40
4.251339282472958
 40
5.961183286737242
 40
5.961183286737242
 40
5.961183286737242
 10
60.43684244087309
 20
133.6965851569807
 30
37.19829073470828
 41
2.488790085500896
 10
62.95498130733903
 20
136.0870087303283
 30
35.51453044347181
 41
2.185542381567282
 10
72.74096203375757
 20
140.5014722868527
 30
30.12173684218578
 41
1.397547284096452
1001
ACAD_VIEW_EDGE_ID
1071
       39
1071
       -1
1071
        2
1071
        0
  0
LINE
  5
5D7
330
70
100
AcDbEntity
  8
表示
100
AcDbLine
 10
71.514211
 20
130.721994
 30
32.975282
 11
60.436842
 21
133.696585
 31
37.198291
210
-0.7071067811866527
220
0.4071957137922735
230
0.578093115915639
  0
ELLIPSE
  5
5D8
330
70
100
AcDbEntity
  8
表示
100
AcDbEllipse
 10
70.303168
 20
125.803137
 30
34.674654
 11
-3.705696494827039
 21
-3.278609277266059
 31
2.421382446215184
210
0.3971312619670483
220
0.2108154587601533
230
0.8932209150687222
 40
0.9076733711911593
 41
2.87852561278986
 42
3.7597291560786
1001
ACAD_VIEW_EDGE_ID
1071
       41
1071
       -1
1071
        2
1071
        0
  0
LINE
  5
5D9
330
70
100
AcDbEntity
  8
表示
100
AcDbLine
 10
87.225277
 20
99.867725
 30
33.272187
 11
74.693096
 21
127.960705
 31
32.213643
210
-0.7071067811866527
220
0.4071957137922735
230
0.578093115915639
  0
ELLIPSE
  5
5DA
330
70
100
AcDbEntity
  8
表示
100
AcDbEllipse
 10
36.867772
 20
140.025557
 30
46.183492
 11
-76.79764685121797
 21
31.22911647317277
 31
26.77407737627565
210
-0.3971312619670483
220
-0.2108154587601539
230
-0.8932209150687222
 40
0.321393804841898
 41
3.896737313247681
 42
3.908144427257271
1001
ACAD_VIEW_EDGE_ID
1071
       43
1071
       -1
1071
        2
1071
        0
  0
SPLINE
  5
5DB
330
70
100
AcDbEntity
  8
表示
100
AcDbSpline
210
-0.3971312619670417
220
-0.2108154587601177
230
-0.8932209150687338
 70
    12
 71
     2
 72
     6
 73
     3
 74
     0
 42
0.000000001
 43
0.0000000001
 40
0.1771582400161813
 40
0.1771582400161813
 40
0.1771582400161813
 40
3.873373107990881
 40
3.873373107990881
 40
3.873373107990881
 10
97.58237196980008
 20
132.5825226405677
 30
20.94610813030158
 41
1.024418048089239
 10
96.55398121771305
 20
115.0526474107341
 30
25.54068796662432
 41
1.266937091974521
 10
87.88841382878217
 20
99.83246292879313
 30
32.98567472702598
 41
1.0
1001
ACAD_VIEW_EDGE_ID
1071
       44
1071
       -1
1071
        2
1071
        0
  0
SPLINE
  5
5DC
330
70
100
AcDbEntity
  8
表示
100
AcDbSpline
 70
     0
 71
     3
 72
    31
 73
    27
 74
     0
 42
0.000000001
 43
0.0000000001
 40
1.851365918094902
 40
1.851365918094902
 40
1.851365918094902
 40
1.851365918094902
 40
2.078042687120643
 40
2.078042687120643
 40
2.251113825776139
 40
2.251113825776139
 40
2.424184964431635
 40
2.424184964431635
 40
2.470316240520732
 40
2.470316240520732
 40
2.516447516609829
 40
2.516447516609829
 40
2.556903281741658
 40
2.556903281741658
 40
2.597359046873487
 40
2.597359046873487
 40
2.597359046873487
 40
2.69545834745735
 40
2.69545834745735
 40
2.793557648041213
 40
2.793557648041213
 40
2.989756249208938
 40
2.989756249208938
 40
3.445499961562914
 40
3.445499961562914
 40
3.529358983907067
 40
3.529358983907067
 40
3.529358983907067
 40
3.529358983907067
 10
49.72495252692261
 20
111.4876887223968
 30
22.40587244769085
 10
49.8671638935557
 20
111.7372100380394
 30
23.14586180194238
 10
50.05610560186051
 20
111.8952668996689
 30
23.90342382711242
 10
50.46240309854238
 20
112.0197872872308
 30
25.16633897887732
 10
50.68532395767397
 20
112.0285624041689
 30
25.75747497020166
 10
51.20578702107377
 20
111.9003812663232
 30
26.86923400780506
 10
51.50080105462985
 20
111.7742900036724
 30
27.39226400393636
 10
51.89845892428093
 20
111.4455288218569
 30
27.90963219426704
 10
51.99188395097735
 20
111.3583766825249
 30
28.02001846274834
 10
52.17458957004601
 20
111.1505343638728
 30
28.20136384512262
 10
52.26370013573523
 20
111.0291034691618
 30
28.27164388546771
 10
52.40514978958526
 20
110.7886566720226
 30
28.34567658791639
 10
52.46838312153613
 20
110.6573852610854
 30
28.36013477260895
 10
52.56854076976015
 20
110.3878158371935
 30
28.33742761338908
 10
52.60577485121302
 20
110.2495761591121
 30
28.30094225273752
 10
52.63085815348858
 20
110.1256961391595
 30
28.25393396662366
 10
52.69168148488461
 20
109.8253052486607
 30
28.13994576310324
 10
52.69992763572282
 20
109.5615726378655
 30
27.96176004970585
 10
52.67866797015813
 20
109.0572708821623
 30
27.5521531558552
 10
52.64613038963853
 20
108.8195566441459
 30
27.31739180807017
 10
52.51179573077843
 20
108.1404390390312
 30
26.55906171214338
 10
52.37389710108619
 20
107.7393080785755
 30
25.98497997984487
 10
51.90594404027251
 20
106.6497561594296
 30
24.1638708260216
 10
51.43175657630763
 20
106.0041847094135
 30
22.52630523846528
 10
50.88331282939271
 20
105.8360999230713
 30
20.82154967504903
 10
50.79176608514171
 20
105.8245852635691
 30
20.54335702378012
 10
50.69714761449358
 20
105.8370898361536
 30
20.26694786163171
1001
ACAD_VIEW_EDGE_ID
1071
       45
1071
       -1
1071
        2
1071
        0
  0
ELLIPSE
  5
5DD
330
70
100
AcDbEntity
  8
表示
100
AcDbEllipse
 10
49.772398
 20
108.32719
 30
22.019862
 11
-0.5084115170308095
 21
2.985025143815212
 31
1.121487169841822
210
0.8516507396391594
220
-0.0509249007829862
230
0.5216298229130656
 40
0.8516507396381285
 41
3.470097648388472
 42
5.961332340341344
1001
ACAD_VIEW_EDGE_ID
1071
       46
1071
       -1
1071
        2
1071
        0
  0
SPLINE
  5
5DE
330
70
100
AcDbEntity
  8
表示
100
AcDbSpline
210
0.851650739642541
220
-0.050924900780189
230
0.5216298229078174
 70
    12
 71
     2
 72
     6
 73
     3
 74
     0
 42
0.000000001
 43
0.0000000001
 40
6.188462158471121
 40
6.188462158471121
 40
6.188462158471121
 40
6.363394165315645
 40
6.363394165315645
 40
6.363394165315645
 10
50.69714761449358
 20
105.8370898361536
 30
20.26694786163171
 41
1.179495895060654
 10
51.20065586982855
 20
102.9668757847198
 30
19.16467471962824
 41
1.092284892601594
 10
51.8388081493731
 20
99.41910079989066
 30
17.77642405187544
 41
1.0
1001
ACAD_VIEW_EDGE_ID
1071
       49
1071
       -1
1071
        2
1071
        0
  0
SPLINE
  5
5DF
330
70
100
AcDbEntity
  8
表示
100
AcDbSpline
210
0.8516507396386632
220
-0.0509249007833077
230
0.5216298229138441
 70
    12
 71
     2
 72
     6
 73
     3
 74
     0
 42
0.000000001
 43
0.0000000001
 40
4.251339282472943
 40
4.251339282472943
 40
4.251339282472943
 40
5.96118328673724
 40
5.96118328673724
 40
5.96118328673724
 10
47.85821011591724
 20
126.4530325502555
 30
26.91466604298694
 41
2.488790085500901
 10
47.85821011591724
 20
122.6125092459465
 30
26.53972914398946
 41
2.185542381567288
 10
49.72495252692261
 20
111.4876887223968
 30
22.40587244769085
 41
1.397547284096451
1001
ACAD_VIEW_EDGE_ID
1071
       50
1071
       -1
1071
        2
1071
        0
  0
SPLINE
  5
5E0
330
70
100
AcDbEntity
  8
表示
100
AcDbSpline
210
-0.7660444431188602
220
-0.3701567662867267
230
-0.5255091621835622
 70
    12
 71
     2
 72
     6
 73
     3
 74
     0
 42
0.000000001
 43
0.0000000001
 40
0.1362129633903117
 40
0.1362129633903117
 40
0.1362129633903117
 40
2.965306168180294
 40
2.965306168180294
 40
2.965306168180294
 10
65.55425016332629
 20
143.8528985774028
 30
12.57251690033627
 41
1.196410221632318
 10
54.47913305941892
 20
137.2087117603573
 30
33.39693521431946
 41
3.197699682626383
 10
53.73254554157028
 20
134.8231335381292
 30
36.16559700847029
 41
3.604105258047936
1001
ACAD_VIEW_EDGE_ID
1071
       60
1071
       -1
1071
        2
1071
        0
  0
SPLINE
  5
5E1
330
70
100
AcDbEntity
  8
表示
100
AcDbSpline
210
0.6427870100481356
220
0.4411353129352661
230
0.6262782890974931
 70
    12
 71
     2
 72
     6
 73
     3
 74
     0
 42
0.000000001
 43
0.0000000001
 40
0.1362129633903117
 40
0.1362129633903117
 40
0.1362129633903117
 40
0.1373334564271921
 40
0.1373334564271921
 40
0.1373334564271921
 10
62.14230878920534
 20
105.1241346551073
 30
35.67879410590831
 41
1.196410221632318
 10
62.12834617837051
 20
105.145950674454
 30
35.67775809418345
 41
1.197202854021392
 10
62.11440644206597
 20
105.1677318676934
 30
35.67672313562435
 41
1.197995236230296
1001
ACAD_VIEW_EDGE_ID
1071
       68
1071
       -1
1071
        2
1071
        0
  0
SPLINE
  5
5E2
330
70
100
AcDbEntity
  8
表示
100
AcDbSpline
 70
     0
 71
     3
 72
    16
 73
    12
 74
     0
 42
0.000000001
 43
0.0000000001
 40
0.6061841288689355
 40
0.6061841288689355
 40
0.6061841288689355
 40
0.6061841288689355
 40
0.6277530892843522
 40
0.6277530892843522
 40
0.7601850250263891
 40
0.7601850250263891
 40
0.8926169607684258
 40
0.8926169607684258
 40
0.9588329286394444
 40
0.9588329286394444
 40
0.9600100791880274
 40
0.9600100791880274
 40
0.9600100791880274
 40
0.9600100791880274
 10
58.76556991202505
 20
127.7030022920403
 30
29.99636907563399
 10
58.81847790756637
 20
127.7123842716319
 30
29.94957518862065
 10
58.87339415555107
 20
127.7201904952931
 30
29.90414025326754
 10
59.27629535937831
 20
127.7623308237039
 30
29.5879251733586
 10
59.67674642619659
 20
127.7221199939749
 30
29.35658446446723
 10
60.35307141597423
 20
127.3953161467261
 30
28.89262316048007
 10
60.63167169337612
 20
127.1074057401788
 30
28.65813227671788
 10
61.01949457281079
 20
126.6145246321253
 30
28.44345324797541
 10
61.14481629637793
 20
126.4410851663679
 30
28.39519450900116
 10
61.2763279163928
 20
126.2681131436743
 30
28.38057029784613
 10
61.27862586528954
 20
126.2650926956048
 30
28.38032520625711
 10
61.28092606979044
 20
126.2620741126961
 30
28.38009164250616
1001
ACAD_VIEW_EDGE_ID
1071
       72
1071
       -1
1071
        2
1071
        0
  0
LINE
  5
5E3
330
70
100
AcDbEntity
  8
細線
100
AcDbLine
 10
61.280926
 20
126.262074
 30
28.380092
 11
64.171569
 21
124.8653
 31
26.3971
210
-0.7071067811866527
220
0.4071957137922735
230
0.578093115915639
  0
ARC
  5
5E4
330
70
100
AcDbEntity
  8
細線
100
AcDbCircle
 10
141.024297
 20
25.009507
 30
-10.933379
 40
1.0
210
0.7660444431190732
220
-0.3701567662862923
230
-0.5255091621835572
100
AcDbArc
 50
227.401483
 51
317.401483
  0
LINE
  5
5E5
330
70
100
AcDbEntity
  8
細線
100
AcDbLine
 10
64.814357
 20
126.123983
 30
26.447516
 11
49.982231
 21
133.290945
 31
36.622406
210
-0.7071067811866527
220
0.4071957137922735
230
0.578093115915639
  0
ELLIPSE
  5
5E6
330
70
100
AcDbEntity
  8
表示
100
AcDbEllipse
 10
49.982231
 20
132.473398
 30
37.198268
 11
0.7098078142165427
 21
0.4087511353025175
 31
0.5803013376790273
210
-0.7071067811866527
220
0.4071957137922735
230
0.578093115915639
 40
0.9961946980919815
 41
1.570796326752016
 42
2.891708983094007
1001
ACAD_VIEW_EDGE_ID
1071
       76
1071
       -1
1071
        2
1071
        0
  0
ARC
  5
5E7
330
70
100
AcDbEntity
  8
細線
100
AcDbCircle
 10
63.944903
 20
-53.852068
 30
113.863134
 40
4.99999999999801
210
0.6427876096864259
220
0.4411356560451376
230
0.6262774319734326
100
AcDbArc
 50
261.893127
 51
312.382371
  0
ARC
  5
5E8
330
70
100
AcDbEntity
  8
細線
100
AcDbCircle
 10
-63.944903
 20
-53.852068
 30
-112.863134
 40
3.999999999998011
210
-0.6427876096864257
220
-0.4411356560451376
230
-0.6262774319734326
100
AcDbArc
 50
227.617629
 51
278.106873
  0
ARC
  5
5E9
330
70
100
AcDbEntity
  8
表示
100
AcDbCircle
 10
-69.191767
 20
-51.272476
 30
-112.863134
 40
3.0
210
-0.6427876096864257
220
-0.4411356560451375
230
-0.6262774319734326
100
AcDbArc
 50
265.473575
 51
296.393276
  0
ARC
  5
5EA
330
70
100
AcDbEntity
  8
表示
100
AcDbCircle
 10
-39.962578
 20
-51.910572
 30
-112.863134
 40
3.0
210
-0.6427876096864257
220
-0.4411356560451376
230
-0.6262774319734326
100
AcDbArc
 50
197.550375
 51
245.961647
  0
ELLIPSE
  5
5EB
330
70
100
AcDbEntity
  8
表示
100
AcDbEllipse
 10
48.562616
 20
133.29099
 30
34.885941
 11
0.709807814216707
 21
0.4087511349921408
 31
0.5803013378978502
210
-0.7071067811866526
220
0.4071957137922735
230
0.578093115915639
 40
0.9961946980899243
 41
-1.377413741510759
 42
-0.000000001541022
1001
ACAD_VIEW_EDGE_ID
1071
       87
1071
       -1
1071
        2
1071
        0
  0
SPLINE
  5
5EC
330
70
100
AcDbEntity
  8
表示
100
AcDbSpline
210
-0.093357304644801
220
-0.8565640310577824
230
0.5075258361576286
 70
    12
 71
     2
 72
     6
 73
     3
 74
     0
 42
0.000000001
 43
0.0000000001
 40
1.700749274513582
 40
1.700749274513582
 40
1.700749274513582
 40
1.705254407381734
 40
1.705254407381734
 40
1.705254407381734
 10
65.52776294404612
 20
143.8409617159113
 30
12.54749854522561
 41
1.117829492026409
 10
65.54099537554612
 20
143.8469369158824
 30
12.56001709119846
 41
1.117837151725006
 10
65.55425016332629
 20
143.8528985774028
 30
12.57251690033627
 41
1.117844025225863
1001
ACAD_VIEW_EDGE_ID
1071
      100
1071
       -1
1071
        2
1071
        0
  0
SPLINE
  5
5ED
330
70
100
AcDbEntity
  8
表示
100
AcDbSpline
210
-0.078336103934926
220
-0.8652141653068605
230
0.4952452957602416
 70
    12
 71
     2
 72
     6
 73
     3
 74
     0
 42
0.000000001
 43
0.0000000001
 40
1.20675636598671
 40
1.20675636598671
 40
1.20675636598671
 40
1.705254407381734
 40
1.705254407381734
 40
1.705254407381734
 10
65.47754056375197
 20
106.2482108174527
 30
38.17015685492516
 41
1.106696956314843
 10
63.6539677200917
 20
105.7588993976374
 30
37.02686328236268
 41
1.117083464590805
 10
62.14230878920535
 20
105.1241346551073
 30
35.67879410590831
 41
1.117844025225861
1001
ACAD_VIEW_EDGE_ID
1071
      107
1071
       -1
1071
        2
1071
        0
  0
ARC
  5
5EE
330
70
100
AcDbEntity
  8
細線
100
AcDbCircle
 10
139.742035
 20
15.758313
 30
86.338113
 40
16.0
210
0.7071067811866527
220
-0.4071957137922735
230
-0.578093115915639
100
AcDbArc
 50
0.0
 51
180.0
  0
SPLINE
  5
5EF
330
70
100
AcDbEntity
  8
表示
100
AcDbSpline
210
0.093357333302043
220
-0.7663424904694464
230
0.6356127717563722
 70
    12
 71
     2
 72
     6
 73
     3
 74
     0
 42
0.000000001
 43
0.0000000001
 40
1.361241173432324
 40
1.361241173432324
 40
1.361241173432324
 40
2.12581577542543
 40
2.12581577542543
 40
2.12581577542543
 10
53.73254554157028
 20
134.8231335381292
 30
36.16559700847029
 41
1.309386832811212
 10
51.42362028153184
 20
134.632515459732
 30
36.27490313828821
 41
1.241580780369953
 10
50.40587469188176
 20
134.5127463499493
 30
36.27998462264623
 41
1.0
1001
ACAD_VIEW_EDGE_ID
1071
      115
1071
       -1
1071
        2
1071
        0
  0
ARC
  5
5F0
330
70
100
AcDbEntity
  8
表示
100
AcDbCircle
 10
139.742035
 20
15.758313
 30
-40.103887
 40
2.0
210
0.7071067811866527
220
-0.4071957137922735
230
-0.578093115915639
100
AcDbArc
 50
8.381587
 51
45.110793
  0
LINE
  5
5F1
330
70
100
AcDbEntity
  8
表示
100
AcDbLine
 10
50.686637
 20
133.696585
 30
37.198291
 11
60.436842
 21
133.696585
 31
37.198291
210
-0.7071067811866527
220
0.4071957137922735
230
0.578093115915639
  0
LINE
  5
5F2
330
70
100
AcDbEntity
  8
表示
100
AcDbLine
 10
47.85821
 20
126.982167
 30
27.665875
 11
47.85821
 21
126.453033
 31
26.914666
210
-0.7071067811866527
220
0.4071957137922735
230
0.578093115915639
  0
LINE
  5
5F3
330
70
100
AcDbEntity
  8
表示
100
AcDbLine
 10
50.405875
 20
134.512746
 30
36.279985
 11
49.272424
 21
133.699741
 31
35.466243
210
-0.7071067811866527
220
0.4071957137922735
230
0.578093115915639
  0
LINE
  5
5F4
330
70
100
AcDbEntity
  8
細線
100
AcDbLine
 10
64.814357
 20
126.123983
 30
26.447516
 11
71.514211
 21
130.721994
 31
32.975282
210
-0.7071067811866527
220
0.4071957137922735
230
0.578093115915639
  0
LINE
  5
5F5
330
70
100
AcDbEntity
  8
表示
100
AcDbLine
 10
49.982231
 20
133.290945
 30
36.622406
 11
50.686637
 21
133.696585
 31
37.198291
210
-0.7071067811866527
220
0.4071957137922735
230
0.578093115915639
  0
ARC
  5
5F6
330
70
100
AcDbEntity
  8
表示
100
AcDbCircle
 10
139.742035
 20
15.758313
 30
2.426351
 40
28.00000000000001
210
0.7071067811866527
220
-0.4071957137922735
230
-0.578093115915639
100
AcDbArc
 50
109.550227
 51
113.462691
  0
SPLINE
  5
5F7
330
70
100
AcDbEntity
  8
表示
100
AcDbSpline
210
0.5910072402569493
220
0.2345644828368847
230
-0.7718095266031185
 70
    12
 71
     2
 72
     6
 73
     3
 74
     0
 42
0.000000001
 43
0.0000000001
 40
0.0
 40
0.0
 40
0.0
 40
0.5425789032718459
 40
0.5425789032718459
 40
0.5425789032718459
 10
86.64979025567026
 20
98.49339787563167
 30
32.41383332527403
 41
1.0
 10
84.88968805739478
 20
97.10871553710468
 30
30.6452228166545
 41
1.01010743439062
 10
83.10071343918298
 20
95.95969941407885
 30
28.92612596835898
 41
1.016018663333182
1001
ACAD_VIEW_EDGE_ID
1071
      132
1071
       -1
1071
        2
1071
        0
  0
ELLIPSE
  5
5F8
330
70
100
AcDbEntity
  8
表示
100
AcDbEllipse
 10
64.751226
 20
123.968544
 30
23.387454
 11
14.3999954244243
 21
-33.45358899607917
 31
0.8596392386774754
210
0.5910072402606397
220
0.2345644828308935
230
-0.7718095266021133
 40
0.7685693494245102
 41
-0.5400059666274682
 42
-0.4831277170137778
1001
ACAD_VIEW_EDGE_ID
1071
      134
1071
       -1
1071
        2
1071
        0
  0
LINE
  5
5F9
330
70
100
AcDbEntity
  8
細線
100
AcDbLine
 10
67.769393
 20
123.209069
 30
25.467777
 11
74.693096
 21
127.960705
 31
32.213643
210
-0.7071067811866527
220
0.4071957137922735
230
0.578093115915639
  0
SPLINE
  5
5FA
330
70
100
AcDbEntity
  8
表示
100
AcDbSpline
 70
     0
 71
     3
 72
    16
 73
    12
 74
     0
 42
0.000000001
 43
0.0000000001
 40
6.146311129488529
 40
6.146311129488529
 40
6.146311129488529
 40
6.146311129488529
 40
6.330378856021683
 40
6.330378856021683
 40
6.514446582554836
 40
6.514446582554836
 40
6.69851430908799
 40
6.69851430908799
 40
6.882582035621143
 40
6.882582035621143
 40
7.066649762154297
 40
7.066649762154297
 40
7.066649762154297
 40
7.066649762154297
 10
82.04873952243724
 20
94.91001747670088
 30
29.14846821218089
 10
80.85565565896558
 20
94.03297023862752
 30
28.36023473801834
 10
79.63864954039308
 20
93.26778427953241
 30
27.47641146596289
 10
77.18682856460873
 20
91.98975635457918
 30
25.54737866883988
 10
75.95191840487223
 20
91.47679391296652
 30
24.50220599043496
 10
73.49356307031939
 20
90.73041339260589
 30
22.28578044316782
 10
72.26971343967761
 20
90.49699329232272
 30
21.1145699104909
 10
69.8687506183187
 20
90.33851823872556
 30
18.68563438389174
 10
68.69116562582258
 20
90.41415237431738
 30
17.42795578533696
 10
66.43925768922873
 20
90.89629561005905
 30
14.86857277981289
 10
65.36581597231634
 20
91.30383018640532
 30
13.56691725990276
 10
64.3826986179065
 20
91.86996981838456
 30
12.26523687645385
1001
ACAD_VIEW_EDGE_ID
1071
       -1
1071
       -1
1071
        2
1071
        0
  0
LINE
  5
5FB
330
70
100
AcDbEntity
  8
表示
100
AcDbLine
 10
53.684298
 20
98.030769
 30
21.011683
 11
64.382699
 21
91.86997
 31
12.265237
210
-0.7071067811866527
220
0.4071957137922735
230
0.578093115915639
  0
SPLINE
  5
5FC
330
70
100
AcDbEntity
  8
表示
100
AcDbSpline
 70
     0
 71
     3
 72
    16
 73
    12
 74
     0
 42
0.000000001
 43
0.0000000001
 40
3.925057108564504
 40
3.925057108564504
 40
3.925057108564504
 40
3.925057108564504
 40
4.005785528261068
 40
4.005785528261068
 40
4.086513947957631
 40
4.086513947957631
 40
4.167242367654194
 40
4.167242367654194
 40
4.247970787350758
 40
4.247970787350758
 40
4.328699207047323
 40
4.328699207047323
 40
4.328699207047323
 40
4.328699207047323
 10
92.32850246661838
 20
140.39864224252
 30
12.26523687645385
 10
92.75967805558776
 20
140.1503447344344
 30
12.83612783210992
 10
93.17346338405604
 20
139.8718799634621
 30
13.40701838377208
 10
93.96090611218824
 20
139.2588106234998
 30
14.54508177448952
 10
94.33455119390236
 20
138.9242327971569
 30
15.11225380819269
 10
95.03791534259653
 20
138.2042011020244
 30
16.23918585785577
 10
95.36763954798425
 20
137.8187717773644
 30
16.79894507634526
 10
95.98107367059673
 20
137.0025182700001
 30
17.9074054689263
 10
96.26479887765619
 20
136.5717077016215
 30
18.45610585861505
 10
96.78551641902686
 20
135.6697921546406
 30
19.53887459393627
 10
97.02252493519972
 20
135.1986895681593
 30
20.07294217334857
 10
97.23623972522728
 20
134.7096823161105
 30
20.59795438410765
1001
ACAD_VIEW_EDGE_ID
1071
    -8193
1071
       -1
1071
        2
1071
        0
  0
LINE
  5
5FD
330
70
100
AcDbEntity
  8
表示
100
AcDbLine
 10
81.630102
 20
146.559441
 30
21.011683
 11
92.328502
 21
140.398642
 31
12.265237
210
-0.7071067811866527
220
0.4071957137922735
230
0.578093115915639
  0
SPLINE
  5
5FE
330
70
100
AcDbEntity
  8
表示
100
AcDbSpline
 70
     0
 71
     3
 72
    26
 73
    22
 74
     0
 42
0.000000001
 43
0.0000000001
 40
3.925057108564504
 40
3.925057108564504
 40
3.925057108564504
 40
3.925057108564504
 40
4.210728521933548
 40
4.210728521933548
 40
4.515228155018762
 40
4.515228155018762
 40
4.84218387536787
 40
4.84218387536787
 40
5.172713966484915
 40
5.172713966484915
 40
5.501550732472858
 40
5.501550732472858
 40
5.829604920558754
 40
5.829604920558754
 40
6.15849155704425
 40
6.15849155704425
 40
6.489048894342557
 40
6.489048894342557
 40
6.81553223266742
 40
6.81553223266742
 40
7.066649762154297
 40
7.066649762154297
 40
7.066649762154297
 40
7.066649762154297
 10
146.6649346904369
 20
95.2608882643949
 30
-37.05314525972972
 10
147.5232369837176
 20
94.76662484582721
 30
-35.88764759869082
 10
148.2541348685117
 20
94.05788245015401
 30
-34.72227880389619
 10
149.4181128261762
 20
92.27444024170791
 30
-32.4120492895363
 10
149.8322798538092
 20
91.18156739484538
 30
-31.2739615491555
 10
150.3120289274511
 20
88.68105090494372
 30
-29.13349943105641
 10
150.3506595459694
 20
87.25400383081524
 30
-28.14784361081911
 10
150.032071750169
 20
84.24858119398095
 30
-26.51663846133306
 10
149.6699385936181
 20
82.66866800941034
 30
-25.87527834447246
 10
148.5900243600608
 20
79.52874114923815
 30
-25.0210437549813
 10
147.8740576643149
 20
77.96928193365466
 30
-24.80613838926911
 10
146.1621307555178
 20
75.01898526781042
 30
-24.82140717227412
 10
145.1671738346995
 20
73.62831240475634
 30
-25.05051117953371
 10
142.9894672005657
 20
71.14686421444367
 30
-25.92852479348039
 10
141.8067883065268
 20
70.05712905962309
 30
-26.57833758779089
 10
139.3555904287623
 20
68.2903478361859
 30
-28.23349008874174
 10
138.0868785426255
 20
67.61488824282605
 30
-29.24030882810985
 10
135.5875297851771
 20
66.77904429642786
 30
-31.48607371750586
 10
134.3535969175909
 20
66.61252935798575
 30
-32.72155170816404
 10
132.2991235808958
 20
66.82869595989268
 30
-35.00416723874332
 10
131.4503887626597
 20
67.09573938273479
 30
-36.02862240036848
 10
130.6959039197436
 20
67.53021830774469
 30
-37.05314525972972
1001
ACAD_VIEW_EDGE_ID
1071
   -79873
1071
       -1
1071
        2
1071
        0
  0
LINE
  5
5FF
330
70
100
AcDbEntity
  8
表示
100
AcDbLine
 10
96.718478
 20
124.02314
 30
3.780437
 11
146.664935
 21
95.260888
 31
-37.053145
210
-0.7071067811866527
220
0.4071957137922735
230
0.578093115915639
  0
LINE
  5
600
330
70
100
AcDbEntity
  8
表示
100
AcDbLine
 10
82.441085
 20
95.31832
 30
2.397443
 11
130.695904
 21
67.530218
 31
-37.053145
210
-0.7071067811866527
220
0.4071957137922735
230
0.578093115915639
  0
LINE
  5
601
330
70
100
AcDbEntity
  8
表示
100
AcDbLine
 10
65.441035
 20
143.900482
 30
8.337097
 11
67.580629
 21
145.142159
 31
4.825076
210
-0.7071067811866527
220
0.4071957137922735
230
0.578093115915639
  0
LINE
  5
602
330
70
100
AcDbEntity
  8
表示
100
AcDbLine
 10
75.331876
 20
100.074505
 30
28.760013
 11
75.161767
 21
100.112335
 31
28.731859
210
-0.7071067811866527
220
0.4071957137922735
230
0.578093115915639
  0
ELLIPSE
  5
603
330
70
100
AcDbEntity
  8
表示
100
AcDbEllipse
 10
75.24731
 20
100.094762
 30
28.765664
 11
0.0903326597636154
 21
-0.01270889889931
 31
0.1149368619355428
210
0.227816295443065
220
0.9710625153467551
230
-0.0716751478479903
 40
0.5195882505262503
 41
-0.2127167160736005
 42
1.227523120485925
1001
ACAD_VIEW_EDGE_ID
1071
        5
1071
       -1
1071
        3
1071
        0
  0
LINE
  5
604
330
70
100
AcDbEntity
  8
表示
100
AcDbLine
 10
75.149715
 20
100.13039
 30
28.938154
 11
75.323464
 21
100.085922
 31
28.88795
210
-0.7071067811866527
220
0.4071957137922735
230
0.578093115915639
  0
LINE
  5
605
330
70
100
AcDbEntity
  8
表示
100
AcDbLine
 10
51.234849
 20
121.055886
 30
35.651835
 11
46.572972
 21
129.237867
 31
34.673409
210
-0.7071067811866527
220
0.4071957137922735
230
0.578093115915639
  0
LINE
  5
606
330
70
100
AcDbEntity
  8
表示
100
AcDbLine
 10
46.142452
 20
131.541967
 30
36.68467
 11
51.234849
 21
121.055886
 31
35.651835
210
-0.7071067811866527
220
0.4071957137922735
230
0.578093115915639
  0
ELLIPSE
  5
607
330
70
100
AcDbEntity
  8
表示
100
AcDbEllipse
 10
46.104299
 20
131.513092
 30
36.546594
 11
0.0343579883387592
 21
0.0360812002919256
 31
0.1380205179876127
210
0.8382805884971475
220
0.4389537480573546
230
-0.3234273674494425
 40
0.5195882505353961
 41
-1.227523120481241
 42
0.1064570551103552
1001
ACAD_VIEW_EDGE_ID
1071
        9
1071
       -1
1071
        3
1071
        0
  0
LINE
  5
608
330
70
100
AcDbEntity
  8
表示
100
AcDbLine
 10
46.080511
 20
131.587282
 30
36.585628
 11
46.572972
 21
129.237867
 31
34.673409
210
-0.7071067811866527
220
0.4071957137922735
230
0.578093115915639
  0
ELLIPSE
  5
609
330
70
100
AcDbEntity
  8
表示
100
AcDbEllipse
 10
46.111233
 20
131.530073
 30
36.527516
 11
0.0696452573200308
 21
0.1224993838790021
 31
0.0409319781092447
210
0.4534347789234642
220
-0.5035299507898157
230
0.7354280997624685
 40
0.5195882506422434
 41
0.9017105616523632
 42
1.227523120274378
1001
ACAD_VIEW_EDGE_ID
1071
       12
1071
       -1
1071
        3
1071
        0
  0
LINE
  5
60A
330
70
100
AcDbEntity
  8
表示
100
AcDbLine
 10
77.148906
 20
101.392321
 30
30.090506
 11
60.908764
 21
126.571644
 31
29.023032
210
-0.7071067811866527
220
0.4071957137922735
230
0.578093115915639
  0
LINE
  5
60B
330
70
100
AcDbEntity
  8
細線
100
AcDbLine
 10
76.856009
 20
100.898352
 30
30.549711
 11
75.323464
 21
100.085922
 31
28.88795
210
-0.7071067811866527
220
0.4071957137922735
230
0.578093115915639
  0
LINE
  5
60C
330
70
100
AcDbEntity
  8
表示
100
AcDbLine
 10
76.856009
 20
100.898352
 30
30.549711
 11
76.205667
 21
101.151038
 31
30.888296
210
-0.7071067811866527
220
0.4071957137922735
230
0.578093115915639
  0
ELLIPSE
  5
60D
330
70
100
AcDbEntity
  8
表示
100
AcDbEllipse
 10
76.34005
 20
101.246468
 30
31.076272
 11
-0.2983600724529697
 21
0.1163102926681342
 31
0.1560054134785025
210
0.0783361039412408
220
0.8652141653025902
230
-0.4952452957667029
 40
0.7018361144679823
 41
4.709785316139
 42
6.280581642927637
1001
ACAD_VIEW_EDGE_ID
1071
       21
1071
       -1
1071
        3
1071
        0
  0
LINE
  5
60E
330
70
100
AcDbEntity
  8
表示
100
AcDbLine
 10
76.041339
 20
101.36253
 30
31.231788
 11
76.046968
 21
101.366527
 31
31.239662
210
-0.7071067811866527
220
0.4071957137922735
230
0.578093115915639
  0
LINE
  5
60F
330
70
100
AcDbEntity
  8
表示
100
AcDbLine
 10
65.538469
 20
106.44429
 30
38.448529
 11
76.046968
 21
101.366527
 31
31.239662
210
-0.7071067811866527
220
0.4071957137922735
230
0.578093115915639
  0
LINE
  5
610
330
70
100
AcDbEntity
  8
表示
100
AcDbLine
 10
65.538469
 20
106.44429
 30
38.448529
 11
65.5289
 21
106.442197
 31
38.443358
210
-0.7071067811866527
220
0.4071957137922735
230
0.578093115915639
  0
ELLIPSE
  5
611
330
70
100
AcDbEntity
  8
表示
100
AcDbEllipse
 10
65.294165
 20
106.583898
 30
38.653788
 11
-0.2983600724549162
 21
0.1163102926684075
 31
0.1560054134786718
210
0.0783361039412411
220
0.8652141653025902
230
-0.4952452957667031
 40
0.7018361144684022
 41
3.488054839743726
 42
5.058851166534085
1001
ACAD_VIEW_EDGE_ID
1071
       25
1071
       -1
1071
        3
1071
        0
  0
LINE
  5
612
330
70
100
AcDbEntity
  8
表示
100
AcDbLine
 10
65.065721
 20
106.533919
 30
38.530338
 11
64.02688
 21
107.161033
 31
39.461611
210
-0.7071067811866527
220
0.4071957137922735
230
0.578093115915639
  0
LINE
  5
613
330
70
100
AcDbEntity
  8
細線
100
AcDbLine
 10
64.02688
 20
107.161033
 30
39.461611
 11
61.946332
 21
106.058096
 31
37.205641
210
-0.7071067811866527
220
0.4071957137922735
230
0.578093115915639
  0
LINE
  5
614
330
70
100
AcDbEntity
  8
表示
100
AcDbLine
 10
61.946332
 20
106.058096
 30
37.205641
 11
61.19622
 21
105.611404
 31
36.306602
210
-0.7071067811866527
220
0.4071957137922735
230
0.578093115915639
  0
LINE
  5
615
330
70
100
AcDbEntity
  8
表示
100
AcDbLine
 10
61.19622
 20
105.611404
 30
36.306602
 11
62.175691
 21
105.138119
 31
35.634682
210
-0.7071067811866527
220
0.4071957137922735
230
0.578093115915639
  0
LINE
  5
616
330
70
100
AcDbEntity
  8
表示
100
AcDbLine
 10
51.234849
 20
121.055886
 30
35.651835
 11
61.19622
 21
105.611404
 31
36.306602
210
-0.7071067811866527
220
0.4071957137922735
230
0.578093115915639
  0
LINE
  5
617
330
70
100
AcDbEntity
  8
細線
100
AcDbLine
 10
63.823695
 20
107.368659
 30
39.557404
 11
61.946332
 21
106.058096
 31
37.205641
210
-0.7071067811866527
220
0.4071957137922735
230
0.578093115915639
  0
LINE
  5
618
330
70
100
AcDbEntity
  8
表示
100
AcDbLine
 10
47.583553
 20
132.547982
 30
38.48993
 11
63.823695
 21
107.368659
 31
39.557404
210
-0.7071067811866527
220
0.4071957137922735
230
0.578093115915639
  0
LINE
  5
619
330
70
100
AcDbEntity
  8
細線
100
AcDbLine
 10
47.583553
 20
132.547982
 30
38.48993
 11
46.142452
 21
131.541967
 31
36.68467
210
-0.7071067811866527
220
0.4071957137922735
230
0.578093115915639
  0
ARC
  5
61A
330
70
100
AcDbEntity
  8
表示
100
AcDbCircle
 10
61.15313
 20
-46.923148
 30
108.663134
 40
2.850000000000002
210
0.6427876096864261
220
0.4411356560451374
230
0.6262774319734322
100
AcDbArc
 50
227.394698
 51
312.605302
  0
LINE
  5
61B
330
70
100
AcDbEntity
  8
表示
100
AcDbLine
 10
47.723996
 20
132.937324
 30
37.882186
 11
48.252832
 21
132.601251
 31
37.425217
210
-0.7071067811866527
220
0.4071957137922735
230
0.578093115915639
  0
ELLIPSE
  5
61C
330
70
100
AcDbEntity
  8
表示
100
AcDbEllipse
 10
48.43496
 20
132.723038
 30
37.545622
 11
-0.2433749008276789
 21
0.154045804978685
 31
0.2095782757486439
210
0.0783361039416634
220
-0.7576923397929452
230
0.6478933346148367
 40
0.7018361144655411
 41
1.568192662555274
 42
3.138988989346894
1001
ACAD_VIEW_EDGE_ID
1071
       38
1071
       -1
1071
        3
1071
        0
  0
LINE
  5
61D
330
70
100
AcDbEntity
  8
表示
100
AcDbLine
 10
48.677862
 20
132.568674
 30
37.33573
 11
48.685491
 21
132.573776
 31
37.340774
210
-0.7071067811866527
220
0.4071957137922735
230
0.578093115915639
  0
LINE
  5
61E
330
70
100
AcDbEntity
  8
表示
100
AcDbLine
 10
59.19399
 20
127.496013
 30
30.131906
 11
48.685491
 21
132.573776
 31
37.340774
210
-0.7071067811866527
220
0.4071957137922735
230
0.578093115915639
  0
ELLIPSE
  5
61F
330
70
100
AcDbEntity
  8
表示
100
AcDbEllipse
 10
59.480846
 20
127.385607
 30
29.968106
 11
-0.2433749020710547
 21
0.1540458049879041
 31
0.2095782759097607
210
0.0783361039416636
220
-0.7576923397929454
230
0.647893334614837
 40
0.7018361127772418
 41
1.82537440772962
 42
1.917258510377529
1001
ACAD_VIEW_EDGE_ID
1071
       42
1071
       -1
1071
        3
1071
        0
  0
LINE
  5
620
330
70
100
AcDbEntity
  8
表示
100
AcDbLine
 10
59.392778
 20
127.218369
 30
29.783175
 11
60.678608
 21
126.760761
 31
29.092547
210
-0.7071067811866527
220
0.4071957137922735
230
0.578093115915639
  0
LINE
  5
621
330
70
100
AcDbEntity
  8
細線
100
AcDbLine
 10
48.252832
 20
132.601251
 30
37.425217
 11
65.065721
 21
106.533919
 31
38.530338
210
-0.7071067811866527
220
0.4071957137922735
230
0.578093115915639
  0
ELLIPSE
  5
622
330
70
100
AcDbEntity
  8
表示
100
AcDbEllipse
 10
47.751256
 20
132.641387
 30
38.141781
 11
-0.1677029609521462
 21
-0.0934052108533781
 31
0.3481490583457559
210
-0.7270831364725772
220
-0.4893678938473768
230
-0.4815279609000731
 40
0.9845769202556692
 41
0.0000000000333895
 42
2.371388697247046
1001
ACAD_VIEW_EDGE_ID
1071
       46
1071
       -1
1071
        3
1071
        0
  0
ELLIPSE
  5
623
330
70
100
AcDbEntity
  8
表示
100
AcDbEllipse
 10
63.991398
 20
107.462065
 30
39.209254
 11
-0.16770296112742
 21
-0.0934052105815319
 31
0.3481490583341384
210
-0.7270831364725776
220
-0.4893678938473769
230
-0.4815279609000731
 40
0.9845769202830094
 41
-0.8008267923794313
 42
-0.0000000007924987
1001
ACAD_VIEW_EDGE_ID
1071
       47
1071
       -1
1071
        3
1071
        0
  0
LINE
  5
624
330
70
100
AcDbEntity
  8
表示
100
AcDbLine
 10
48.685491
 20
132.573776
 30
37.340774
 11
65.538469
 21
106.44429
 31
38.448529
210
-0.7071067811866527
220
0.4071957137922735
230
0.578093115915639
  0
LINE
  5
625
330
70
100
AcDbEntity
  8
細線
100
AcDbLine
 10
48.677862
 20
132.568674
 30
37.33573
 11
65.5289
 21
106.442197
 31
38.443358
210
-0.7071067811866527
220
0.4071957137922735
230
0.578093115915639
  0
LINE
  5
626
330
70
100
AcDbEntity
  8
細線
100
AcDbLine
 10
59.392778
 20
127.218369
 30
29.783175
 11
76.205667
 21
101.151038
 31
30.888296
210
-0.7071067811866527
220
0.4071957137922735
230
0.578093115915639
  0
ELLIPSE
  5
627
330
70
100
AcDbEntity
  8
表示
100
AcDbEllipse
 10
76.892452
 20
101.238007
 30
30.352184
 11
-0.256454116669607
 21
-0.1543138200980178
 31
0.2616775006063201
210
-0.538961306646177
220
-0.3794997345593793
230
-0.7519977801879517
 40
0.9845769202584852
 41
3.14159265376672
 42
5.512981350979892
1001
ACAD_VIEW_EDGE_ID
1071
       52
1071
       -1
1071
        3
1071
        0
  0
ELLIPSE
  5
628
330
70
100
AcDbEntity
  8
表示
100
AcDbEllipse
 10
60.65231
 20
126.41733
 30
29.28471
 11
-0.2564541167407135
 21
-0.1543138199863542
 31
0.261677500600931
210
-0.538961306646177
220
-0.3794997345593791
230
-0.7519977801879512
 40
0.9845769202686547
 41
2.340765861822909
 42
3.141592653427441
1001
ACAD_VIEW_EDGE_ID
1071
       53
1071
       -1
1071
        3
1071
        0
  0
LINE
  5
629
330
70
100
AcDbEntity
  8
表示
100
AcDbLine
 10
76.046968
 20
101.366527
 30
31.239662
 11
59.19399
 21
127.496013
 31
30.131906
210
-0.7071067811866527
220
0.4071957137922735
230
0.578093115915639
  0
ARC
  5
62A
330
70
100
AcDbEntity
  8
表示
100
AcDbCircle
 10
-61.15313
 20
-46.923148
 30
-112.413134
 40
4.0
210
-0.6427876096864261
220
-0.4411356560451374
230
-0.6262774319734323
100
AcDbArc
 50
186.701776
 51
353.298224
  0
ARC
  5
62B
330
70
100
AcDbEntity
  8
細線
100
AcDbCircle
 10
-61.15313
 20
-46.923148
 30
-110.877719
 40
2.850000000000002
210
-0.6427876096864261
220
-0.4411356560451374
230
-0.6262774319734322
100
AcDbArc
 50
180.763494
 51
359.236506
  0
CIRCLE
  5
62C
330
70
100
AcDbEntity
  8
表示
100
AcDbCircle
 10
-61.15313
 20
-46.923148
 30
-113.163134
 40
4.0
210
-0.6427876096864261
220
-0.4411356560451373
230
-0.6262774319734322
  0
LINE
  5
62D
330
70
100
AcDbEntity
  8
表示
100
AcDbLine
 10
46.109315
 20
131.619366
 30
36.589836
 11
47.52025
 21
132.956178
 31
38.170672
210
-0.7071067811866527
220
0.4071957137922735
230
0.578093115915639
  0
LINE
  5
62E
330
70
100
AcDbEntity
  8
表示
100
AcDbLine
 10
75.353807
 20
100.07425
 30
28.826266
 11
77.084745
 21
100.898667
 31
30.385616
210
-0.7071067811866527
220
0.4071957137922735
230
0.578093115915639
  0
LINE
  5
62F
330
70
100
AcDbEntity
  8
表示
100
AcDbLine
 10
56.401804
 20
139.472878
 30
28.999394
 11
52.490025
 21
136.228138
 31
36.987189
210
-0.7071067811866527
220
0.4071957137922735
230
0.578093115915639
  0
LINE
  5
630
330
70
100
AcDbEntity
  8
表示
100
AcDbLine
 10
49.518881
 20
135.882926
 30
37.756948
 11
56.401804
 21
139.472878
 31
28.999394
210
-0.7071067811866527
220
0.4071957137922735
230
0.578093115915639
  0
ELLIPSE
  5
631
330
70
100
AcDbEntity
  8
表示
100
AcDbEllipse
 10
49.648393
 20
135.859191
 30
37.820333
 11
0.1336160590205012
 21
-0.0210777211292007
 31
0.056872367681535
210
0.0116404623437461
220
-0.9283907300976698
230
-0.3714231440084736
 40
0.5195882505565319
 41
1.914069533090709
 42
3.248049708658617
1001
ACAD_VIEW_EDGE_ID
1071
        9
1071
       -1
1071
        4
1071
        0
  0
LINE
  5
632
330
70
100
AcDbEntity
  8
表示
100
AcDbLine
 10
49.573758
 20
135.841679
 30
37.861765
 11
52.490025
 21
136.228138
 31
36.987189
210
-0.7071067811866527
220
0.4071957137922735
230
0.578093115915639
  0
LINE
  5
633
330
70
100
AcDbEntity
  8
表示
100
AcDbLine
 10
52.490025
 20
136.228138
 30
36.987189
 11
53.80488
 21
135.030895
 31
35.913811
210
-0.7071067811866527
220
0.4071957137922735
230
0.578093115915639
  0
ELLIPSE
  5
634
330
70
100
AcDbEntity
  8
表示
100
AcDbEllipse
 10
49.654212
 20
135.834867
 30
37.828986
 11
0.1040065245983062
 21
0.1027120461091827
 31
0.0128400228680205
210
-0.3112835145302101
220
0.421670481879128
230
-0.8516434572598702
 40
0.5195882505247138
 41
2.928875937458061
 42
4.36911577407382
1001
ACAD_VIEW_EDGE_ID
1071
       12
1071
       -1
1071
        4
1071
        0
  0
LINE
  5
635
330
70
100
AcDbEntity
  8
表示
100
AcDbLine
 10
52.760462
 20
134.741273
 30
36.152157
 11
49.562738
 21
135.725192
 31
37.808117
210
-0.7071067811866527
220
0.4071957137922735
230
0.578093115915639
  0
LINE
  5
636
330
70
100
AcDbEntity
  8
表示
100
AcDbLine
 10
63.768149
 20
144.060341
 30
12.666113
 11
64.760388
 21
144.3676
 31
13.367201
210
-0.7071067811866527
220
0.4071957137922735
230
0.578093115915639
  0
LINE
  5
637
330
70
100
AcDbEntity
  8
表示
100
AcDbLine
 10
64.760388
 20
144.3676
 30
13.367201
 11
65.530837
 21
143.838852
 31
12.61654
210
-0.7071067811866527
220
0.4071957137922735
230
0.578093115915639
  0
LINE
  5
638
330
70
100
AcDbEntity
  8
表示
100
AcDbLine
 10
56.401804
 20
139.472878
 30
28.999394
 11
64.760388
 21
144.3676
 31
13.367201
210
-0.7071067811866527
220
0.4071957137922735
230
0.578093115915639
  0
LINE
  5
639
330
70
100
AcDbEntity
  8
細線
100
AcDbLine
 10
61.090768
 20
143.210476
 30
10.968401
 11
63.768149
 21
144.060341
 31
12.666113
210
-0.7071067811866527
220
0.4071957137922735
230
0.578093115915639
  0
LINE
  5
63A
330
70
100
AcDbEntity
  8
表示
100
AcDbLine
 10
47.463671
 20
135.230553
 30
36.453751
 11
61.090768
 21
143.210476
 31
10.968401
210
-0.7071067811866527
220
0.4071957137922735
230
0.578093115915639
  0
LINE
  5
63B
330
70
100
AcDbEntity
  8
細線
100
AcDbLine
 10
47.463671
 20
135.230553
 30
36.453751
 11
49.518881
 21
135.882926
 31
37.756948
210
-0.7071067811866527
220
0.4071957137922735
230
0.578093115915639
  0
LINE
  5
63C
330
70
100
AcDbEntity
  8
細線
100
AcDbLine
 10
47.736323
 20
134.603325
 30
36.72377
 11
49.562738
 21
135.725192
 31
37.808117
210
-0.7071067811866527
220
0.4071957137922735
230
0.578093115915639
  0
LINE
  5
63D
330
70
100
AcDbEntity
  8
表示
100
AcDbLine
 10
47.736323
 20
134.603325
 30
36.72377
 11
48.303449
 21
134.308277
 31
36.284739
210
-0.7071067811866527
220
0.4071957137922735
230
0.578093115915639
  0
ELLIPSE
  5
63E
330
70
100
AcDbEntity
  8
表示
100
AcDbEllipse
 10
48.134879
 20
134.178681
 30
36.153249
 11
-0.2600491960501643
 21
0.1358568517674197
 31
0.2019946472314636
210
-0.0933573333022756
220
0.7663424904834355
230
-0.6356127717394715
 40
0.7018361144672878
 41
1.568192662551864
 42
3.138988989345336
1001
ACAD_VIEW_EDGE_ID
1071
       38
1071
       -1
1071
        4
1071
        0
  0
LINE
  5
63F
330
70
100
AcDbEntity
  8
表示
100
AcDbLine
 10
48.395368
 20
134.043161
 30
35.951596
 11
48.388307
 21
134.037733
 31
35.946088
210
-0.7071067811866527
220
0.4071957137922735
230
0.578093115915639
  0
LINE
  5
640
330
70
100
AcDbEntity
  8
表示
100
AcDbLine
 10
49.243256
 20
133.450993
 30
35.113098
 11
48.388307
 21
134.037733
 31
35.946088
210
-0.7071067811866527
220
0.4071957137922735
230
0.578093115915639
  0
ELLIPSE
  5
641
330
70
100
AcDbEntity
  8
表示
100
AcDbEllipse
 10
47.694511
 20
134.907642
 30
36.476073
 11
0.2308397780448903
 21
-0.3229107104690007
 31
0.02232158797136
210
0.6754800277234795
220
0.5190841478277536
230
0.5237159340908225
 40
0.9845769202606046
 41
3.141592653729285
 42
5.512981350945053
1001
ACAD_VIEW_EDGE_ID
1071
       46
1071
       -1
1071
        4
1071
        0
  0
ELLIPSE
  5
642
330
70
100
AcDbEntity
  8
表示
100
AcDbEllipse
 10
61.321608
 20
142.887565
 30
10.990723
 11
0.2308397780037611
 21
-0.3229107104930855
 31
0.0223215880482797
210
0.6754800277234794
220
0.5190841478277534
230
0.5237159340908222
 40
0.9845769199732472
 41
3.021192150874249
 42
3.14159265396046
1001
ACAD_VIEW_EDGE_ID
1071
       47
1071
       -1
1071
        4
1071
        0
  0
LINE
  5
643
330
70
100
AcDbEntity
  8
表示
100
AcDbLine
 10
63.768149
 20
144.060341
 30
12.666113
 11
61.113809
 21
143.220652
 31
10.928598
210
-0.7071067811866527
220
0.4071957137922735
230
0.578093115915639
  0
ENDSEC
  0
SECTION
  2
OBJECTS
  0
DICTIONARY
  5
C
330
0
100
AcDbDictionary
281
     1
  3
ACAD_COLOR
350
63
  3
ACAD_DETAILVIEWSTYLE
350
6A
  3
ACAD_GROUP
350
D
  3
ACAD_LAYOUT
350
62
  3
ACAD_MATERIAL
350
10
  3
ACAD_MLEADERSTYLE
350
66
  3
ACAD_MLINESTYLE
350
5F
  3
ACAD_PLOTSETTINGS
350
61
  3
ACAD_PLOTSTYLENAME
350
E
  3
ACAD_SCALELIST
350
42
  3
ACAD_SECTIONVIEWSTYLE
350
68
  3
ACAD_TABLESTYLE
350
64
  3
ACAD_VISUALSTYLE
350
29
  3
ACDB_RECOMPOSE_DATA
350
67A
  3
AcDbVariableDictionary
350
671
  0
DICTIONARY
  5
AA
330
70
100
AcDbDictionary
280
     1
281
     1
  3
ACAD_SORTENTS
360
AB
  0
DICTIONARY
  5
28F
330
28E
100
AcDbDictionary
280
     1
281
     1
  0
DICTIONARY
  5
2D5
330
2D4
100
AcDbDictionary
280
     1
281
     1
  3
ACAD_SORTENTS
360
479
  0
DICTIONARY
  5
2F0
330
2EF
100
AcDbDictionary
280
     1
281
     1
  0
DICTIONARY
  5
2F2
330
2F1
100
AcDbDictionary
280
     1
281
     1
  0
DICTIONARY
  5
2F4
330
2F3
100
AcDbDictionary
280
     1
281
     1
  0
DICTIONARY
  5
2F6
330
2F5
100
AcDbDictionary
280
     1
281
     1
  0
DICTIONARY
  5
2F8
330
2F7
100
AcDbDictionary
280
     1
281
     1
  0
DICTIONARY
  5
2FA
330
2F9
100
AcDbDictionary
280
     1
281
     1
  0
DICTIONARY
  5
2FC
330
2FB
100
AcDbDictionary
280
     1
281
     1
  0
DICTIONARY
  5
2FE
330
2FD
100
AcDbDictionary
280
     1
281
     1
  0
DICTIONARY
  5
300
330
2FF
100
AcDbDictionary
280
     1
281
     1
  0
DICTIONARY
  5
302
330
301
100
AcDbDictionary
280
     1
281
     1
  0
DICTIONARY
  5
304
330
303
100
AcDbDictionary
280
     1
281
     1
  0
DICTIONARY
  5
306
330
305
100
AcDbDictionary
280
     1
281
     1
  0
DICTIONARY
  5
308
330
307
100
AcDbDictionary
280
     1
281
     1
  0
DICTIONARY
  5
30A
330
309
100
AcDbDictionary
280
     1
281
     1
  0
DICTIONARY
  5
30C
330
30B
100
AcDbDictionary
280
     1
281
     1
  0
DICTIONARY
  5
63
102
{ACAD_REACTORS
330
C
102
}
330
C
100
AcDbDictionary
281
     1
  0
DICTIONARY
  5
6A
102
{ACAD_REACTORS
330
C
102
}
330
C
100
AcDbDictionary
281
     1
  3
Imperial24
350
6B
  0
DICTIONARY
  5
D
102
{ACAD_REACTORS
330
C
102
}
330
C
100
AcDbDictionary
281
     1
  0
DICTIONARY
  5
62
102
{ACAD_REACTORS
330
C
102
}
330
C
100
AcDbDictionary
281
     1
  3
Model
350
73
  3
シート1
350
6F
  3
シート2
350
77
  0
DICTIONARY
  5
10
102
{ACAD_REACTORS
330
C
102
}
330
C
100
AcDbDictionary
281
     1
  3
ByBlock
350
19
  3
ByLayer
350
11
  3
Global
350
21
  0
DICTIONARY
  5
66
102
{ACAD_REACTORS
330
C
102
}
330
C
100
AcDbDictionary
281
     1
  3
Standard
350
67
  0
DICTIONARY
  5
5F
102
{ACAD_REACTORS
330
C
102
}
330
C
100
AcDbDictionary
281
     1
  3
Standard
350
60
  0
DICTIONARY
  5
61
102
{ACAD_REACTORS
330
C
102
}
330
C
100
AcDbDictionary
281
     1
  0
ACDBDICTIONARYWDFLT
  5
E
102
{ACAD_REACTORS
330
C
102
}
330
C
100
AcDbDictionary
281
     1
  3
Normal
350
F
100
AcDbDictionaryWithDefault
340
F
  0
DICTIONARY
  5
42
102
{ACAD_REACTORS
330
C
102
}
330
C
100
AcDbDictionary
281
     1
  3
A0
350
43
  3
A1
350
44
  3
A2
350
45
  3
A3
350
46
  3
A4
350
47
  3
A5
350
48
  3
A6
350
49
  3
A7
350
4A
  3
A8
350
4B
  3
A9
350
4C
  3
B0
350
4D
  3
B1
350
4E
  3
B2
350
4F
  3
B3
350
50
  3
B4
350
51
  3
B5
350
52
  3
B6
350
53
  0
DICTIONARY
  5
68
102
{ACAD_REACTORS
330
C
102
}
330
C
100
AcDbDictionary
281
     1
  3
Imperial24
350
69
  0
DICTIONARY
  5
64
102
{ACAD_REACTORS
330
C
102
}
330
C
100
AcDbDictionary
281
     1
  3
Standard
350
65
  0
DICTIONARY
  5
29
102
{ACAD_REACTORS
330
C
102
}
330
C
100
AcDbDictionary
281
     1
  3
2dWireframe
350
2F
  3
Basic
350
2E
  3
Brighten
350
35
  3
ColorChange
350
39
  3
Conceptual
350
32
  3
Dim
350
34
  3
EdgeColorOff
350
41
  3
Facepattern
350
38
  3
Flat
350
2A
  3
FlatWithEdges
350
2B
  3
Gouraud
350
2C
  3
GouraudWithEdges
350
2D
  3
Hidden
350
31
  3
JitterOff
350
3F
  3
Linepattern
350
37
  3
OverhangOff
350
40
  3
Realistic
350
33
  3
Shaded
350
3E
  3
Shaded with edges
350
3D
  3
Shades of Gray
350
3A
  3
Sketchy
350
3B
  3
Thicken
350
36
  3
Wireframe
350
30
  3
X-Ray
350
3C
  0
XRECORD
  5
67A
102
{ACAD_REACTORS
330
C
102
}
330
C
100
AcDbXrecord
280
     1
 90
        1
330
65
  0
DICTIONARY
  5
671
102
{ACAD_REACTORS
330
C
102
}
330
C
100
AcDbDictionary
281
     1
  3
ANNOALLVISIBLE
350
676
  3
CANNOSCALE
350
677
  3
CMLEADERSTYLE
350
673
  3
CTABLESTYLE
350
672
  3
CVIEWDETAILSTYLE
350
674
  3
CVIEWSECTIONSTYLE
350
675
  0
SORTENTSTABLE
  5
AB
102
{ACAD_REACTORS
330
AA
102
}
330
AA
100
AcDbSortentsTable
330
70
  0
SORTENTSTABLE
  5
479
102
{ACAD_REACTORS
330
2D5
102
}
330
2D5
100
AcDbSortentsTable
330
2D4
  0
ACDBDETAILVIEWSTYLE
  5
6B
102
{ACAD_XDICTIONARY
360
67D
102
}
102
{ACAD_REACTORS
330
6A
102
}
330
6A
100
AcDbModelDocViewStyle
 70
     0
  3
Imperial24
290
     0
100
AcDbDetailViewStyle
 70
     0
 71
     0
 90
        3
 71
     1
340
55
 62
   256
 40
0.24
340
0
 62
   256
 40
0.24
300

 40
0.36
280
     3
 71
     2
340
5D
 90
       25
 62
   256
 71
     3
340
55
 62
   256
 40
0.24
 90
        1
 40
0.75
 90
        1
300
%<\AcVar ViewType \f "%tc1">% %<\AcVar ViewDetailId>%\PSCALE %<\AcVar ViewScale \f "%sn">%
 71
     4
340
5D
 90
       25
 62
   256
340
5D
 90
       25
 62
   256
280
     0
  0
LAYOUT
  5
73
102
{ACAD_REACTORS
330
62
102
}
330
62
100
AcDbPlotSettings
  1

  2
AutoCAD PDF (High Quality Print).pc3
  4
ISO_full_bleed_A3_(420.00_x_297.00_MM)
  6

 40
0.0
 41
0.0
 42
0.0
 43
0.0
 44
420.0
 45
297.0
 46
0.0
 47
0.0
 48
0.0
 49
0.0
140
0.0
141
0.0
142
1.0
143
1.357108
 70
 11952
 72
     1
 73
     0
 74
     0
  7

 75
     0
147
0.736861
 76
     0
 77
     2
 78
   300
148
74.992734
149
11.561838
100
AcDbLayout
  1
Model
 70
     1
 71
     0
 10
0.0
 20
0.0
 11
12.0
 21
9.0
 12
0.0
 22
0.0
 32
0.0
 14
0.0
 24
0.0
 34
0.0
 15
0.0
 25
0.0
 35
0.0
146
0.0
 13
0.0
 23
0.0
 33
0.0
 16
1.0
 26
0.0
 36
0.0
 17
0.0
 27
1.0
 37
0.0
 76
     0
330
70
1001
ACAD_PSEXT
1000
AutoCAD PDF (High Quality Print).pc3
1000
DWG To PDF
1000
ファイル
1000

1070
     0
  0
LAYOUT
  5
6F
102
{ACAD_REACTORS
330
62
102
}
330
62
100
AcDbPlotSettings
  1

  2
None
  4

  6

 40
0.0
 41
0.0
 42
0.0
 43
0.0
 44
0.0
 45
0.0
 46
0.0
 47
0.0
 48
0.0
 49
0.0
140
0.0
141
0.0
142
1.0
143
1.0
 70
   688
 72
     0
 73
     0
 74
     5
  7

 75
    16
147
1.0
 76
     0
 77
     2
 78
   300
148
0.0
149
0.0
100
AcDbLayout
  1
シート1
 70
     1
 71
     1
 10
0.0
 20
0.0
 11
12.0
 21
9.0
 12
0.0
 22
0.0
 32
0.0
 14
0.0
 24
0.0
 34
0.0
 15
0.0
 25
0.0
 35
0.0
146
0.0
 13
0.0
 23
0.0
 33
0.0
 16
1.0
 26
0.0
 36
0.0
 17
0.0
 27
1.0
 37
0.0
 76
     0
330
6C
  0
LAYOUT
  5
77
102
{ACAD_REACTORS
330
62
102
}
330
62
100
AcDbPlotSettings
  1

  2
None
  4

  6

 40
0.0
 41
0.0
 42
0.0
 43
0.0
 44
0.0
 45
0.0
 46
0.0
 47
0.0
 48
0.0
 49
0.0
140
0.0
141
0.0
142
1.0
143
1.0
 70
   688
 72
     0
 73
     0
 74
     5
  7

 75
    16
147
1.0
 76
     0
 77
     2
 78
   300
148
0.0
149
0.0
100
AcDbLayout
  1
シート2
 70
     1
 71
     2
 10
0.0
 20
0.0
 11
12.0
 21
9.0
 12
0.0
 22
0.0
 32
0.0
 14
0.0
 24
0.0
 34
0.0
 15
0.0
 25
0.0
 35
0.0
146
0.0
 13
0.0
 23
0.0
 33
0.0
 16
1.0
 26
0.0
 36
0.0
 17
0.0
 27
1.0
 37
0.0
 76
     0
330
74
  0
MATERIAL
  5
19
102
{ACAD_XDICTIONARY
360
1A
102
}
102
{ACAD_REACTORS
330
10
102
}
330
10
100
AcDbMaterial
  1
ByBlock
 72
     0
 43
0.020833
 43
0.0
 43
0.0
 43
0.0
 43
0.0
 43
0.020833
 43
0.0
 43
0.0
 43
0.0
 43
0.0
 43
1.0
 43
0.0
 43
0.0
 43
0.0
 43
0.0
 43
1.0
 77
     0
 47
0.020833
 47
0.0
 47
0.0
 47
0.0
 47
0.0
 47
0.020833
 47
0.0
 47
0.0
 47
0.0
 47
0.0
 47
1.0
 47
0.0
 47
0.0
 47
0.0
 47
0.0
 47
1.0
171
     0
 49
0.020833
 49
0.0
 49
0.0
 49
0.0
 49
0.0
 49
0.020833
 49
0.0
 49
0.0
 49
0.0
 49
0.0
 49
1.0
 49
0.0
 49
0.0
 49
0.0
 49
0.0
 49
1.0
175
     0
142
0.020833
142
0.0
142
0.0
142
0.0
142
0.0
142
0.020833
142
0.0
142
0.0
142
0.0
142
0.0
142
1.0
142
0.0
142
0.0
142
0.0
142
0.0
142
1.0
179
     0
144
0.020833
144
0.0
144
0.0
144
0.0
144
0.0
144
0.020833
144
0.0
144
0.0
144
0.0
144
0.0
144
1.0
144
0.0
144
0.0
144
0.0
144
0.0
144
1.0
147
0.020833
147
0.0
147
0.0
147
0.0
147
0.0
147
0.020833
147
0.0
147
0.0
147
0.0
147
0.0
147
1.0
147
0.0
147
0.0
147
0.0
147
0.0
147
1.0
  0
MATERIAL
  5
11
102
{ACAD_XDICTIONARY
360
12
102
}
102
{ACAD_REACTORS
330
10
102
}
330
10
100
AcDbMaterial
  1
ByLayer
 72
     0
 43
0.020833
 43
0.0
 43
0.0
 43
0.0
 43
0.0
 43
0.020833
 43
0.0
 43
0.0
 43
0.0
 43
0.0
 43
1.0
 43
0.0
 43
0.0
 43
0.0
 43
0.0
 43
1.0
 77
     0
 47
0.020833
 47
0.0
 47
0.0
 47
0.0
 47
0.0
 47
0.020833
 47
0.0
 47
0.0
 47
0.0
 47
0.0
 47
1.0
 47
0.0
 47
0.0
 47
0.0
 47
0.0
 47
1.0
171
     0
 49
0.020833
 49
0.0
 49
0.0
 49
0.0
 49
0.0
 49
0.020833
 49
0.0
 49
0.0
 49
0.0
 49
0.0
 49
1.0
 49
0.0
 49
0.0
 49
0.0
 49
0.0
 49
1.0
175
     0
142
0.020833
142
0.0
142
0.0
142
0.0
142
0.0
142
0.020833
142
0.0
142
0.0
142
0.0
142
0.0
142
1.0
142
0.0
142
0.0
142
0.0
142
0.0
142
1.0
179
     0
144
0.020833
144
0.0
144
0.0
144
0.0
144
0.0
144
0.020833
144
0.0
144
0.0
144
0.0
144
0.0
144
1.0
144
0.0
144
0.0
144
0.0
144
0.0
144
1.0
147
0.020833
147
0.0
147
0.0
147
0.0
147
0.0
147
0.020833
147
0.0
147
0.0
147
0.0
147
0.0
147
1.0
147
0.0
147
0.0
147
0.0
147
0.0
147
1.0
  0
MATERIAL
  5
21
102
{ACAD_XDICTIONARY
360
22
102
}
102
{ACAD_REACTORS
330
10
102
}
330
10
100
AcDbMaterial
  1
Global
 72
     0
 43
0.020833
 43
0.0
 43
0.0
 43
0.0
 43
0.0
 43
0.020833
 43
0.0
 43
0.0
 43
0.0
 43
0.0
 43
1.0
 43
0.0
 43
0.0
 43
0.0
 43
0.0
 43
1.0
 77
     0
 47
0.020833
 47
0.0
 47
0.0
 47
0.0
 47
0.0
 47
0.020833
 47
0.0
 47
0.0
 47
0.0
 47
0.0
 47
1.0
 47
0.0
 47
0.0
 47
0.0
 47
0.0
 47
1.0
171
     0
 49
0.020833
 49
0.0
 49
0.0
 49
0.0
 49
0.0
 49
0.020833
 49
0.0
 49
0.0
 49
0.0
 49
0.0
 49
1.0
 49
0.0
 49
0.0
 49
0.0
 49
0.0
 49
1.0
175
     0
142
0.020833
142
0.0
142
0.0
142
0.0
142
0.0
142
0.020833
142
0.0
142
0.0
142
0.0
142
0.0
142
1.0
142
0.0
142
0.0
142
0.0
142
0.0
142
1.0
179
     0
144
0.020833
144
0.0
144
0.0
144
0.0
144
0.0
144
0.020833
144
0.0
144
0.0
144
0.0
144
0.0
144
1.0
144
0.0
144
0.0
144
0.0
144
0.0
144
1.0
147
0.020833
147
0.0
147
0.0
147
0.0
147
0.0
147
0.020833
147
0.0
147
0.0
147
0.0
147
0.0
147
1.0
147
0.0
147
0.0
147
0.0
147
0.0
147
1.0
  0
MLEADERSTYLE
  5
67
102
{ACAD_REACTORS
330
66
102
}
330
66
100
AcDbMLeaderStyle
179
     2
170
     2
171
     1
172
     0
 90
        2
 40
0.0
 41
0.0
173
     1
 91
-1056964608
340
5B
 92
       -2
290
     1
 42
0.09
291
     1
 43
0.36
  3
Standard
 44
0.18
300

342
55
174
     1
178
     6
175
     1
176
     0
 93
-1056964608
 45
0.18
292
     0
297
     0
 46
0.18
 94
-1056964608
 47
1.0
 49
1.0
140
1.0
293
     1
141
0.0
294
     1
177
     0
142
1.0
295
     0
296
     0
143
0.125
271
     0
272
     9
273
     9
298
     1
  0
MLINESTYLE
  5
60
102
{ACAD_REACTORS
330
5F
102
}
330
5F
100
AcDbMlineStyle
  2
STANDARD
 70
     0
  3

 62
   256
 51
90.0
 52
90.0
 71
     0
  0
ACDBPLACEHOLDER
  5
F
102
{ACAD_REACTORS
330
E
102
}
330
E
  0
SCALE
  5
43
102
{ACAD_REACTORS
330
42
102
}
330
42
100
AcDbScale
 70
     0
300
1:1
140
1.0
141
1.0
290
     1
  0
SCALE
  5
44
102
{ACAD_REACTORS
330
42
102
}
330
42
100
AcDbScale
 70
     0
300
1:2
140
1.0
141
2.0
290
     0
  0
SCALE
  5
45
102
{ACAD_REACTORS
330
42
102
}
330
42
100
AcDbScale
 70
     0
300
1:4
140
1.0
141
4.0
290
     0
  0
SCALE
  5
46
102
{ACAD_REACTORS
330
42
102
}
330
42
100
AcDbScale
 70
     0
300
1:5
140
1.0
141
5.0
290
     0
  0
SCALE
  5
47
102
{ACAD_REACTORS
330
42
102
}
330
42
100
AcDbScale
 70
     0
300
1:8
140
1.0
141
8.0
290
     0
  0
SCALE
  5
48
102
{ACAD_REACTORS
330
42
102
}
330
42
100
AcDbScale
 70
     0
300
1:10
140
1.0
141
10.0
290
     0
  0
SCALE
  5
49
102
{ACAD_REACTORS
330
42
102
}
330
42
100
AcDbScale
 70
     0
300
1:16
140
1.0
141
16.0
290
     0
  0
SCALE
  5
4A
102
{ACAD_REACTORS
330
42
102
}
330
42
100
AcDbScale
 70
     0
300
1:20
140
1.0
141
20.0
290
     0
  0
SCALE
  5
4B
102
{ACAD_REACTORS
330
42
102
}
330
42
100
AcDbScale
 70
     0
300
1:30
140
1.0
141
30.0
290
     0
  0
SCALE
  5
4C
102
{ACAD_REACTORS
330
42
102
}
330
42
100
AcDbScale
 70
     0
300
1:40
140
1.0
141
40.0
290
     0
  0
SCALE
  5
4D
102
{ACAD_REACTORS
330
42
102
}
330
42
100
AcDbScale
 70
     0
300
1:50
140
1.0
141
50.0
290
     0
  0
SCALE
  5
4E
102
{ACAD_REACTORS
330
42
102
}
330
42
100
AcDbScale
 70
     0
300
1:100
140
1.0
141
100.0
290
     0
  0
SCALE
  5
4F
102
{ACAD_REACTORS
330
42
102
}
330
42
100
AcDbScale
 70
     0
300
2:1
140
2.0
141
1.0
290
     0
  0
SCALE
  5
50
102
{ACAD_REACTORS
330
42
102
}
330
42
100
AcDbScale
 70
     0
300
4:1
140
4.0
141
1.0
290
     0
  0
SCALE
  5
51
102
{ACAD_REACTORS
330
42
102
}
330
42
100
AcDbScale
 70
     0
300
8:1
140
8.0
141
1.0
290
     0
  0
SCALE
  5
52
102
{ACAD_REACTORS
330
42
102
}
330
42
100
AcDbScale
 70
     0
300
10:1
140
10.0
141
1.0
290
     0
  0
SCALE
  5
53
102
{ACAD_REACTORS
330
42
102
}
330
42
100
AcDbScale
 70
     0
300
100:1
140
100.0
141
1.0
290
     0
  0
ACDBSECTIONVIEWSTYLE
  5
69
102
{ACAD_XDICTIONARY
360
67B
102
}
102
{ACAD_REACTORS
330
68
102
}
330
68
100
AcDbModelDocViewStyle
 70
     0
  3
Imperial24
290
     0
100
AcDbSectionViewStyle
 70
     0
 71
     0
 90
       78
 71
     1
340
55
 62
   256
 40
0.24
340
0
340
0
 62
   256
 40
0.24
300
I, O, Q, S, X, Z
 40
0.48
 90
        3
 40
0.18
 90
        1
 71
     2
340
5D
 90
       25
 62
   256
340
5D
 90
       50
 62
   256
 40
0.24
 40
0.0
 40
0.24
 71
     3
340
55
 62
   256
 40
0.24
 90
        1
 40
0.75
 90
        1
300
%<\AcVar ViewType \f "%tc1">% %<\AcVar ViewSectionStartId>%-%<\AcVar ViewSectionEndId>%\PSCALE %<\AcVar ViewScale \f "%sn">%
 71
     4
 62
   256
 62
   257
300
ANSI31
 40
1.0
 90
        0
290
     0
290
     0
 90
        6
 40
0.0
 40
1.570796
 40
0.261799
 40
1.308997
 40
-0.261799
 40
1.832596
  0
TABLESTYLE
  5
65
102
{ACAD_XDICTIONARY
360
678
102
}
102
{ACAD_REACTORS
330
64
102
}
330
64
100
AcDbTableStyle
280
     0
  3
Standard
 70
     0
 71
     0
 40
1.5
 41
1.5
280
     0
281
     0
  7
Standard
140
0.18
170
     2
 62
     0
 63
     7
283
     0
 90
      512
 91
        0
  1

274
    -2
284
     1
 64
     0
275
    -2
285
     1
 65
     0
276
    -2
286
     1
 66
     0
277
    -2
287
     1
 67
     0
278
    -2
288
     1
 68
     0
279
    -2
289
     1
 69
     0
  7
Standard
140
0.25
170
     5
 62
     0
 63
     7
283
     0
 90
      512
 91
        0
  1

274
    -2
284
     1
 64
     0
275
    -2
285
     1
 65
     0
276
    -2
286
     1
 66
     0
277
    -2
287
     1
 67
     0
278
    -2
288
     1
 68
     0
279
    -2
289
     1
 69
     0
  7
Standard
140
0.18
170
     5
 62
     0
 63
     7
283
     0
 90
      512
 91
        0
  1

274
    -2
284
     1
 64
     0
275
    -2
285
     1
 65
     0
276
    -2
286
     1
 66
     0
277
    -2
287
     1
 67
     0
278
    -2
288
     1
 68
     0
279
    -2
289
     1
 69
     0
  0
VISUALSTYLE
  5
2F
102
{ACAD_REACTORS
330
29
102
}
330
29
100
AcDbVisualStyle
  2
2dWireframe
 70
     4
177
     3
291
     0
 70
    58
 90
        0
176
     1
 90
        2
176
     1
 90
        0
176
     1
 90
        0
176
     1
 40
0.6
176
     1
 40
30.0
176
     1
 62
     7
420
 16777215
176
     1
 90
        1
176
     1
 90
        4
176
     1
 62
     7
176
     1
 62
   257
176
     1
 90
        1
176
     1
 90
        1
176
     1
 40
1.0
176
     1
 90
        0
176
     1
 62
   257
176
     1
 40
1.0
176
     1
 90
        1
176
     1
 90
        6
176
     1
 90
        2
176
     1
 62
     7
176
     1
 90
        5
176
     1
 90
        0
176
     1
 90
        0
176
     1
290
     0
176
     1
 90
        1
176
     1
 40
0.0
176
     1
 90
        0
176
     1
290
     1
176
     1
290
     1
176
     1
290
     0
176
     1
290
     0
176
     1
290
     0
176
     1
290
     0
176
     1
290
     0
176
     1
290
     0
176
     1
290
     0
176
     1
 90
       50
176
     1
 40
0.0
176
     1
 40
1.0
176
     1
 90
        0
176
     1
 62
    18
420
        0
176
     1
 90
       50
176
     1
 90
        3
176
     1
 62
     5
420
      255
176
     1
290
     0
176
     1
 90
       50
176
     1
 90
       50
176
     1
 90
       50
176
     1
290
     0
176
     1
 90
       50
176
     1
 62
   256
176
     0
 40
1.0
176
     0
 90
        2
176
     1
  1
strokes_ogs.tif
176
     1
290
     0
176
     1
 40
1.0
176
     1
 40
1.0
176
     1
1001
ACAD
1000
AcDbSavedByObjectVersion
1070
     0
  0
VISUALSTYLE
  5
2E
102
{ACAD_REACTORS
330
29
102
}
330
29
100
AcDbVisualStyle
  2
Basic
 70
     7
177
     3
291
     1
 70
    58
 90
        1
176
     1
 90
        0
176
     1
 90
        1
176
     1
 90
        0
176
     1
 40
0.6
176
     1
 40
30.0
176
     1
 62
     7
420
 16777215
176
     1
 90
        0
176
     1
 90
        4
176
     1
 62
     7
176
     1
 62
   257
176
     1
 90
        1
176
     1
 90
        1
176
     1
 40
1.0
176
     1
 90
        8
176
     1
 62
     7
176
     1
 40
1.0
176
     1
 90
        1
176
     1
 90
        6
176
     1
 90
        2
176
     1
 62
     7
176
     1
 90
        5
176
     1
 90
        0
176
     1
 90
        0
176
     1
290
     0
176
     1
 90
        1
176
     1
 40
0.0
176
     1
 90
        0
176
     1
290
     0
176
     1
290
     1
176
     1
290
     1
176
     1
290
     0
176
     1
290
     0
176
     1
290
     0
176
     1
290
     0
176
     1
290
     0
176
     1
290
     0
176
     1
 90
       50
176
     1
 40
0.0
176
     1
 40
1.0
176
     1
 90
        0
176
     1
 62
    18
420
        0
176
     1
 90
       50
176
     1
 90
        3
176
     1
 62
     5
420
      255
176
     1
290
     0
176
     1
 90
       50
176
     1
 90
       50
176
     1
 90
       50
176
     1
290
     0
176
     1
 90
       50
176
     1
 62
   256
176
     0
 40
1.0
176
     0
 90
        2
176
     1
  1
strokes_ogs.tif
176
     1
290
     0
176
     1
 40
1.0
176
     1
 40
1.0
176
     1
1001
ACAD
1000
AcDbSavedByObjectVersion
1070
     0
  0
VISUALSTYLE
  5
35
102
{ACAD_REACTORS
330
29
102
}
330
29
100
AcDbVisualStyle
  2
Brighten
 70
    12
177
     3
291
     1
 70
    58
 90
        2
176
     1
 90
        2
176
     1
 90
        0
176
     1
 90
        0
176
     1
 40
0.6
176
     1
 40
30.0
176
     1
 62
     7
420
 16777215
176
     1
 90
        1
176
     1
 90
        4
176
     1
 62
     7
176
     1
 62
   257
176
     1
 90
        1
176
     1
 90
        1
176
     1
 40
1.0
176
     1
 90
        8
176
     1
 62
     7
176
     1
 40
1.0
176
     1
 90
        1
176
     1
 90
        6
176
     1
 90
        2
176
     1
 62
     7
176
     1
 90
        5
176
     1
 90
        0
176
     1
 90
        0
176
     1
290
     0
176
     1
 90
        1
176
     1
 40
50.0
176
     1
 90
        0
176
     1
290
     0
176
     1
290
     1
176
     1
290
     1
176
     1
290
     0
176
     1
290
     0
176
     1
290
     0
176
     1
290
     0
176
     1
290
     0
176
     1
290
     0
176
     1
 90
       50
176
     1
 40
0.0
176
     1
 40
1.0
176
     1
 90
        0
176
     1
 62
    18
420
        0
176
     1
 90
       50
176
     1
 90
        3
176
     1
 62
     5
420
      255
176
     1
290
     0
176
     1
 90
       50
176
     1
 90
       50
176
     1
 90
       50
176
     1
290
     0
176
     1
 90
       50
176
     1
 62
   256
176
     0
 40
1.0
176
     0
 90
        2
176
     1
  1
strokes_ogs.tif
176
     1
290
     0
176
     1
 40
1.0
176
     1
 40
1.0
176
     1
1001
ACAD
1000
AcDbSavedByObjectVersion
1070
     0
  0
VISUALSTYLE
  5
39
102
{ACAD_REACTORS
330
29
102
}
330
29
100
AcDbVisualStyle
  2
ColorChange
 70
    16
177
     3
291
     1
 70
    58
 90
        2
176
     1
 90
        2
176
     1
 90
        3
176
     1
 90
        0
176
     1
 40
0.6
176
     1
 40
30.0
176
     1
 62
     8
420
  8421504
176
     1
 90
        1
176
     1
 90
        4
176
     1
 62
     7
176
     1
 62
   257
176
     1
 90
        1
176
     1
 90
        1
176
     1
 40
1.0
176
     1
 90
        8
176
     1
 62
     8
420
  8421504
176
     1
 40
1.0
176
     1
 90
        1
176
     1
 90
        6
176
     1
 90
        2
176
     1
 62
     7
176
     1
 90
        5
176
     1
 90
        0
176
     1
 90
        0
176
     1
290
     0
176
     1
 90
        1
176
     1
 40
0.0
176
     1
 90
        0
176
     1
290
     0
176
     1
290
     1
176
     1
290
     1
176
     1
290
     0
176
     1
290
     0
176
     1
290
     0
176
     1
290
     0
176
     1
290
     0
176
     1
290
     0
176
     1
 90
       50
176
     1
 40
0.0
176
     1
 40
1.0
176
     1
 90
        0
176
     1
 62
    18
420
        0
176
     1
 90
       50
176
     1
 90
        3
176
     1
 62
     5
420
      255
176
     1
290
     0
176
     1
 90
       50
176
     1
 90
       50
176
     1
 90
       50
176
     1
290
     0
176
     1
 90
       50
176
     1
 62
   256
176
     0
 40
1.0
176
     0
 90
        2
176
     1
  1
strokes_ogs.tif
176
     1
290
     0
176
     1
 40
1.0
176
     1
 40
1.0
176
     1
1001
ACAD
1000
AcDbSavedByObjectVersion
1070
     0
  0
VISUALSTYLE
  5
32
102
{ACAD_REACTORS
330
29
102
}
330
29
100
AcDbVisualStyle
  2
Conceptual
 70
     9
177
     3
291
     0
 70
    58
 90
        3
176
     1
 90
        2
176
     1
 90
        0
176
     1
 90
        0
176
     1
 40
0.6
176
     1
 40
30.0
176
     1
 62
     7
420
 16777215
176
     1
 90
        2
176
     1
 90
        2
176
     1
 62
     7
176
     1
 62
   257
176
     1
 90
        1
176
     1
 90
        1
176
     1
 40
179.0
176
     1
 90
        8
176
     1
 62
     7
176
     1
 40
1.0
176
     1
 90
        1
176
     1
 90
        6
176
     1
 90
        2
176
     1
 62
     7
176
     1
 90
        3
176
     1
 90
        0
176
     1
 90
        0
176
     1
290
     0
176
     1
 90
        1
176
     1
 40
0.0
176
     1
 90
        0
176
     1
290
     0
176
     1
290
     1
176
     1
290
     1
176
     1
290
     0
176
     1
290
     0
176
     1
290
     0
176
     1
290
     0
176
     1
290
     0
176
     1
290
     0
176
     1
 90
       50
176
     1
 40
0.0
176
     1
 40
1.0
176
     1
 90
        0
176
     1
 62
    18
420
        0
176
     1
 90
       50
176
     1
 90
        3
176
     1
 62
     5
420
      255
176
     1
290
     0
176
     1
 90
       50
176
     1
 90
       50
176
     1
 90
       50
176
     1
290
     0
176
     1
 90
       50
176
     1
 62
   256
176
     0
 40
1.0
176
     0
 90
        2
176
     1
  1
strokes_ogs.tif
176
     1
290
     0
176
     1
 40
1.0
176
     1
 40
1.0
176
     1
1001
ACAD
1000
AcDbSavedByObjectVersion
1070
     0
  0
VISUALSTYLE
  5
34
102
{ACAD_REACTORS
330
29
102
}
330
29
100
AcDbVisualStyle
  2
Dim
 70
    11
177
     3
291
     1
 70
    58
 90
        2
176
     1
 90
        2
176
     1
 90
        0
176
     1
 90
        0
176
     1
 40
0.6
176
     1
 40
30.0
176
     1
 62
     7
420
 16777215
176
     1
 90
        1
176
     1
 90
        4
176
     1
 62
     7
176
     1
 62
   257
176
     1
 90
        1
176
     1
 90
        1
176
     1
 40
1.0
176
     1
 90
        8
176
     1
 62
     7
176
     1
 40
1.0
176
     1
 90
        1
176
     1
 90
        6
176
     1
 90
        2
176
     1
 62
     7
176
     1
 90
        5
176
     1
 90
        0
176
     1
 90
        0
176
     1
290
     0
176
     1
 90
        1
176
     1
 40
-50.0
176
     1
 90
        0
176
     1
290
     0
176
     1
290
     1
176
     1
290
     1
176
     1
290
     0
176
     1
290
     0
176
     1
290
     0
176
     1
290
     0
176
     1
290
     0
176
     1
290
     0
176
     1
 90
       50
176
     1
 40
0.0
176
     1
 40
1.0
176
     1
 90
        0
176
     1
 62
    18
420
        0
176
     1
 90
       50
176
     1
 90
        3
176
     1
 62
     5
420
      255
176
     1
290
     0
176
     1
 90
       50
176
     1
 90
       50
176
     1
 90
       50
176
     1
290
     0
176
     1
 90
       50
176
     1
 62
   256
176
     0
 40
1.0
176
     0
 90
        2
176
     1
  1
strokes_ogs.tif
176
     1
290
     0
176
     1
 40
1.0
176
     1
 40
1.0
176
     1
1001
ACAD
1000
AcDbSavedByObjectVersion
1070
     0
  0
VISUALSTYLE
  5
41
102
{ACAD_REACTORS
330
29
102
}
330
29
100
AcDbVisualStyle
  2
EdgeColorOff
 70
    22
177
     3
291
     1
 70
    58
 90
        2
176
     0
 90
        2
176
     0
 90
        0
176
     0
 90
        0
176
     0
 40
0.6
176
     0
 40
30.0
176
     0
 62
     7
420
 16777215
176
     0
 90
        1
176
     0
 90
        4
176
     0
 62
     7
176
     0
 62
   257
176
     0
 90
        1
176
     0
 90
        1
176
     0
 40
1.0
176
     0
 90
        8
176
     2
 62
     7
176
     0
 40
1.0
176
     0
 90
        1
176
     0
 90
        6
176
     0
 90
        2
176
     0
 62
     7
176
     0
 90
        5
176
     0
 90
        0
176
     0
 90
        0
176
     0
290
     0
176
     0
 90
        1
176
     0
 40
0.0
176
     0
 90
        0
176
     0
290
     0
176
     0
290
     1
176
     0
290
     1
176
     0
290
     0
176
     0
290
     0
176
     0
290
     0
176
     0
290
     0
176
     0
290
     0
176
     0
290
     0
176
     0
 90
       50
176
     0
 40
0.0
176
     0
 40
1.0
176
     0
 90
        0
176
     0
 62
    18
420
        0
176
     0
 90
       50
176
     0
 90
        3
176
     0
 62
     5
420
      255
176
     0
290
     0
176
     0
 90
       50
176
     0
 90
       50
176
     0
 90
       50
176
     0
290
     0
176
     0
 90
       50
176
     0
 62
   256
176
     0
 40
1.0
176
     0
 90
        2
176
     0
  1
strokes_ogs.tif
176
     0
290
     0
176
     0
 40
1.0
176
     0
 40
1.0
176
     0
1001
ACAD
1000
AcDbSavedByObjectVersion
1070
     0
  0
VISUALSTYLE
  5
38
102
{ACAD_REACTORS
330
29
102
}
330
29
100
AcDbVisualStyle
  2
Facepattern
 70
    15
177
     3
291
     1
 70
    58
 90
        2
176
     1
 90
        2
176
     1
 90
        0
176
     1
 90
        0
176
     1
 40
0.6
176
     1
 40
30.0
176
     1
 62
     7
420
 16777215
176
     1
 90
        1
176
     1
 90
        4
176
     1
 62
     7
176
     1
 62
   257
176
     1
 90
        1
176
     1
 90
        1
176
     1
 40
1.0
176
     1
 90
        8
176
     1
 62
     7
176
     1
 40
1.0
176
     1
 90
        1
176
     1
 90
        6
176
     1
 90
        2
176
     1
 62
     7
176
     1
 90
        5
176
     1
 90
        0
176
     1
 90
        0
176
     1
290
     0
176
     1
 90
        1
176
     1
 40
0.0
176
     1
 90
        0
176
     1
290
     0
176
     1
290
     1
176
     1
290
     1
176
     1
290
     0
176
     1
290
     0
176
     1
290
     0
176
     1
290
     0
176
     1
290
     0
176
     1
290
     0
176
     1
 90
       50
176
     1
 40
0.0
176
     1
 40
1.0
176
     1
 90
        0
176
     1
 62
    18
420
        0
176
     1
 90
       50
176
     1
 90
        3
176
     1
 62
     5
420
      255
176
     1
290
     0
176
     1
 90
       50
176
     1
 90
       50
176
     1
 90
       50
176
     1
290
     0
176
     1
 90
       50
176
     1
 62
   256
176
     0
 40
1.0
176
     0
 90
        2
176
     1
  1
strokes_ogs.tif
176
     1
290
     0
176
     1
 40
1.0
176
     1
 40
1.0
176
     1
1001
ACAD
1000
AcDbSavedByObjectVersion
1070
     0
  0
VISUALSTYLE
  5
2A
102
{ACAD_REACTORS
330
29
102
}
330
29
100
AcDbVisualStyle
  2
Flat
 70
     0
177
     3
291
     1
 70
    58
 90
        2
176
     1
 90
        1
176
     1
 90
        1
176
     1
 90
        2
176
     1
 40
0.6
176
     1
 40
30.0
176
     1
 62
     7
420
 16777215
176
     1
 90
        0
176
     1
 90
        0
176
     1
 62
     7
176
     1
 62
   257
176
     1
 90
        1
176
     1
 90
        1
176
     1
 40
1.0
176
     1
 90
        8
176
     1
 62
     7
176
     1
 40
1.0
176
     1
 90
        1
176
     1
 90
        6
176
     1
 90
        2
176
     1
 62
     7
176
     1
 90
        5
176
     1
 90
        0
176
     1
 90
        0
176
     1
290
     0
176
     1
 90
       13
176
     1
 40
0.0
176
     1
 90
        0
176
     1
290
     0
176
     1
290
     1
176
     1
290
     1
176
     1
290
     0
176
     1
290
     0
176
     1
290
     0
176
     1
290
     0
176
     1
290
     0
176
     1
290
     0
176
     1
 90
       50
176
     1
 40
0.0
176
     1
 40
1.0
176
     1
 90
        0
176
     1
 62
    18
420
        0
176
     1
 90
       50
176
     1
 90
        3
176
     1
 62
     5
420
      255
176
     1
290
     0
176
     1
 90
       50
176
     1
 90
       50
176
     1
 90
       50
176
     1
290
     0
176
     1
 90
       50
176
     1
 62
   256
176
     0
 40
1.0
176
     0
 90
        2
176
     1
  1
strokes_ogs.tif
176
     1
290
     0
176
     1
 40
1.0
176
     1
 40
1.0
176
     1
1001
ACAD
1000
AcDbSavedByObjectVersion
1070
     0
  0
VISUALSTYLE
  5
2B
102
{ACAD_REACTORS
330
29
102
}
330
29
100
AcDbVisualStyle
  2
FlatWithEdges
 70
     1
177
     3
291
     1
 70
    58
 90
        2
176
     1
 90
        1
176
     1
 90
        1
176
     1
 90
        2
176
     1
 40
0.6
176
     1
 40
30.0
176
     1
 62
     7
420
 16777215
176
     1
 90
        1
176
     1
 90
        0
176
     1
 62
     7
176
     1
 62
   257
176
     1
 90
        1
176
     1
 90
        1
176
     1
 40
1.0
176
     1
 90
        0
176
     1
 62
   257
176
     1
 40
1.0
176
     1
 90
        1
176
     1
 90
        6
176
     1
 90
        2
176
     1
 62
     7
176
     1
 90
        5
176
     1
 90
        0
176
     1
 90
        0
176
     1
290
     0
176
     1
 90
       13
176
     1
 40
0.0
176
     1
 90
        0
176
     1
290
     0
176
     1
290
     1
176
     1
290
     1
176
     1
290
     0
176
     1
290
     0
176
     1
290
     0
176
     1
290
     0
176
     1
290
     0
176
     1
290
     0
176
     1
 90
       50
176
     1
 40
0.0
176
     1
 40
1.0
176
     1
 90
        0
176
     1
 62
    18
420
        0
176
     1
 90
       50
176
     1
 90
        3
176
     1
 62
     5
420
      255
176
     1
290
     0
176
     1
 90
       50
176
     1
 90
       50
176
     1
 90
       50
176
     1
290
     0
176
     1
 90
       50
176
     1
 62
   256
176
     0
 40
1.0
176
     0
 90
        2
176
     1
  1
strokes_ogs.tif
176
     1
290
     0
176
     1
 40
1.0
176
     1
 40
1.0
176
     1
1001
ACAD
1000
AcDbSavedByObjectVersion
1070
     0
  0
VISUALSTYLE
  5
2C
102
{ACAD_REACTORS
330
29
102
}
330
29
100
AcDbVisualStyle
  2
Gouraud
 70
     2
177
     3
291
     1
 70
    58
 90
        2
176
     1
 90
        2
176
     1
 90
        1
176
     1
 90
        2
176
     1
 40
0.6
176
     1
 40
30.0
176
     1
 62
     7
420
 16777215
176
     1
 90
        0
176
     1
 90
        0
176
     1
 62
     7
176
     1
 62
   257
176
     1
 90
        1
176
     1
 90
        1
176
     1
 40
1.0
176
     1
 90
        0
176
     1
 62
     7
176
     1
 40
1.0
176
     1
 90
        1
176
     1
 90
        6
176
     1
 90
        2
176
     1
 62
     7
176
     1
 90
        5
176
     1
 90
        0
176
     1
 90
        0
176
     1
290
     0
176
     1
 90
       13
176
     1
 40
0.0
176
     1
 90
        0
176
     1
290
     0
176
     1
290
     1
176
     1
290
     1
176
     1
290
     0
176
     1
290
     0
176
     1
290
     0
176
     1
290
     0
176
     1
290
     0
176
     1
290
     0
176
     1
 90
       50
176
     1
 40
0.0
176
     1
 40
1.0
176
     1
 90
        0
176
     1
 62
    18
420
        0
176
     1
 90
       50
176
     1
 90
        3
176
     1
 62
     5
420
      255
176
     1
290
     0
176
     1
 90
       50
176
     1
 90
       50
176
     1
 90
       50
176
     1
290
     0
176
     1
 90
       50
176
     1
 62
   256
176
     0
 40
1.0
176
     0
 90
        2
176
     1
  1
strokes_ogs.tif
176
     1
290
     0
176
     1
 40
1.0
176
     1
 40
1.0
176
     1
1001
ACAD
1000
AcDbSavedByObjectVersion
1070
     0
  0
VISUALSTYLE
  5
2D
102
{ACAD_REACTORS
330
29
102
}
330
29
100
AcDbVisualStyle
  2
GouraudWithEdges
 70
     3
177
     3
291
     1
 70
    58
 90
        2
176
     1
 90
        2
176
     1
 90
        1
176
     1
 90
        2
176
     1
 40
0.6
176
     1
 40
30.0
176
     1
 62
     7
420
 16777215
176
     1
 90
        1
176
     1
 90
        0
176
     1
 62
     7
176
     1
 62
   257
176
     1
 90
        1
176
     1
 90
        1
176
     1
 40
1.0
176
     1
 90
        0
176
     1
 62
   257
176
     1
 40
1.0
176
     1
 90
        1
176
     1
 90
        6
176
     1
 90
        2
176
     1
 62
     7
176
     1
 90
        5
176
     1
 90
        0
176
     1
 90
        0
176
     1
290
     0
176
     1
 90
       13
176
     1
 40
0.0
176
     1
 90
        0
176
     1
290
     0
176
     1
290
     1
176
     1
290
     1
176
     1
290
     0
176
     1
290
     0
176
     1
290
     0
176
     1
290
     0
176
     1
290
     0
176
     1
290
     0
176
     1
 90
       50
176
     1
 40
0.0
176
     1
 40
1.0
176
     1
 90
        0
176
     1
 62
    18
420
        0
176
     1
 90
       50
176
     1
 90
        3
176
     1
 62
     5
420
      255
176
     1
290
     0
176
     1
 90
       50
176
     1
 90
       50
176
     1
 90
       50
176
     1
290
     0
176
     1
 90
       50
176
     1
 62
   256
176
     0
 40
1.0
176
     0
 90
        2
176
     1
  1
strokes_ogs.tif
176
     1
290
     0
176
     1
 40
1.0
176
     1
 40
1.0
176
     1
1001
ACAD
1000
AcDbSavedByObjectVersion
1070
     0
  0
VISUALSTYLE
  5
31
102
{ACAD_REACTORS
330
29
102
}
330
29
100
AcDbVisualStyle
  2
Hidden
 70
     6
177
     3
291
     0
 70
    58
 90
        1
176
     1
 90
        2
176
     1
 90
        2
176
     1
 90
        0
176
     1
 40
0.6
176
     1
 40
30.0
176
     1
 62
     7
420
 16777215
176
     1
 90
        2
176
     1
 90
        2
176
     1
 62
     7
176
     1
 62
   257
176
     1
 90
        2
176
     1
 90
        1
176
     1
 40
40.0
176
     1
 90
        0
176
     1
 62
   257
176
     1
 40
1.0
176
     1
 90
        1
176
     1
 90
        6
176
     1
 90
        2
176
     1
 62
     7
176
     1
 90
        3
176
     1
 90
        0
176
     1
 90
        0
176
     1
290
     0
176
     1
 90
        1
176
     1
 40
0.0
176
     1
 90
        0
176
     1
290
     0
176
     1
290
     1
176
     1
290
     1
176
     1
290
     0
176
     1
290
     0
176
     1
290
     0
176
     1
290
     0
176
     1
290
     0
176
     1
290
     0
176
     1
 90
       50
176
     1
 40
0.0
176
     1
 40
1.0
176
     1
 90
        0
176
     1
 62
    18
420
        0
176
     1
 90
       50
176
     1
 90
        3
176
     1
 62
     5
420
      255
176
     1
290
     0
176
     1
 90
       50
176
     1
 90
       50
176
     1
 90
       50
176
     1
290
     0
176
     1
 90
       50
176
     1
 62
   256
176
     0
 40
1.0
176
     0
 90
        2
176
     1
  1
strokes_ogs.tif
176
     1
290
     0
176
     1
 40
1.0
176
     1
 40
1.0
176
     1
1001
ACAD
1000
AcDbSavedByObjectVersion
1070
     0
  0
VISUALSTYLE
  5
3F
102
{ACAD_REACTORS
330
29
102
}
330
29
100
AcDbVisualStyle
  2
JitterOff
 70
    20
177
     3
291
     1
 70
    58
 90
        2
176
     0
 90
        2
176
     0
 90
        0
176
     0
 90
        0
176
     0
 40
0.6
176
     0
 40
30.0
176
     0
 62
     7
420
 16777215
176
     0
 90
        1
176
     0
 90
        4
176
     0
 62
     7
176
     0
 62
   257
176
     0
 90
        1
176
     0
 90
        1
176
     0
 40
1.0
176
     0
 90
       10
176
     2
 62
     7
176
     0
 40
1.0
176
     0
 90
        1
176
     0
 90
        6
176
     0
 90
        2
176
     0
 62
     7
176
     0
 90
        5
176
     0
 90
        0
176
     0
 90
        0
176
     0
290
     0
176
     0
 90
        1
176
     0
 40
0.0
176
     0
 90
        0
176
     0
290
     0
176
     0
290
     1
176
     0
290
     1
176
     0
290
     0
176
     0
290
     0
176
     0
290
     0
176
     0
290
     0
176
     0
290
     0
176
     0
290
     0
176
     0
 90
       50
176
     0
 40
0.0
176
     0
 40
1.0
176
     0
 90
        0
176
     0
 62
    18
420
        0
176
     0
 90
       50
176
     0
 90
        3
176
     0
 62
     5
420
      255
176
     0
290
     0
176
     0
 90
       50
176
     0
 90
       50
176
     0
 90
       50
176
     0
290
     0
176
     0
 90
       50
176
     0
 62
   256
176
     0
 40
1.0
176
     0
 90
        2
176
     0
  1
strokes_ogs.tif
176
     0
290
     0
176
     0
 40
1.0
176
     0
 40
1.0
176
     0
1001
ACAD
1000
AcDbSavedByObjectVersion
1070
     0
  0
VISUALSTYLE
  5
37
102
{ACAD_REACTORS
330
29
102
}
330
29
100
AcDbVisualStyle
  2
Linepattern
 70
    14
177
     3
291
     1
 70
    58
 90
        2
176
     1
 90
        2
176
     1
 90
        0
176
     1
 90
        0
176
     1
 40
0.6
176
     1
 40
30.0
176
     1
 62
     7
420
 16777215
176
     1
 90
        1
176
     1
 90
        4
176
     1
 62
     7
176
     1
 62
   257
176
     1
 90
        7
176
     1
 90
        7
176
     1
 40
1.0
176
     1
 90
        8
176
     1
 62
     7
176
     1
 40
1.0
176
     1
 90
        1
176
     1
 90
        6
176
     1
 90
        2
176
     1
 62
     7
176
     1
 90
        5
176
     1
 90
        0
176
     1
 90
        0
176
     1
290
     0
176
     1
 90
        1
176
     1
 40
0.0
176
     1
 90
        0
176
     1
290
     0
176
     1
290
     1
176
     1
290
     1
176
     1
290
     0
176
     1
290
     0
176
     1
290
     0
176
     1
290
     0
176
     1
290
     0
176
     1
290
     0
176
     1
 90
       50
176
     1
 40
0.0
176
     1
 40
1.0
176
     1
 90
        0
176
     1
 62
    18
420
        0
176
     1
 90
       50
176
     1
 90
        3
176
     1
 62
     5
420
      255
176
     1
290
     0
176
     1
 90
       50
176
     1
 90
       50
176
     1
 90
       50
176
     1
290
     0
176
     1
 90
       50
176
     1
 62
   256
176
     0
 40
1.0
176
     0
 90
        2
176
     1
  1
strokes_ogs.tif
176
     1
290
     0
176
     1
 40
1.0
176
     1
 40
1.0
176
     1
1001
ACAD
1000
AcDbSavedByObjectVersion
1070
     0
  0
VISUALSTYLE
  5
40
102
{ACAD_REACTORS
330
29
102
}
330
29
100
AcDbVisualStyle
  2
OverhangOff
 70
    21
177
     3
291
     1
 70
    58
 90
        2
176
     0
 90
        2
176
     0
 90
        0
176
     0
 90
        0
176
     0
 40
0.6
176
     0
 40
30.0
176
     0
 62
     7
420
 16777215
176
     0
 90
        1
176
     0
 90
        4
176
     0
 62
     7
176
     0
 62
   257
176
     0
 90
        1
176
     0
 90
        1
176
     0
 40
1.0
176
     0
 90
        9
176
     2
 62
     7
176
     0
 40
1.0
176
     0
 90
        1
176
     0
 90
        6
176
     0
 90
        2
176
     0
 62
     7
176
     0
 90
        5
176
     0
 90
        0
176
     0
 90
        0
176
     0
290
     0
176
     0
 90
        1
176
     0
 40
0.0
176
     0
 90
        0
176
     0
290
     0
176
     0
290
     1
176
     0
290
     1
176
     0
290
     0
176
     0
290
     0
176
     0
290
     0
176
     0
290
     0
176
     0
290
     0
176
     0
290
     0
176
     0
 90
       50
176
     0
 40
0.0
176
     0
 40
1.0
176
     0
 90
        0
176
     0
 62
    18
420
        0
176
     0
 90
       50
176
     0
 90
        3
176
     0
 62
     5
420
      255
176
     0
290
     0
176
     0
 90
       50
176
     0
 90
       50
176
     0
 90
       50
176
     0
290
     0
176
     0
 90
       50
176
     0
 62
   256
176
     0
 40
1.0
176
     0
 90
        2
176
     0
  1
strokes_ogs.tif
176
     0
290
     0
176
     0
 40
1.0
176
     0
 40
1.0
176
     0
1001
ACAD
1000
AcDbSavedByObjectVersion
1070
     0
  0
VISUALSTYLE
  5
33
102
{ACAD_REACTORS
330
29
102
}
330
29
100
AcDbVisualStyle
  2
Realistic
 70
     8
177
     3
291
     0
 70
    58
 90
        2
176
     1
 90
        3
176
     1
 90
        0
176
     1
 90
        2
176
     1
 40
0.6
176
     1
 40
30.0
176
     1
 62
     7
420
 16777215
176
     1
 90
        0
176
     1
 90
        0
176
     1
 62
     7
176
     1
 62
   257
176
     1
 90
        1
176
     1
 90
        1
176
     1
 40
1.0
176
     1
 90
        8
176
     1
 62
   257
176
     1
 40
1.0
176
     1
 90
        1
176
     1
 90
        6
176
     1
 90
        2
176
     1
 62
     7
176
     1
 90
        3
176
     1
 90
        0
176
     1
 90
        0
176
     1
290
     0
176
     1
 90
       13
176
     1
 40
0.0
176
     1
 90
        0
176
     1
290
     0
176
     1
290
     1
176
     1
290
     1
176
     1
290
     0
176
     1
290
     0
176
     1
290
     0
176
     1
290
     0
176
     1
290
     0
176
     1
290
     0
176
     1
 90
       50
176
     1
 40
0.0
176
     1
 40
1.0
176
     1
 90
        0
176
     1
 62
    18
420
        0
176
     1
 90
       50
176
     1
 90
        3
176
     1
 62
     5
420
      255
176
     1
290
     0
176
     1
 90
       50
176
     1
 90
       50
176
     1
 90
       50
176
     1
290
     0
176
     1
 90
       50
176
     1
 62
   256
176
     0
 40
1.0
176
     0
 90
        2
176
     1
  1
strokes_ogs.tif
176
     1
290
     0
176
     1
 40
1.0
176
     1
 40
1.0
176
     1
1001
ACAD
1000
AcDbSavedByObjectVersion
1070
     0
  0
VISUALSTYLE
  5
3E
102
{ACAD_REACTORS
330
29
102
}
330
29
100
AcDbVisualStyle
  2
Shaded
 70
    27
177
     3
291
     0
 70
    58
 90
        2
176
     1
 90
        2
176
     1
 90
        1
176
     1
 90
        2
176
     1
 40
0.6
176
     1
 40
30.0
176
     1
 62
     7
420
 16777215
176
     1
 90
        0
176
     1
 90
        4
176
     1
 62
     7
176
     1
 62
   257
176
     1
 90
        1
176
     1
 90
        1
176
     1
 40
1.0
176
     1
 90
        8
176
     1
 62
   257
176
     1
 40
1.0
176
     1
 90
        1
176
     1
 90
        6
176
     1
 90
        2
176
     1
 62
     8
420
  7895160
176
     1
 90
        3
176
     1
 90
        0
176
     1
 90
        0
176
     1
290
     0
176
     1
 90
        5
176
     1
 40
0.0
176
     1
 90
        0
176
     1
290
     0
176
     1
290
     1
176
     1
290
     1
176
     1
290
     0
176
     1
290
     0
176
     1
290
     0
176
     1
290
     0
176
     1
290
     0
176
     1
290
     0
176
     1
 90
       50
176
     1
 40
0.0
176
     1
 40
1.0
176
     1
 90
        0
176
     1
 62
    18
420
        0
176
     1
 90
       50
176
     1
 90
        3
176
     1
 62
     5
420
      255
176
     1
290
     0
176
     1
 90
       50
176
     1
 90
       50
176
     1
 90
       50
176
     1
290
     0
176
     1
 90
       50
176
     1
 62
   256
176
     0
 40
1.0
176
     0
 90
        2
176
     1
  1
strokes_ogs.tif
176
     1
290
     0
176
     1
 40
1.0
176
     1
 40
1.0
176
     1
1001
ACAD
1000
AcDbSavedByObjectVersion
1070
     0
  0
VISUALSTYLE
  5
3D
102
{ACAD_REACTORS
330
29
102
}
330
29
100
AcDbVisualStyle
  2
Shaded with edges
 70
    26
177
     3
291
     0
 70
    58
 90
        2
176
     1
 90
        2
176
     1
 90
        1
176
     1
 90
        2
176
     1
 40
0.6
176
     1
 40
30.0
176
     1
 62
     7
420
 16777215
176
     1
 90
        1
176
     1
 90
        2
176
     1
 62
     7
176
     1
 62
   257
176
     1
 90
        2
176
     1
 90
        1
176
     1
 40
1.0
176
     1
 90
        8
176
     1
 62
   257
176
     1
 40
1.0
176
     1
 90
        1
176
     1
 90
        6
176
     1
 90
        2
176
     1
 62
     7
176
     1
 90
        3
176
     1
 90
        0
176
     1
 90
        0
176
     1
290
     0
176
     1
 90
        5
176
     1
 40
0.0
176
     1
 90
        0
176
     1
290
     0
176
     1
290
     1
176
     1
290
     1
176
     1
290
     0
176
     1
290
     0
176
     1
290
     0
176
     1
290
     0
176
     1
290
     0
176
     1
290
     0
176
     1
 90
       50
176
     1
 40
0.0
176
     1
 40
1.0
176
     1
 90
        0
176
     1
 62
    18
420
        0
176
     1
 90
       50
176
     1
 90
        3
176
     1
 62
     5
420
      255
176
     1
290
     0
176
     1
 90
       50
176
     1
 90
       50
176
     1
 90
       50
176
     1
290
     0
176
     1
 90
       50
176
     1
 62
   256
176
     0
 40
1.0
176
     0
 90
        2
176
     1
  1
strokes_ogs.tif
176
     1
290
     0
176
     1
 40
1.0
176
     1
 40
1.0
176
     1
1001
ACAD
1000
AcDbSavedByObjectVersion
1070
     0
  0
VISUALSTYLE
  5
3A
102
{ACAD_REACTORS
330
29
102
}
330
29
100
AcDbVisualStyle
  2
Shades of Gray
 70
    23
177
     3
291
     0
 70
    58
 90
        2
176
     1
 90
        2
176
     1
 90
        3
176
     1
 90
        0
176
     1
 40
0.6
176
     1
 40
30.0
176
     1
 62
     7
420
 16777215
176
     1
 90
        2
176
     1
 90
        2
176
     1
 62
     7
176
     1
 62
     7
176
     1
 90
        1
176
     1
 90
        1
176
     1
 40
40.0
176
     1
 90
        8
176
     1
 62
     7
176
     1
 40
1.0
176
     1
 90
        1
176
     1
 90
        6
176
     1
 90
        2
176
     1
 62
     7
176
     1
 90
        3
176
     1
 90
        0
176
     1
 90
        0
176
     1
290
     0
176
     1
 90
        1
176
     1
 40
0.0
176
     1
 90
        0
176
     1
290
     0
176
     1
290
     1
176
     1
290
     1
176
     1
290
     0
176
     1
290
     0
176
     1
290
     0
176
     1
290
     0
176
     1
290
     0
176
     1
290
     0
176
     1
 90
       50
176
     1
 40
0.0
176
     1
 40
1.0
176
     1
 90
        0
176
     1
 62
    18
420
        0
176
     1
 90
       50
176
     1
 90
        3
176
     1
 62
     5
420
      255
176
     1
290
     0
176
     1
 90
       50
176
     1
 90
       50
176
     1
 90
       50
176
     1
290
     0
176
     1
 90
       50
176
     1
 62
   256
176
     0
 40
1.0
176
     0
 90
        2
176
     1
  1
strokes_ogs.tif
176
     1
290
     0
176
     1
 40
1.0
176
     1
 40
1.0
176
     1
1001
ACAD
1000
AcDbSavedByObjectVersion
1070
     0
  0
VISUALSTYLE
  5
3B
102
{ACAD_REACTORS
330
29
102
}
330
29
100
AcDbVisualStyle
  2
Sketchy
 70
    24
177
     3
291
     0
 70
    58
 90
        1
176
     1
 90
        2
176
     1
 90
        2
176
     1
 90
        0
176
     1
 40
0.6
176
     1
 40
30.0
176
     1
 62
     7
420
 16777215
176
     1
 90
        2
176
     1
 90
        2
176
     1
 62
     7
176
     1
 62
     7
176
     1
 90
        1
176
     1
 90
        1
176
     1
 40
40.0
176
     1
 90
       11
176
     1
 62
     7
176
     1
 40
1.0
176
     1
 90
        1
176
     1
 90
        6
176
     1
 90
        2
176
     1
 62
     7
176
     1
 90
        6
176
     1
 90
        0
176
     1
 90
        0
176
     1
290
     0
176
     1
 90
        1
176
     1
 40
0.0
176
     1
 90
        0
176
     1
290
     0
176
     1
290
     1
176
     1
290
     1
176
     1
290
     0
176
     1
290
     0
176
     1
290
     0
176
     1
290
     0
176
     1
290
     0
176
     1
290
     0
176
     1
 90
       50
176
     1
 40
0.0
176
     1
 40
1.0
176
     1
 90
        0
176
     1
 62
    18
420
        0
176
     1
 90
       50
176
     1
 90
        3
176
     1
 62
     5
420
      255
176
     1
290
     0
176
     1
 90
       50
176
     1
 90
       50
176
     1
 90
       50
176
     1
290
     0
176
     1
 90
       50
176
     1
 62
   256
176
     0
 40
1.0
176
     0
 90
        2
176
     1
  1
strokes_ogs.tif
176
     1
290
     0
176
     1
 40
1.0
176
     1
 40
1.0
176
     1
1001
ACAD
1000
AcDbSavedByObjectVersion
1070
     0
  0
VISUALSTYLE
  5
36
102
{ACAD_REACTORS
330
29
102
}
330
29
100
AcDbVisualStyle
  2
Thicken
 70
    13
177
     3
291
     1
 70
    58
 90
        2
176
     1
 90
        2
176
     1
 90
        0
176
     1
 90
        0
176
     1
 40
0.6
176
     1
 40
30.0
176
     1
 62
     7
420
 16777215
176
     1
 90
        1
176
     1
 90
        4
176
     1
 62
     7
176
     1
 62
   257
176
     1
 90
        1
176
     1
 90
        1
176
     1
 40
1.0
176
     1
 90
       12
176
     1
 62
     7
176
     1
 40
1.0
176
     1
 90
        1
176
     1
 90
        6
176
     1
 90
        2
176
     1
 62
     7
176
     1
 90
        5
176
     1
 90
        0
176
     1
 90
        0
176
     1
290
     0
176
     1
 90
        1
176
     1
 40
0.0
176
     1
 90
        0
176
     1
290
     0
176
     1
290
     1
176
     1
290
     1
176
     1
290
     0
176
     1
290
     0
176
     1
290
     0
176
     1
290
     0
176
     1
290
     0
176
     1
290
     0
176
     1
 90
       50
176
     1
 40
0.0
176
     1
 40
1.0
176
     1
 90
        0
176
     1
 62
    18
420
        0
176
     1
 90
       50
176
     1
 90
        3
176
     1
 62
     5
420
      255
176
     1
290
     0
176
     1
 90
       50
176
     1
 90
       50
176
     1
 90
       50
176
     1
290
     0
176
     1
 90
       50
176
     1
 62
   256
176
     0
 40
1.0
176
     0
 90
        2
176
     1
  1
strokes_ogs.tif
176
     1
290
     0
176
     1
 40
1.0
176
     1
 40
1.0
176
     1
1001
ACAD
1000
AcDbSavedByObjectVersion
1070
     0
  0
VISUALSTYLE
  5
30
102
{ACAD_REACTORS
330
29
102
}
330
29
100
AcDbVisualStyle
  2
Wireframe
 70
     5
177
     3
291
     0
 70
    58
 90
        0
176
     1
 90
        2
176
     1
 90
        0
176
     1
 90
        0
176
     1
 40
0.6
176
     1
 40
30.0
176
     1
 62
     7
420
 16777215
176
     1
 90
        1
176
     1
 90
        4
176
     1
 62
     7
176
     1
 62
   257
176
     1
 90
        1
176
     1
 90
        1
176
     1
 40
1.0
176
     1
 90
        0
176
     1
 62
   257
176
     1
 40
1.0
176
     1
 90
        1
176
     1
 90
        6
176
     1
 90
        2
176
     1
 62
     7
176
     1
 90
        3
176
     1
 90
        0
176
     1
 90
        0
176
     1
290
     0
176
     1
 90
        1
176
     1
 40
0.0
176
     1
 90
        0
176
     1
290
     0
176
     1
290
     1
176
     1
290
     1
176
     1
290
     0
176
     1
290
     0
176
     1
290
     0
176
     1
290
     0
176
     1
290
     0
176
     1
290
     0
176
     1
 90
       50
176
     1
 40
0.0
176
     1
 40
1.0
176
     1
 90
        0
176
     1
 62
    18
420
        0
176
     1
 90
       50
176
     1
 90
        3
176
     1
 62
     5
420
      255
176
     1
290
     0
176
     1
 90
       50
176
     1
 90
       50
176
     1
 90
       50
176
     1
290
     0
176
     1
 90
       50
176
     1
 62
   256
176
     0
 40
1.0
176
     0
 90
        2
176
     1
  1
strokes_ogs.tif
176
     1
290
     0
176
     1
 40
1.0
176
     1
 40
1.0
176
     1
1001
ACAD
1000
AcDbSavedByObjectVersion
1070
     0
  0
VISUALSTYLE
  5
3C
102
{ACAD_REACTORS
330
29
102
}
330
29
100
AcDbVisualStyle
  2
X-Ray
 70
    25
177
     3
291
     0
 70
    58
 90
        2
176
     1
 90
        2
176
     1
 90
        1
176
     1
 90
        1
176
     1
 40
0.5
176
     1
 40
30.0
176
     1
 62
     7
420
 16777215
176
     1
 90
        1
176
     1
 90
        0
176
     1
 62
     7
176
     1
 62
   257
176
     1
 90
        1
176
     1
 90
        1
176
     1
 40
1.0
176
     1
 90
        8
176
     1
 62
     7
176
     1
 40
1.0
176
     1
 90
        1
176
     1
 90
        6
176
     1
 90
        2
176
     1
 62
     7
176
     1
 90
        3
176
     1
 90
        0
176
     1
 90
        0
176
     1
290
     0
176
     1
 90
       13
176
     1
 40
0.0
176
     1
 90
        0
176
     1
290
     0
176
     1
290
     1
176
     1
290
     1
176
     1
290
     0
176
     1
290
     0
176
     1
290
     0
176
     1
290
     0
176
     1
290
     0
176
     1
290
     0
176
     1
 90
       50
176
     1
 40
0.0
176
     1
 40
1.0
176
     1
 90
        0
176
     1
 62
    18
420
        0
176
     1
 90
       50
176
     1
 90
        3
176
     1
 62
     5
420
      255
176
     1
290
     0
176
     1
 90
       50
176
     1
 90
       50
176
     1
 90
       50
176
     1
290
     0
176
     1
 90
       50
176
     1
 62
   256
176
     0
 40
1.0
176
     0
 90
        2
176
     1
  1
strokes_ogs.tif
176
     1
290
     0
176
     1
 40
1.0
176
     1
 40
1.0
176
     1
1001
ACAD
1000
AcDbSavedByObjectVersion
1070
     0
  0
DICTIONARYVAR
  5
676
102
{ACAD_REACTORS
330
671
102
}
330
671
100
DictionaryVariables
280
     0
  1
0
  0
DICTIONARYVAR
  5
677
102
{ACAD_REACTORS
330
671
102
}
330
671
100
DictionaryVariables
280
     0
  1
1:1
  0
DICTIONARYVAR
  5
673
102
{ACAD_REACTORS
330
671
102
}
330
671
100
DictionaryVariables
280
     0
  1
STANDARD
  0
DICTIONARYVAR
  5
672
102
{ACAD_REACTORS
330
671
102
}
330
671
100
DictionaryVariables
280
     0
  1
STANDARD
  0
DICTIONARYVAR
  5
674
102
{ACAD_REACTORS
330
671
102
}
330
671
100
DictionaryVariables
280
     0
  1
Imperial24
  0
DICTIONARYVAR
  5
675
102
{ACAD_REACTORS
330
671
102
}
330
671
100
DictionaryVariables
280
     0
  1
Imperial24
  0
DICTIONARY
  5
67D
330
6B
100
AcDbDictionary
280
     1
281
     1
  3
ACAD_XREC_ROUNDTRIP
360
67E
  0
DICTIONARY
  5
1A
330
19
100
AcDbDictionary
280
     1
281
     1
  3
BUMPTILE
360
1C
  3
DIFFUSETILE
360
1B
  3
OPACITYTILE
360
1F
  3
REFLECTIONTILE
360
1E
  3
REFRACTIONTILE
360
20
  3
SPECULARTILE
360
1D
  0
DICTIONARY
  5
12
330
11
100
AcDbDictionary
280
     1
281
     1
  3
BUMPTILE
360
14
  3
DIFFUSETILE
360
13
  3
OPACITYTILE
360
17
  3
REFLECTIONTILE
360
16
  3
REFRACTIONTILE
360
18
  3
SPECULARTILE
360
15
  0
DICTIONARY
  5
22
330
21
100
AcDbDictionary
280
     1
281
     1
  3
BUMPTILE
360
24
  3
DIFFUSETILE
360
23
  3
OPACITYTILE
360
27
  3
REFLECTIONTILE
360
26
  3
REFRACTIONTILE
360
28
  3
SPECULARTILE
360
25
  0
DICTIONARY
  5
67B
330
69
100
AcDbDictionary
280
     1
281
     1
  3
ACAD_XREC_ROUNDTRIP
360
67C
  0
DICTIONARY
  5
678
330
65
100
AcDbDictionary
280
     1
281
     1
  3
ACAD_ROUNDTRIP_2008_TABLESTYLE_CELLSTYLEMAP
360
679
  0
XRECORD
  5
67E
102
{ACAD_REACTORS
330
67D
102
}
330
67D
100
AcDbXrecord
280
     1
102
DISPLAYNAME
  1
Imperial24
102
FLAGS
 90
        0
  0
XRECORD
  5
1C
102
{ACAD_REACTORS
330
1A
102
}
330
1A
100
AcDbXrecord
280
     1
270
     1
271
     1
  0
XRECORD
  5
1B
102
{ACAD_REACTORS
330
1A
102
}
330
1A
100
AcDbXrecord
280
     1
270
     1
271
     1
  0
XRECORD
  5
1F
102
{ACAD_REACTORS
330
1A
102
}
330
1A
100
AcDbXrecord
280
     1
270
     1
271
     1
  0
XRECORD
  5
1E
102
{ACAD_REACTORS
330
1A
102
}
330
1A
100
AcDbXrecord
280
     1
270
     1
271
     1
  0
XRECORD
  5
20
102
{ACAD_REACTORS
330
1A
102
}
330
1A
100
AcDbXrecord
280
     1
270
     1
271
     1
  0
XRECORD
  5
1D
102
{ACAD_REACTORS
330
1A
102
}
330
1A
100
AcDbXrecord
280
     1
270
     1
271
     1
  0
XRECORD
  5
14
102
{ACAD_REACTORS
330
12
102
}
330
12
100
AcDbXrecord
280
     1
270
     1
271
     1
  0
XRECORD
  5
13
102
{ACAD_REACTORS
330
12
102
}
330
12
100
AcDbXrecord
280
     1
270
     1
271
     1
  0
XRECORD
  5
17
102
{ACAD_REACTORS
330
12
102
}
330
12
100
AcDbXrecord
280
     1
270
     1
271
     1
  0
XRECORD
  5
16
102
{ACAD_REACTORS
330
12
102
}
330
12
100
AcDbXrecord
280
     1
270
     1
271
     1
  0
XRECORD
  5
18
102
{ACAD_REACTORS
330
12
102
}
330
12
100
AcDbXrecord
280
     1
270
     1
271
     1
  0
XRECORD
  5
15
102
{ACAD_REACTORS
330
12
102
}
330
12
100
AcDbXrecord
280
     1
270
     1
271
     1
  0
XRECORD
  5
24
102
{ACAD_REACTORS
330
22
102
}
330
22
100
AcDbXrecord
280
     1
270
     1
271
     1
  0
XRECORD
  5
23
102
{ACAD_REACTORS
330
22
102
}
330
22
100
AcDbXrecord
280
     1
270
     1
271
     1
  0
XRECORD
  5
27
102
{ACAD_REACTORS
330
22
102
}
330
22
100
AcDbXrecord
280
     1
270
     1
271
     1
  0
XRECORD
  5
26
102
{ACAD_REACTORS
330
22
102
}
330
22
100
AcDbXrecord
280
     1
270
     1
271
     1
  0
XRECORD
  5
28
102
{ACAD_REACTORS
330
22
102
}
330
22
100
AcDbXrecord
280
     1
270
     1
271
     1
  0
XRECORD
  5
25
102
{ACAD_REACTORS
330
22
102
}
330
22
100
AcDbXrecord
280
     1
270
     1
271
     1
  0
XRECORD
  5
67C
102
{ACAD_REACTORS
330
67B
102
}
330
67B
100
AcDbXrecord
280
     1
102
DISPLAYNAME
  1
Imperial24
102
FLAGS
 90
        0
  0
CELLSTYLEMAP
  5
679
102
{ACAD_REACTORS
330
678
102
}
330
678
100
AcDbCellStyleMap
 90
        3
300
CELLSTYLE
  1
TABLEFORMAT_BEGIN
 90
        5
170
     1
 91
        0
 92
    32768
 62
   257
 93
        1
300
CONTENTFORMAT
  1
CONTENTFORMAT_BEGIN
 90
        0
 91
        0
 92
      512
 93
        0
300

 40
0.0
140
1.0
 94
        5
 62
     0
340
55
144
0.25
309
CONTENTFORMAT_END
171
     1
301
MARGIN
  1
CELLMARGIN_BEGIN
 40
1.5
 40
1.5
 40
1.5
 40
1.5
 40
0.18
 40
0.18
309
CELLMARGIN_END
 94
        0
309
TABLEFORMAT_END
  1
CELLSTYLE_BEGIN
 90
        1
 91
        1
300
_TITLE
309
CELLSTYLE_END
300
CELLSTYLE
  1
TABLEFORMAT_BEGIN
 90
        5
170
     1
 91
        0
 92
        0
 62
   257
 93
        1
300
CONTENTFORMAT
  1
CONTENTFORMAT_BEGIN
 90
        0
 91
        0
 92
      512
 93
        0
300

 40
0.0
140
1.0
 94
        5
 62
     0
340
55
144
0.18
309
CONTENTFORMAT_END
171
     1
301
MARGIN
  1
CELLMARGIN_BEGIN
 40
1.5
 40
1.5
 40
1.5
 40
1.5
 40
0.18
 40
0.18
309
CELLMARGIN_END
 94
        0
309
TABLEFORMAT_END
  1
CELLSTYLE_BEGIN
 90
        2
 91
        1
300
_HEADER
309
CELLSTYLE_END
300
CELLSTYLE
  1
TABLEFORMAT_BEGIN
 90
        5
170
     1
 91
        0
 92
        0
 62
   257
 93
        1
300
CONTENTFORMAT
  1
CONTENTFORMAT_BEGIN
 90
        0
 91
        0
 92
      512
 93
        0
300

 40
0.0
140
1.0
 94
        2
 62
     0
340
55
144
0.18
309
CONTENTFORMAT_END
171
     1
301
MARGIN
  1
CELLMARGIN_BEGIN
 40
1.5
 40
1.5
 40
1.5
 40
1.5
 40
0.18
 40
0.18
309
CELLMARGIN_END
 94
        0
309
TABLEFORMAT_END
  1
CELLSTYLE_BEGIN
 90
        3
 91
        2
300
_DATA
309
CELLSTYLE_END
  0
ENDSEC
  0
EOF
